  0
SECTION
  2
HEADER
  9
$ACADVER
  1
AC1006
  9
$INSBASE
 10
73.481527
 20
194.005697
 30
0.0
  9
$EXTMIN
 10
73.481527
 20
194.005697
  9
$EXTMAX
 10
283.481527
 20
491.005697
  9
$LIMMIN
 10
73.481527
 20
194.005697
  9
$LIMMAX
 10
283.481527
 20
491.005697
  9
$VIEWCTR
 10
178.481527
 20
342.505697
  9
$VIEWSIZE
 40
297.000000
  9
$SNAPMODE
 70
     0
  9
$SNAPUNIT
 10
1.0
 20
1.0
  9
$SNAPBASE
 10
0.0
 20
0.0
  9
$SNAPANG
 50
0.0
  9
$SNAPSTYLE
 70
     0
  9
$SNAPISOPAIR
 70
     0
  9
$GRIDMODE
 70
     0
  9
$GRIDUNIT
 10
0.0
 20
0.0
  9
$ORTHOMODE
 70
     0
  9
$REGENMODE
 70
     1
  9
$FILLMODE
 70
     1
  9
$QTEXTMODE
 70
     0
  9
$DRAGMODE
 70
     2
  9
$LTSCALE
 40
15.000000
  9
$OSMODE
 70
     0
  9
$ATTMODE
 70
     1
  9
$TEXTSIZE
 40
0.2
  9
$TRACEWID
 40
0.05
  9
$TEXTSTYLE
  7
STANDARD
  9
$CLAYER
  8
CSLAYER3
  9
$CELTYPE
  6
BYLAYER
  9
$CECOLOR
 62
   256
  9
$DIMSCALE
 40
1.0
  9
$DIMASZ
 40
0.18
  9
$DIMEXO
 40
0.0625
  9
$DIMDLI
 40
0.38
  9
$DIMRND
 40
0.0
  9
$DIMDLE
 40
0.0
  9
$DIMEXE
 40
0.18
  9
$DIMTP
 40
0.0
  9
$DIMTM
 40
0.0
  9
$DIMTXT
 40
0.18
  9
$DIMCEN
 40
0.09
  9
$DIMTSZ
 40
0.0
  9
$DIMTOL
 70
     0
  9
$DIMLIM
 70
     0
  9
$DIMTIH
 70
     1
  9
$DIMTOH
 70
     1
  9
$DIMSE1
 70
     0
  9
$DIMSE2
 70
     0
  9
$DIMTAD
 70
     0
  9
$DIMZIN
 70
     0
  9
$DIMBLK
  1

  9
$LUNITS
 70
     2
  9
$LUPREC
 70
     4
  9
$AXISMODE
 70
     0
  9
$AXISUNIT
 10
0.0
 20
0.0
  9
$SKETCHINC
 40
0.1
  9
$FILLETRAD
 40
0.0
  9
$AUNITS
 70
     0
  9
$AUPREC
 70
     0
  9
$MENU
  1
ACAD
  9
$ELEVATION
 40
0.0
  9
$THICKNESS
 40
0.0
  9
$VIEWDIR
 10
0.0
 20
0.0
 30
1.0
  9
$LIMCHECK
 70
     0
  9
$BLIPMODE
 70
     1
  9
$CHAMFERA
 40
0.0
  9
$CHAMFERB
 40
0.0
  9
$FASTZOOM
 70
     1
  9
$SKPOLY
 70
     0
  9
$TDCREATE
 40
0.000000
  9
$TDUPDATE
 40
0.000000
  9
$TDINDWG
 40
0.0
  9
$TDUSRTIMER
 40
0.0
  9
$USRTIMER
 70
     1
  9
$ANGBASE
 50
0.0
  9
$ANGDIR
 70
     0
  9
$PDMODE
 70
     0
  9
$PDSIZE
 40
0.0
  9
$PLINEWID
 40
0.0
  9
$COORDS
 70
     0
  9
$USERI1
 70
     0
  9
$USERI2
 70
     0
  9
$USERI3
 70
     0
  9
$USERI4
 70
     0
  9
$USERI5
 70
     0
  9
$USERR1
 40
0.0
  9
$USERR2
 40
0.0
  9
$USERR3
 40
0.0
  9
$USERR4
 40
0.0
  9
$USERR5
 40
0.0
  0
ENDSEC
  0
SECTION
  2
TABLES
  0
TABLE
  2
LTYPE
 70
     9
  0
LTYPE
  2
CONTINUOUS
 70
    64
  3
Solid line
 72
    65
 73
     0
 40
0.0
  0
LTYPE
  2
DASHED
 70
    64
  3
__ __ __ __ __ __ __ __ __ __ __ __ __ __ __
 72
    65
 73
     2
 40
0.75
 49
0.5
 49
-0.25
  0
LTYPE
  2
HIDDEN
 70
    64
  3
_ _ _ _ _ _ _ _ _ _ _ _ _ _ _ _ _ _ _ _ _ _ _
 72
    65
 73
     2
 40
0.375
 49
0.25
 49
-0.125
  0
LTYPE
  2
DOT
 70
    64
  3
...............................................
 72
    65
 73
     2
 40
0.25
 49
0.0
 49
-0.25
  0
LTYPE
  2
DASHDOT
 70
    64
  3
__ . __ . __ . __ . __ . __ . __ . __ . __ . __
 72
    65
 73
     4
 40
1.0
 49
0.5
 49
-0.25
 49
0.0
 49
-0.25
  0
LTYPE
  2
DIVIDE
 70
    64
  3
__ . . __ . . __ . . __ . . __ . . __ . . __
 72
    65
 73
     6
 40
1.25
 49
0.5
 49
-0.25
 49
0.0
 49
-0.25
 49
0.0
 49
-0.25
  0
LTYPE
  2
CENTER
 70
    64
  3
____ _ ____ _ ____ _ ____ _ ____ _ ____ _ ____ 
 72
    65
 73
     4
 40
2.0
 49
1.25
 49
-0.25
 49
0.25
 49
-0.25
  0
LTYPE
  2
PHANTOM
 70
    64
  3
______  __  __  ______  __  __  ______  __  __ 
 72
    65
 73
     6
 40
2.5
 49
1.25
 49
-0.25
 49
0.25
 49
-0.25
 49
0.25
 49
-0.25
  0
LTYPE
  2
BORDER
 70
    64
  3
__ __ . __ __ . __ __ . __ __ . __ __ . __ __ .
 72
    65
 73
     6
 40
1.75
 49
0.5
 49
-0.25
 49
0.5
 49
-0.25
 49
0.0
 49
-0.25
  0
ENDTAB
  0
TABLE
  2
LAYER
 70
    16
  0
LAYER
  2
CSLAYER1
 70
    64
 62
     7
  6
CONTINUOUS
  0
LAYER
  2
CSLAYER2
 70
    64
 62
     7
  6
CONTINUOUS
  0
LAYER
  2
CSLAYER3
 70
    64
 62
     7
  6
CONTINUOUS
  0
LAYER
  2
CSLAYER4
 70
    64
 62
     7
  6
CONTINUOUS
  0
LAYER
  2
CSLAYER5
 70
    64
 62
     7
  6
CONTINUOUS
  0
LAYER
  2
CSLAYER6
 70
    64
 62
     7
  6
CONTINUOUS
  0
LAYER
  2
CSLAYER7
 70
    64
 62
     7
  6
CONTINUOUS
  0
LAYER
  2
CSLAYER8
 70
    64
 62
     7
  6
CONTINUOUS
  0
LAYER
  2
CSLAYER9
 70
    64
 62
     7
  6
CONTINUOUS
  0
LAYER
  2
CSLAYER10
 70
    64
 62
     7
  6
CONTINUOUS
  0
LAYER
  2
CSLAYER11
 70
    64
 62
     7
  6
CONTINUOUS
  0
LAYER
  2
CSLAYER12
 70
    64
 62
     7
  6
CONTINUOUS
  0
LAYER
  2
CSLAYER13
 70
    64
 62
     7
  6
CONTINUOUS
  0
LAYER
  2
CSLAYER14
 70
    64
 62
     7
  6
CONTINUOUS
  0
LAYER
  2
CSLAYER15
 70
    64
 62
     7
  6
CONTINUOUS
  0
LAYER
  2
CSLAYER16
 70
    64
 62
     7
  6
CONTINUOUS
  0
ENDTAB
  0
TABLE
  2
STYLE
 70
     1
  0
STYLE
  2
SX_FONT
 70
     0
 40
1.0
 41
1.0
 50
0.0
 71
     0
 42
1.0
  3
monotxt
  4
bigfont
  0
ENDTAB
  0
TABLE
  2
VIEW
 70
     0
  0
ENDTAB
  0
ENDSEC
  0
SECTION
  2
BLOCKS
  0
BLOCK
  8
CSLAYER1
  2
*D0000
 70
    65
 10
0.0
 20
0.0
 30
0.0
  0
LINE
  8
CSLAYER1
  6
CONTINUOUS
 62
     7
 10
83.554687
 20
209.067708
 11
83.554687
 21
214.227971
  0
LINE
  8
CSLAYER1
  6
CONTINUOUS
 62
     7
 10
128.554687
 20
209.067708
 11
128.554687
 21
214.227971
  0
LINE
  8
CSLAYER1
  6
CONTINUOUS
 62
     7
 10
83.554687
 20
213.227971
 11
128.554687
 21
213.227971
  0
LINE
  8
CSLAYER1
  6
CONTINUOUS
 62
     7
 10
83.554687
 20
213.227971
 11
87.418391
 21
214.263247
  0
LINE
  8
CSLAYER1
  6
CONTINUOUS
 62
     7
 10
83.554687
 20
213.227971
 11
87.418391
 21
212.192694
  0
LINE
  8
CSLAYER1
  6
CONTINUOUS
 62
     7
 10
128.554687
 20
213.227971
 11
124.690984
 21
214.263247
  0
LINE
  8
CSLAYER1
  6
CONTINUOUS
 62
     7
 10
128.554687
 20
213.227971
 11
124.690984
 21
212.192694
  0
TEXT
  8
CSLAYER1
 62
     7
 10
103.054688
 20
214.227966
 40
4.000000
 41
0.900000
  1
45
 50
0.000000
 51
0.000000
  7
SX_FONT
 72
     5
 11
109.054688
 21
214.227966
  0
ENDBLK
  8
0
  0
BLOCK
  8
CSLAYER1
  2
*D0001
 70
    65
 10
0.0
 20
0.0
 30
0.0
  0
LINE
  8
CSLAYER1
  6
CONTINUOUS
 62
     7
 10
134.836995
 20
132.906250
 11
139.707921
 21
132.906250
  0
LINE
  8
CSLAYER1
  6
CONTINUOUS
 62
     7
 10
134.836995
 20
202.906250
 11
139.707921
 21
202.906250
  0
LINE
  8
CSLAYER1
  6
CONTINUOUS
 62
     7
 10
138.707921
 20
132.906250
 11
138.707921
 21
202.906250
  0
LINE
  8
CSLAYER1
  6
CONTINUOUS
 62
     7
 10
138.707921
 20
132.906250
 11
137.672645
 21
136.769953
  0
LINE
  8
CSLAYER1
  6
CONTINUOUS
 62
     7
 10
138.707921
 20
132.906250
 11
139.743198
 21
136.769953
  0
LINE
  8
CSLAYER1
  6
CONTINUOUS
 62
     7
 10
138.707921
 20
202.906250
 11
137.672645
 21
199.042547
  0
LINE
  8
CSLAYER1
  6
CONTINUOUS
 62
     7
 10
138.707921
 20
202.906250
 11
139.743198
 21
199.042547
  0
TEXT
  8
CSLAYER1
 62
     7
 10
144.456238
 20
164.560760
 40
4.000000
 41
0.900000
  1
70
 50
90.000000
 51
0.000000
  7
SX_FONT
 72
     5
 11
144.456238
 21
170.560760
  0
ENDBLK
  8
0
  0
ENDSEC
  0
SECTION
  2
ENTITIES
  0
LINE
  8
CSLAYER2
  6
CONTINUOUS
 62
     7
 10
95.015297
 20
168.981398
 11
100.642998
 21
166.912102
  0
LINE
  8
CSLAYER2
  6
CONTINUOUS
 62
     7
 10
101.054687
 20
202.906250
 11
128.554687
 21
202.906250
  0
LINE
  8
CSLAYER2
  6
CONTINUOUS
 62
     7
 10
128.554687
 20
202.906250
 11
128.554687
 21
132.906250
  0
LINE
  8
CSLAYER2
  6
CONTINUOUS
 62
     7
 10
128.554687
 20
132.906250
 11
110.554687
 21
132.906250
  0
ARC
  8
CSLAYER2
  6
CONTINUOUS
 62
     7
 10
101.054687
 20
185.406250
 40
17.500000
 50
90.000000
 51
180.000000
  0
ARC
  8
CSLAYER2
  6
CONTINUOUS
 62
     7
 10
101.054687
 20
185.406250
 40
17.500000
 50
180.000000
 51
249.811609
  0
ARC
  8
CSLAYER2
  6
CONTINUOUS
 62
     7
 10
98.054687
 20
159.872880
 40
7.500000
 50
-50.131658
 51
0.000000
  0
ARC
  8
CSLAYER2
  6
CONTINUOUS
 62
     7
 10
98.054687
 20
159.872880
 40
7.500000
 50
0.000000
 51
69.811609
  0
ARC
  8
CSLAYER2
  6
CONTINUOUS
 62
     7
 10
110.554687
 20
144.906250
 40
12.000000
 50
129.868342
 51
180.000000
  0
ARC
  8
CSLAYER2
  6
CONTINUOUS
 62
     7
 10
110.554687
 20
144.906250
 40
12.000000
 50
180.000000
 51
270.000000
  0
TEXT
  8
CSLAYER1
 62
     7
 10
83.589363
 20
72.436371
 40
10.000000
 41
0.630000
  1
FM-4005
 50
0.000000
 51
0.000000
  7
SX_FONT
 72
     5
 11
125.589363
 21
72.436371
  0
TEXT
  8
CSLAYER1
 62
     7
 10
140.573730
 20
72.693352
 40
10.000000
 41
0.642857
  1
45x70
 50
0.000000
 51
0.000000
  7
SX_FONT
 72
     5
 11
170.573730
 21
72.693352
  0
TEXT
  8
CSLAYER1
 62
     7
 10
85.094032
 20
61.116646
 40
5.000000
 41
0.612766
  1
カタログ Vol. 1  P81
 50
0.000000
 51
0.000000
  7
SX_FONT
 72
     5
 11
133.094032
 21
61.116646
  0
DIMENSION
  8
CSLAYER1
 62
     7
  2
*D0000
 10
128.554687
 20
213.227971
 11
106.054688
 21
214.227966
 13
83.554687
 23
208.067708
 14
128.554687
 24
208.067708
 70
1
  0
DIMENSION
  8
CSLAYER1
 62
     7
  2
*D0001
 10
138.707921
 20
202.906250
 11
144.456238
 21
167.560760
 13
133.836995
 23
132.906250
 14
133.836995
 24
202.906250
 50
90.000000
 70
1
  0
TEXT
  8
CSLAYER1
 62
     7
 10
84.713248
 20
51.365832
 40
4.960742
 41
0.729057
  1
ホ%%dケットカタロク゛ Vol. 1 P56
 50
0.000000
 51
0.000000
  7
SX_FONT
 72
     5
 11
159.457605
 21
51.365832
  0
ENDSEC
  0
EOF
