  0
SECTION
  2
HEADER
  9
$ACADVER
  1
AC1006
  9
$INSBASE
 10
65.396240
 20
200.051758
 30
0.0
  9
$EXTMIN
 10
65.396240
 20
200.051758
  9
$EXTMAX
 10
275.396240
 20
497.051758
  9
$LIMMIN
 10
65.396240
 20
200.051758
  9
$LIMMAX
 10
275.396240
 20
497.051758
  9
$VIEWCTR
 10
170.396240
 20
348.551758
  9
$VIEWSIZE
 40
297.000000
  9
$SNAPMODE
 70
     0
  9
$SNAPUNIT
 10
1.0
 20
1.0
  9
$SNAPBASE
 10
0.0
 20
0.0
  9
$SNAPANG
 50
0.0
  9
$SNAPSTYLE
 70
     0
  9
$SNAPISOPAIR
 70
     0
  9
$GRIDMODE
 70
     0
  9
$GRIDUNIT
 10
0.0
 20
0.0
  9
$ORTHOMODE
 70
     0
  9
$REGENMODE
 70
     1
  9
$FILLMODE
 70
     1
  9
$QTEXTMODE
 70
     0
  9
$DRAGMODE
 70
     2
  9
$LTSCALE
 40
15.000000
  9
$OSMODE
 70
     0
  9
$ATTMODE
 70
     1
  9
$TEXTSIZE
 40
0.2
  9
$TRACEWID
 40
0.05
  9
$TEXTSTYLE
  7
STANDARD
  9
$CLAYER
  8
CSLAYER3
  9
$CELTYPE
  6
BYLAYER
  9
$CECOLOR
 62
   256
  9
$DIMSCALE
 40
1.0
  9
$DIMASZ
 40
0.18
  9
$DIMEXO
 40
0.0625
  9
$DIMDLI
 40
0.38
  9
$DIMRND
 40
0.0
  9
$DIMDLE
 40
0.0
  9
$DIMEXE
 40
0.18
  9
$DIMTP
 40
0.0
  9
$DIMTM
 40
0.0
  9
$DIMTXT
 40
0.18
  9
$DIMCEN
 40
0.09
  9
$DIMTSZ
 40
0.0
  9
$DIMTOL
 70
     0
  9
$DIMLIM
 70
     0
  9
$DIMTIH
 70
     1
  9
$DIMTOH
 70
     1
  9
$DIMSE1
 70
     0
  9
$DIMSE2
 70
     0
  9
$DIMTAD
 70
     0
  9
$DIMZIN
 70
     0
  9
$DIMBLK
  1

  9
$LUNITS
 70
     2
  9
$LUPREC
 70
     4
  9
$AXISMODE
 70
     0
  9
$AXISUNIT
 10
0.0
 20
0.0
  9
$SKETCHINC
 40
0.1
  9
$FILLETRAD
 40
0.0
  9
$AUNITS
 70
     0
  9
$AUPREC
 70
     0
  9
$MENU
  1
ACAD
  9
$ELEVATION
 40
0.0
  9
$THICKNESS
 40
0.0
  9
$VIEWDIR
 10
0.0
 20
0.0
 30
1.0
  9
$LIMCHECK
 70
     0
  9
$BLIPMODE
 70
     1
  9
$CHAMFERA
 40
0.0
  9
$CHAMFERB
 40
0.0
  9
$FASTZOOM
 70
     1
  9
$SKPOLY
 70
     0
  9
$TDCREATE
 40
0.000000
  9
$TDUPDATE
 40
0.000000
  9
$TDINDWG
 40
0.0
  9
$TDUSRTIMER
 40
0.0
  9
$USRTIMER
 70
     1
  9
$ANGBASE
 50
0.0
  9
$ANGDIR
 70
     0
  9
$PDMODE
 70
     0
  9
$PDSIZE
 40
0.0
  9
$PLINEWID
 40
0.0
  9
$COORDS
 70
     0
  9
$USERI1
 70
     0
  9
$USERI2
 70
     0
  9
$USERI3
 70
     0
  9
$USERI4
 70
     0
  9
$USERI5
 70
     0
  9
$USERR1
 40
0.0
  9
$USERR2
 40
0.0
  9
$USERR3
 40
0.0
  9
$USERR4
 40
0.0
  9
$USERR5
 40
0.0
  0
ENDSEC
  0
SECTION
  2
TABLES
  0
TABLE
  2
LTYPE
 70
     9
  0
LTYPE
  2
CONTINUOUS
 70
    64
  3
Solid line
 72
    65
 73
     0
 40
0.0
  0
LTYPE
  2
DASHED
 70
    64
  3
__ __ __ __ __ __ __ __ __ __ __ __ __ __ __
 72
    65
 73
     2
 40
0.75
 49
0.5
 49
-0.25
  0
LTYPE
  2
HIDDEN
 70
    64
  3
_ _ _ _ _ _ _ _ _ _ _ _ _ _ _ _ _ _ _ _ _ _ _
 72
    65
 73
     2
 40
0.375
 49
0.25
 49
-0.125
  0
LTYPE
  2
DOT
 70
    64
  3
...............................................
 72
    65
 73
     2
 40
0.25
 49
0.0
 49
-0.25
  0
LTYPE
  2
DASHDOT
 70
    64
  3
__ . __ . __ . __ . __ . __ . __ . __ . __ . __
 72
    65
 73
     4
 40
1.0
 49
0.5
 49
-0.25
 49
0.0
 49
-0.25
  0
LTYPE
  2
DIVIDE
 70
    64
  3
__ . . __ . . __ . . __ . . __ . . __ . . __
 72
    65
 73
     6
 40
1.25
 49
0.5
 49
-0.25
 49
0.0
 49
-0.25
 49
0.0
 49
-0.25
  0
LTYPE
  2
CENTER
 70
    64
  3
____ _ ____ _ ____ _ ____ _ ____ _ ____ _ ____ 
 72
    65
 73
     4
 40
2.0
 49
1.25
 49
-0.25
 49
0.25
 49
-0.25
  0
LTYPE
  2
PHANTOM
 70
    64
  3
______  __  __  ______  __  __  ______  __  __ 
 72
    65
 73
     6
 40
2.5
 49
1.25
 49
-0.25
 49
0.25
 49
-0.25
 49
0.25
 49
-0.25
  0
LTYPE
  2
BORDER
 70
    64
  3
__ __ . __ __ . __ __ . __ __ . __ __ . __ __ .
 72
    65
 73
     6
 40
1.75
 49
0.5
 49
-0.25
 49
0.5
 49
-0.25
 49
0.0
 49
-0.25
  0
ENDTAB
  0
TABLE
  2
LAYER
 70
    16
  0
LAYER
  2
CSLAYER1
 70
    64
 62
     7
  6
CONTINUOUS
  0
LAYER
  2
CSLAYER2
 70
    64
 62
     7
  6
CONTINUOUS
  0
LAYER
  2
CSLAYER3
 70
    64
 62
     7
  6
CONTINUOUS
  0
LAYER
  2
CSLAYER4
 70
    64
 62
     7
  6
CONTINUOUS
  0
LAYER
  2
CSLAYER5
 70
    64
 62
     7
  6
CONTINUOUS
  0
LAYER
  2
CSLAYER6
 70
    64
 62
     7
  6
CONTINUOUS
  0
LAYER
  2
CSLAYER7
 70
    64
 62
     7
  6
CONTINUOUS
  0
LAYER
  2
CSLAYER8
 70
    64
 62
     7
  6
CONTINUOUS
  0
LAYER
  2
CSLAYER9
 70
    64
 62
     7
  6
CONTINUOUS
  0
LAYER
  2
CSLAYER10
 70
    64
 62
     7
  6
CONTINUOUS
  0
LAYER
  2
CSLAYER11
 70
    64
 62
     7
  6
CONTINUOUS
  0
LAYER
  2
CSLAYER12
 70
    64
 62
     7
  6
CONTINUOUS
  0
LAYER
  2
CSLAYER13
 70
    64
 62
     7
  6
CONTINUOUS
  0
LAYER
  2
CSLAYER14
 70
    64
 62
     7
  6
CONTINUOUS
  0
LAYER
  2
CSLAYER15
 70
    64
 62
     7
  6
CONTINUOUS
  0
LAYER
  2
CSLAYER16
 70
    64
 62
     7
  6
CONTINUOUS
  0
ENDTAB
  0
TABLE
  2
STYLE
 70
     1
  0
STYLE
  2
SX_FONT
 70
     0
 40
1.0
 41
1.0
 50
0.0
 71
     0
 42
1.0
  3
monotxt
  4
bigfont
  0
ENDTAB
  0
TABLE
  2
VIEW
 70
     0
  0
ENDTAB
  0
ENDSEC
  0
SECTION
  2
BLOCKS
  0
BLOCK
  8
CSLAYER1
  2
*D0000
 70
    65
 10
0.0
 20
0.0
 30
0.0
  0
LINE
  8
CSLAYER1
  6
CONTINUOUS
 62
     7
 10
46.210938
 20
200.765625
 11
46.210938
 21
206.116517
  0
LINE
  8
CSLAYER1
  6
CONTINUOUS
 62
     7
 10
136.210938
 20
200.765625
 11
136.210938
 21
206.116517
  0
LINE
  8
CSLAYER1
  6
CONTINUOUS
 62
     7
 10
46.210938
 20
205.116517
 11
136.210938
 21
205.116517
  0
LINE
  8
CSLAYER1
  6
CONTINUOUS
 62
     7
 10
46.210938
 20
205.116517
 11
50.074641
 21
206.151793
  0
LINE
  8
CSLAYER1
  6
CONTINUOUS
 62
     7
 10
46.210938
 20
205.116517
 11
50.074641
 21
204.081240
  0
LINE
  8
CSLAYER1
  6
CONTINUOUS
 62
     7
 10
136.210938
 20
205.116517
 11
132.347234
 21
206.151793
  0
LINE
  8
CSLAYER1
  6
CONTINUOUS
 62
     7
 10
136.210938
 20
205.116517
 11
132.347234
 21
204.081240
  0
TEXT
  8
CSLAYER1
 62
     7
 10
88.210938
 20
206.116516
 40
4.000000
 41
0.900000
  1
90
 50
0.000000
 51
0.000000
  7
SX_FONT
 72
     5
 11
94.210938
 21
206.116516
  0
ENDBLK
  8
0
  0
BLOCK
  8
CSLAYER1
  2
*D0001
 70
    65
 10
0.0
 20
0.0
 30
0.0
  0
LINE
  8
CSLAYER1
  6
CONTINUOUS
 62
     7
 10
142.210938
 20
134.765625
 11
147.385062
 21
134.765625
  0
LINE
  8
CSLAYER1
  6
CONTINUOUS
 62
     7
 10
142.210938
 20
194.765625
 11
147.385062
 21
194.765625
  0
LINE
  8
CSLAYER1
  6
CONTINUOUS
 62
     7
 10
146.385062
 20
134.765625
 11
146.385062
 21
194.765625
  0
LINE
  8
CSLAYER1
  6
CONTINUOUS
 62
     7
 10
146.385062
 20
134.765625
 11
145.349786
 21
138.629328
  0
LINE
  8
CSLAYER1
  6
CONTINUOUS
 62
     7
 10
146.385062
 20
134.765625
 11
147.420338
 21
138.629328
  0
LINE
  8
CSLAYER1
  6
CONTINUOUS
 62
     7
 10
146.385062
 20
194.765625
 11
145.349786
 21
190.901922
  0
LINE
  8
CSLAYER1
  6
CONTINUOUS
 62
     7
 10
146.385062
 20
194.765625
 11
147.420338
 21
190.901922
  0
TEXT
  8
CSLAYER1
 62
     7
 10
151.469681
 20
161.738632
 40
4.000000
 41
0.900000
  1
60
 50
90.000000
 51
0.000000
  7
SX_FONT
 72
     5
 11
151.469681
 21
167.738632
  0
ENDBLK
  8
0
  0
ENDSEC
  0
SECTION
  2
ENTITIES
  0
ARC
  8
CSLAYER2
  6
CONTINUOUS
 62
     7
 10
64.210938
 20
161.265625
 40
18.000000
 50
90.000000
 51
180.000000
  0
ARC
  8
CSLAYER2
  6
CONTINUOUS
 62
     7
 10
74.210938
 20
161.265625
 40
28.000000
 50
180.000000
 51
251.160803
  0
ARC
  8
CSLAYER2
  6
CONTINUOUS
 62
     7
 10
73.763473
 20
219.265625
 40
40.000000
 50
270.000000
 51
308.624833
  0
LINE
  8
CSLAYER2
  6
CONTINUOUS
 62
     7
 10
64.210938
 20
179.265625
 11
73.763473
 21
179.265625
  0
ARC
  8
CSLAYER2
  6
CONTINUOUS
 62
     7
 10
123.700933
 20
156.765625
 40
40.000000
 50
111.039470
 51
128.624833
  0
ARC
  8
CSLAYER2
  6
CONTINUOUS
 62
     7
 10
112.930604
 20
184.765625
 40
10.000000
 50
90.000000
 51
111.039470
  0
LINE
  8
CSLAYER2
  6
CONTINUOUS
 62
     7
 10
112.930604
 20
194.765625
 11
136.210938
 21
194.765625
  0
LINE
  8
CSLAYER2
  6
CONTINUOUS
 62
     7
 10
136.210938
 20
194.765625
 11
136.210938
 21
134.765625
  0
LINE
  8
CSLAYER2
  6
CONTINUOUS
 62
     7
 10
136.210938
 20
134.765625
 11
65.169367
 21
134.765625
  0
TEXT
  8
CSLAYER1
 62
     7
 10
46.326859
 20
74.756851
 40
10.000000
 41
0.630000
  1
FM-4002
 50
0.000000
 51
0.000000
  7
SX_FONT
 72
     5
 11
88.326859
 21
74.756851
  0
TEXT
  8
CSLAYER1
 62
     7
 10
103.320938
 20
74.788383
 40
10.000000
 41
0.642857
  1
90x60
 50
0.000000
 51
0.000000
  7
SX_FONT
 72
     5
 11
133.320938
 21
74.788383
  0
TEXT
  8
CSLAYER1
 62
     7
 10
47.388130
 20
62.710960
 40
5.000000
 41
0.612766
  1
カタログ Vol. 1  P80
 50
0.000000
 51
0.000000
  7
SX_FONT
 72
     5
 11
95.388130
 21
62.710960
  0
DIMENSION
  8
CSLAYER1
 62
     7
  2
*D0000
 10
136.210938
 20
205.116517
 11
91.210938
 21
206.116516
 13
46.210938
 23
199.765625
 14
136.210938
 24
199.765625
 70
1
  0
DIMENSION
  8
CSLAYER1
 62
     7
  2
*D0001
 10
146.385062
 20
194.765625
 11
151.469681
 21
164.738632
 13
141.210938
 23
134.765625
 14
141.210938
 24
194.765625
 50
90.000000
 70
1
  0
TEXT
  8
CSLAYER1
 62
     7
 10
47.377478
 20
53.458777
 40
4.960742
 41
0.729057
  1
ホ%%dケットカタロク゛ Vol. 1 P55
 50
0.000000
 51
0.000000
  7
SX_FONT
 72
     5
 11
122.121835
 21
53.458777
  0
ENDSEC
  0
EOF
