  0
SECTION
  2
HEADER
  9
$ACADVER
  1
AC1006
  9
$INSBASE
 10
77.957886
 20
159.494629
 30
0.0
  9
$EXTMIN
 10
77.957886
 20
159.494629
  9
$EXTMAX
 10
287.957886
 20
456.494629
  9
$LIMMIN
 10
77.957886
 20
159.494629
  9
$LIMMAX
 10
287.957886
 20
456.494629
  9
$VIEWCTR
 10
182.957886
 20
307.994629
  9
$VIEWSIZE
 40
297.000000
  9
$SNAPMODE
 70
     0
  9
$SNAPUNIT
 10
1.0
 20
1.0
  9
$SNAPBASE
 10
0.0
 20
0.0
  9
$SNAPANG
 50
0.0
  9
$SNAPSTYLE
 70
     0
  9
$SNAPISOPAIR
 70
     0
  9
$GRIDMODE
 70
     0
  9
$GRIDUNIT
 10
0.0
 20
0.0
  9
$ORTHOMODE
 70
     0
  9
$REGENMODE
 70
     1
  9
$FILLMODE
 70
     1
  9
$QTEXTMODE
 70
     0
  9
$DRAGMODE
 70
     2
  9
$LTSCALE
 40
15.000000
  9
$OSMODE
 70
     0
  9
$ATTMODE
 70
     1
  9
$TEXTSIZE
 40
0.2
  9
$TRACEWID
 40
0.05
  9
$TEXTSTYLE
  7
STANDARD
  9
$CLAYER
  8
CSLAYER3
  9
$CELTYPE
  6
BYLAYER
  9
$CECOLOR
 62
   256
  9
$DIMSCALE
 40
1.0
  9
$DIMASZ
 40
0.18
  9
$DIMEXO
 40
0.0625
  9
$DIMDLI
 40
0.38
  9
$DIMRND
 40
0.0
  9
$DIMDLE
 40
0.0
  9
$DIMEXE
 40
0.18
  9
$DIMTP
 40
0.0
  9
$DIMTM
 40
0.0
  9
$DIMTXT
 40
0.18
  9
$DIMCEN
 40
0.09
  9
$DIMTSZ
 40
0.0
  9
$DIMTOL
 70
     0
  9
$DIMLIM
 70
     0
  9
$DIMTIH
 70
     1
  9
$DIMTOH
 70
     1
  9
$DIMSE1
 70
     0
  9
$DIMSE2
 70
     0
  9
$DIMTAD
 70
     0
  9
$DIMZIN
 70
     0
  9
$DIMBLK
  1

  9
$LUNITS
 70
     2
  9
$LUPREC
 70
     4
  9
$AXISMODE
 70
     0
  9
$AXISUNIT
 10
0.0
 20
0.0
  9
$SKETCHINC
 40
0.1
  9
$FILLETRAD
 40
0.0
  9
$AUNITS
 70
     0
  9
$AUPREC
 70
     0
  9
$MENU
  1
ACAD
  9
$ELEVATION
 40
0.0
  9
$THICKNESS
 40
0.0
  9
$VIEWDIR
 10
0.0
 20
0.0
 30
1.0
  9
$LIMCHECK
 70
     0
  9
$BLIPMODE
 70
     1
  9
$CHAMFERA
 40
0.0
  9
$CHAMFERB
 40
0.0
  9
$FASTZOOM
 70
     1
  9
$SKPOLY
 70
     0
  9
$TDCREATE
 40
0.000000
  9
$TDUPDATE
 40
0.000000
  9
$TDINDWG
 40
0.0
  9
$TDUSRTIMER
 40
0.0
  9
$USRTIMER
 70
     1
  9
$ANGBASE
 50
0.0
  9
$ANGDIR
 70
     0
  9
$PDMODE
 70
     0
  9
$PDSIZE
 40
0.0
  9
$PLINEWID
 40
0.0
  9
$COORDS
 70
     0
  9
$USERI1
 70
     0
  9
$USERI2
 70
     0
  9
$USERI3
 70
     0
  9
$USERI4
 70
     0
  9
$USERI5
 70
     0
  9
$USERR1
 40
0.0
  9
$USERR2
 40
0.0
  9
$USERR3
 40
0.0
  9
$USERR4
 40
0.0
  9
$USERR5
 40
0.0
  0
ENDSEC
  0
SECTION
  2
TABLES
  0
TABLE
  2
LTYPE
 70
     9
  0
LTYPE
  2
CONTINUOUS
 70
    64
  3
Solid line
 72
    65
 73
     0
 40
0.0
  0
LTYPE
  2
DASHED
 70
    64
  3
__ __ __ __ __ __ __ __ __ __ __ __ __ __ __
 72
    65
 73
     2
 40
0.75
 49
0.5
 49
-0.25
  0
LTYPE
  2
HIDDEN
 70
    64
  3
_ _ _ _ _ _ _ _ _ _ _ _ _ _ _ _ _ _ _ _ _ _ _
 72
    65
 73
     2
 40
0.375
 49
0.25
 49
-0.125
  0
LTYPE
  2
DOT
 70
    64
  3
...............................................
 72
    65
 73
     2
 40
0.25
 49
0.0
 49
-0.25
  0
LTYPE
  2
DASHDOT
 70
    64
  3
__ . __ . __ . __ . __ . __ . __ . __ . __ . __
 72
    65
 73
     4
 40
1.0
 49
0.5
 49
-0.25
 49
0.0
 49
-0.25
  0
LTYPE
  2
DIVIDE
 70
    64
  3
__ . . __ . . __ . . __ . . __ . . __ . . __
 72
    65
 73
     6
 40
1.25
 49
0.5
 49
-0.25
 49
0.0
 49
-0.25
 49
0.0
 49
-0.25
  0
LTYPE
  2
CENTER
 70
    64
  3
____ _ ____ _ ____ _ ____ _ ____ _ ____ _ ____ 
 72
    65
 73
     4
 40
2.0
 49
1.25
 49
-0.25
 49
0.25
 49
-0.25
  0
LTYPE
  2
PHANTOM
 70
    64
  3
______  __  __  ______  __  __  ______  __  __ 
 72
    65
 73
     6
 40
2.5
 49
1.25
 49
-0.25
 49
0.25
 49
-0.25
 49
0.25
 49
-0.25
  0
LTYPE
  2
BORDER
 70
    64
  3
__ __ . __ __ . __ __ . __ __ . __ __ . __ __ .
 72
    65
 73
     6
 40
1.75
 49
0.5
 49
-0.25
 49
0.5
 49
-0.25
 49
0.0
 49
-0.25
  0
ENDTAB
  0
TABLE
  2
LAYER
 70
    16
  0
LAYER
  2
CSLAYER1
 70
    64
 62
     7
  6
CONTINUOUS
  0
LAYER
  2
CSLAYER2
 70
    64
 62
     7
  6
CONTINUOUS
  0
LAYER
  2
CSLAYER3
 70
    64
 62
     7
  6
CONTINUOUS
  0
LAYER
  2
CSLAYER4
 70
    64
 62
     7
  6
CONTINUOUS
  0
LAYER
  2
CSLAYER5
 70
    64
 62
     7
  6
CONTINUOUS
  0
LAYER
  2
CSLAYER6
 70
    64
 62
     7
  6
CONTINUOUS
  0
LAYER
  2
CSLAYER7
 70
    64
 62
     7
  6
CONTINUOUS
  0
LAYER
  2
CSLAYER8
 70
    64
 62
     7
  6
CONTINUOUS
  0
LAYER
  2
CSLAYER9
 70
    64
 62
     7
  6
CONTINUOUS
  0
LAYER
  2
CSLAYER10
 70
    64
 62
     7
  6
CONTINUOUS
  0
LAYER
  2
CSLAYER11
 70
    64
 62
     7
  6
CONTINUOUS
  0
LAYER
  2
CSLAYER12
 70
    64
 62
     7
  6
CONTINUOUS
  0
LAYER
  2
CSLAYER13
 70
    64
 62
     7
  6
CONTINUOUS
  0
LAYER
  2
CSLAYER14
 70
    64
 62
     7
  6
CONTINUOUS
  0
LAYER
  2
CSLAYER15
 70
    64
 62
     7
  6
CONTINUOUS
  0
LAYER
  2
CSLAYER16
 70
    64
 62
     7
  6
CONTINUOUS
  0
ENDTAB
  0
TABLE
  2
STYLE
 70
     1
  0
STYLE
  2
SX_FONT
 70
     0
 40
1.0
 41
1.0
 50
0.0
 71
     0
 42
1.0
  3
monotxt
  4
bigfont
  0
ENDTAB
  0
TABLE
  2
VIEW
 70
     0
  0
ENDTAB
  0
ENDSEC
  0
SECTION
  2
BLOCKS
  0
BLOCK
  8
CSLAYER1
  2
*D0000
 70
    65
 10
0.0
 20
0.0
 30
0.0
  0
LINE
  8
CSLAYER1
  6
CONTINUOUS
 62
     7
 10
62.085286
 20
214.321452
 11
62.085286
 21
220.321452
  0
LINE
  8
CSLAYER1
  6
CONTINUOUS
 62
     7
 10
72.085286
 20
214.321452
 11
72.085286
 21
220.321452
  0
LINE
  8
CSLAYER1
  6
CONTINUOUS
 62
     7
 10
62.085286
 20
219.321452
 11
72.085286
 21
219.321452
  0
LINE
  8
CSLAYER1
  6
CONTINUOUS
 62
     7
 10
56.085286
 20
219.321452
 11
62.085286
 21
219.321452
  0
LINE
  8
CSLAYER1
  6
CONTINUOUS
 62
     7
 10
62.085286
 20
219.321452
 11
58.221583
 21
220.356728
  0
LINE
  8
CSLAYER1
  6
CONTINUOUS
 62
     7
 10
62.085286
 20
219.321452
 11
58.221583
 21
218.286176
  0
LINE
  8
CSLAYER1
  6
CONTINUOUS
 62
     7
 10
72.085286
 20
219.321452
 11
78.085286
 21
219.321452
  0
LINE
  8
CSLAYER1
  6
CONTINUOUS
 62
     7
 10
72.085286
 20
219.321452
 11
75.948990
 21
220.356728
  0
LINE
  8
CSLAYER1
  6
CONTINUOUS
 62
     7
 10
72.085286
 20
219.321452
 11
75.948990
 21
218.286176
  0
TEXT
  8
CSLAYER1
 62
     7
 10
64.085289
 20
220.321457
 40
4.000000
 41
0.900000
  1
10
 50
0.000000
 51
0.000000
  7
SX_FONT
 72
     5
 11
70.085289
 21
220.321457
  0
ENDBLK
  8
0
  0
BLOCK
  8
CSLAYER1
  2
*D0001
 70
    65
 10
0.0
 20
0.0
 30
0.0
  0
LINE
  8
CSLAYER1
  6
CONTINUOUS
 62
     7
 10
77.033651
 20
108.946940
 11
83.033651
 21
108.946940
  0
LINE
  8
CSLAYER1
  6
CONTINUOUS
 62
     7
 10
77.033651
 20
208.946940
 11
83.033651
 21
208.946940
  0
LINE
  8
CSLAYER1
  6
CONTINUOUS
 62
     7
 10
82.033651
 20
108.946940
 11
82.033651
 21
208.946940
  0
LINE
  8
CSLAYER1
  6
CONTINUOUS
 62
     7
 10
82.033651
 20
108.946940
 11
80.998375
 21
112.810643
  0
LINE
  8
CSLAYER1
  6
CONTINUOUS
 62
     7
 10
82.033651
 20
108.946940
 11
83.068927
 21
112.810643
  0
LINE
  8
CSLAYER1
  6
CONTINUOUS
 62
     7
 10
82.033651
 20
208.946940
 11
80.998375
 21
205.083237
  0
LINE
  8
CSLAYER1
  6
CONTINUOUS
 62
     7
 10
82.033651
 20
208.946940
 11
83.068927
 21
205.083237
  0
TEXT
  8
CSLAYER1
 62
     7
 10
87.920372
 20
154.482590
 40
4.000000
 41
0.843750
  1
100
 50
90.000000
 51
0.000000
  7
SX_FONT
 72
     5
 11
87.920372
 21
163.482590
  0
ENDBLK
  8
0
  0
ENDSEC
  0
SECTION
  2
ENTITIES
  0
LINE
  8
CSLAYER2
  6
CONTINUOUS
 62
     7
 10
64.085286
 20
143.946940
 11
64.085286
 21
138.946940
  0
ARC
  8
CSLAYER2
  6
CONTINUOUS
 62
     7
 10
64.085286
 20
136.946940
 40
2.000000
 50
90.000000
 51
180.000000
  0
ARC
  8
CSLAYER2
  6
CONTINUOUS
 62
     7
 10
64.085286
 20
145.696940
 40
1.750000
 50
180.000000
 51
270.000000
  0
ARC
  8
CSLAYER2
  6
CONTINUOUS
 62
     7
 10
64.335286
 20
165.946940
 40
2.000000
 50
90.000000
 51
180.000000
  0
LINE
  8
CSLAYER2
  6
CONTINUOUS
 62
     7
 10
62.335286
 20
165.946940
 11
62.335286
 21
145.696940
  0
LINE
  8
CSLAYER2
  6
CONTINUOUS
 62
     7
 10
64.335286
 20
170.946940
 11
64.335286
 21
167.946940
  0
ARC
  8
CSLAYER2
  6
CONTINUOUS
 62
     7
 10
64.335286
 20
172.696940
 40
1.750000
 50
180.000000
 51
270.000000
  0
ARC
  8
CSLAYER2
  6
CONTINUOUS
 62
     7
 10
69.585286
 20
201.946940
 40
5.000000
 50
114.619977
 51
180.000000
  0
LINE
  8
CSLAYER2
  6
CONTINUOUS
 62
     7
 10
67.502298
 20
206.492395
 11
69.585286
 21
207.446940
  0
LINE
  8
CSLAYER2
  6
CONTINUOUS
 62
     7
 10
69.585286
 20
207.446940
 11
69.585286
 21
208.946940
  0
LINE
  8
CSLAYER2
  6
CONTINUOUS
 62
     7
 10
69.585286
 20
208.946940
 11
72.085286
 21
208.946940
  0
LINE
  8
CSLAYER2
  6
CONTINUOUS
 62
     7
 10
72.085286
 20
208.946940
 11
72.085286
 21
108.946940
  0
LINE
  8
CSLAYER2
  6
CONTINUOUS
 62
     7
 10
72.085286
 20
108.946940
 11
62.085286
 21
108.946940
  0
LINE
  8
CSLAYER2
  6
CONTINUOUS
 62
     7
 10
62.085286
 20
108.946940
 11
62.085286
 21
136.946940
  0
LINE
  8
CSLAYER2
  6
CONTINUOUS
 62
     7
 10
62.585286
 20
172.696940
 11
62.585286
 21
197.446940
  0
LINE
  8
CSLAYER2
  6
CONTINUOUS
 62
     7
 10
62.585286
 20
197.446940
 11
64.585286
 21
197.446940
  0
LINE
  8
CSLAYER2
  6
CONTINUOUS
 62
     7
 10
64.585286
 20
197.446940
 11
64.585286
 21
201.946940
  0
TEXT
  8
CSLAYER1
 62
     7
 10
59.435432
 20
61.810219
 40
12.000000
 41
0.700000
  1
FM-3016
 50
0.000000
 51
0.000000
  7
SX_FONT
 72
     5
 11
115.435432
 21
61.810219
  0
DIMENSION
  8
CSLAYER1
 62
     7
  2
*D0000
 10
72.085286
 20
219.321452
 11
67.085289
 21
220.321457
 13
62.085286
 23
213.321452
 14
72.085286
 24
213.321452
 70
1
  0
DIMENSION
  8
CSLAYER1
 62
     7
  2
*D0001
 10
82.033651
 20
208.946940
 11
87.920372
 21
158.982590
 13
76.033651
 23
108.946940
 14
76.033651
 24
208.946940
 50
90.000000
 70
1
  0
TEXT
  8
CSLAYER1
 62
     7
 10
59.889427
 20
47.121305
 40
5.547002
 41
0.589931
  1
カタログ Vol. 1  P79
 50
0.000000
 51
0.000000
  7
SX_FONT
 72
     5
 11
111.156212
 21
47.121305
  0
TEXT
  8
CSLAYER1
 62
     7
 10
128.462234
 20
62.132797
 40
12.000000
 41
0.705882
  1
10x100
 50
0.000000
 51
0.000000
  7
SX_FONT
 72
     5
 11
176.462234
 21
62.132797
  0
TEXT
  8
CSLAYER1
 62
     7
 10
59.796339
 20
37.530825
 40
4.960742
 41
0.729057
  1
ホ%%dケットカタロク゛ Vol. 1 P54
 50
0.000000
 51
0.000000
  7
SX_FONT
 72
     5
 11
134.540697
 21
37.530825
  0
ENDSEC
  0
EOF
