  0
SECTION
  2
HEADER
  9
$ACADVER
  1
AC1006
  9
$INSBASE
 10
69.679688
 20
237.187500
 30
0.0
  9
$EXTMIN
 10
69.679688
 20
237.187500
  9
$EXTMAX
 10
279.679688
 20
534.187500
  9
$LIMMIN
 10
69.679688
 20
237.187500
  9
$LIMMAX
 10
279.679688
 20
534.187500
  9
$VIEWCTR
 10
174.679688
 20
385.687500
  9
$VIEWSIZE
 40
297.000000
  9
$SNAPMODE
 70
     0
  9
$SNAPUNIT
 10
1.0
 20
1.0
  9
$SNAPBASE
 10
0.0
 20
0.0
  9
$SNAPANG
 50
0.0
  9
$SNAPSTYLE
 70
     0
  9
$SNAPISOPAIR
 70
     0
  9
$GRIDMODE
 70
     0
  9
$GRIDUNIT
 10
0.0
 20
0.0
  9
$ORTHOMODE
 70
     0
  9
$REGENMODE
 70
     1
  9
$FILLMODE
 70
     1
  9
$QTEXTMODE
 70
     0
  9
$DRAGMODE
 70
     2
  9
$LTSCALE
 40
15.000000
  9
$OSMODE
 70
     0
  9
$ATTMODE
 70
     1
  9
$TEXTSIZE
 40
0.2
  9
$TRACEWID
 40
0.05
  9
$TEXTSTYLE
  7
STANDARD
  9
$CLAYER
  8
CSLAYER3
  9
$CELTYPE
  6
BYLAYER
  9
$CECOLOR
 62
   256
  9
$DIMSCALE
 40
1.0
  9
$DIMASZ
 40
0.18
  9
$DIMEXO
 40
0.0625
  9
$DIMDLI
 40
0.38
  9
$DIMRND
 40
0.0
  9
$DIMDLE
 40
0.0
  9
$DIMEXE
 40
0.18
  9
$DIMTP
 40
0.0
  9
$DIMTM
 40
0.0
  9
$DIMTXT
 40
0.18
  9
$DIMCEN
 40
0.09
  9
$DIMTSZ
 40
0.0
  9
$DIMTOL
 70
     0
  9
$DIMLIM
 70
     0
  9
$DIMTIH
 70
     1
  9
$DIMTOH
 70
     1
  9
$DIMSE1
 70
     0
  9
$DIMSE2
 70
     0
  9
$DIMTAD
 70
     0
  9
$DIMZIN
 70
     0
  9
$DIMBLK
  1

  9
$LUNITS
 70
     2
  9
$LUPREC
 70
     4
  9
$AXISMODE
 70
     0
  9
$AXISUNIT
 10
0.0
 20
0.0
  9
$SKETCHINC
 40
0.1
  9
$FILLETRAD
 40
0.0
  9
$AUNITS
 70
     0
  9
$AUPREC
 70
     0
  9
$MENU
  1
ACAD
  9
$ELEVATION
 40
0.0
  9
$THICKNESS
 40
0.0
  9
$VIEWDIR
 10
0.0
 20
0.0
 30
1.0
  9
$LIMCHECK
 70
     0
  9
$BLIPMODE
 70
     1
  9
$CHAMFERA
 40
0.0
  9
$CHAMFERB
 40
0.0
  9
$FASTZOOM
 70
     1
  9
$SKPOLY
 70
     0
  9
$TDCREATE
 40
0.000000
  9
$TDUPDATE
 40
0.000000
  9
$TDINDWG
 40
0.0
  9
$TDUSRTIMER
 40
0.0
  9
$USRTIMER
 70
     1
  9
$ANGBASE
 50
0.0
  9
$ANGDIR
 70
     0
  9
$PDMODE
 70
     0
  9
$PDSIZE
 40
0.0
  9
$PLINEWID
 40
0.0
  9
$COORDS
 70
     0
  9
$USERI1
 70
     0
  9
$USERI2
 70
     0
  9
$USERI3
 70
     0
  9
$USERI4
 70
     0
  9
$USERI5
 70
     0
  9
$USERR1
 40
0.0
  9
$USERR2
 40
0.0
  9
$USERR3
 40
0.0
  9
$USERR4
 40
0.0
  9
$USERR5
 40
0.0
  0
ENDSEC
  0
SECTION
  2
TABLES
  0
TABLE
  2
LTYPE
 70
     9
  0
LTYPE
  2
CONTINUOUS
 70
    64
  3
Solid line
 72
    65
 73
     0
 40
0.0
  0
LTYPE
  2
DASHED
 70
    64
  3
__ __ __ __ __ __ __ __ __ __ __ __ __ __ __
 72
    65
 73
     2
 40
0.75
 49
0.5
 49
-0.25
  0
LTYPE
  2
HIDDEN
 70
    64
  3
_ _ _ _ _ _ _ _ _ _ _ _ _ _ _ _ _ _ _ _ _ _ _
 72
    65
 73
     2
 40
0.375
 49
0.25
 49
-0.125
  0
LTYPE
  2
DOT
 70
    64
  3
...............................................
 72
    65
 73
     2
 40
0.25
 49
0.0
 49
-0.25
  0
LTYPE
  2
DASHDOT
 70
    64
  3
__ . __ . __ . __ . __ . __ . __ . __ . __ . __
 72
    65
 73
     4
 40
1.0
 49
0.5
 49
-0.25
 49
0.0
 49
-0.25
  0
LTYPE
  2
DIVIDE
 70
    64
  3
__ . . __ . . __ . . __ . . __ . . __ . . __
 72
    65
 73
     6
 40
1.25
 49
0.5
 49
-0.25
 49
0.0
 49
-0.25
 49
0.0
 49
-0.25
  0
LTYPE
  2
CENTER
 70
    64
  3
____ _ ____ _ ____ _ ____ _ ____ _ ____ _ ____ 
 72
    65
 73
     4
 40
2.0
 49
1.25
 49
-0.25
 49
0.25
 49
-0.25
  0
LTYPE
  2
PHANTOM
 70
    64
  3
______  __  __  ______  __  __  ______  __  __ 
 72
    65
 73
     6
 40
2.5
 49
1.25
 49
-0.25
 49
0.25
 49
-0.25
 49
0.25
 49
-0.25
  0
LTYPE
  2
BORDER
 70
    64
  3
__ __ . __ __ . __ __ . __ __ . __ __ . __ __ .
 72
    65
 73
     6
 40
1.75
 49
0.5
 49
-0.25
 49
0.5
 49
-0.25
 49
0.0
 49
-0.25
  0
ENDTAB
  0
TABLE
  2
LAYER
 70
    16
  0
LAYER
  2
CSLAYER1
 70
    64
 62
     7
  6
CONTINUOUS
  0
LAYER
  2
CSLAYER2
 70
    64
 62
     7
  6
CONTINUOUS
  0
LAYER
  2
CSLAYER3
 70
    64
 62
     7
  6
CONTINUOUS
  0
LAYER
  2
CSLAYER4
 70
    64
 62
     7
  6
CONTINUOUS
  0
LAYER
  2
CSLAYER5
 70
    64
 62
     7
  6
CONTINUOUS
  0
LAYER
  2
CSLAYER6
 70
    64
 62
     7
  6
CONTINUOUS
  0
LAYER
  2
CSLAYER7
 70
    64
 62
     7
  6
CONTINUOUS
  0
LAYER
  2
CSLAYER8
 70
    64
 62
     7
  6
CONTINUOUS
  0
LAYER
  2
CSLAYER9
 70
    64
 62
     7
  6
CONTINUOUS
  0
LAYER
  2
CSLAYER10
 70
    64
 62
     7
  6
CONTINUOUS
  0
LAYER
  2
CSLAYER11
 70
    64
 62
     7
  6
CONTINUOUS
  0
LAYER
  2
CSLAYER12
 70
    64
 62
     7
  6
CONTINUOUS
  0
LAYER
  2
CSLAYER13
 70
    64
 62
     7
  6
CONTINUOUS
  0
LAYER
  2
CSLAYER14
 70
    64
 62
     7
  6
CONTINUOUS
  0
LAYER
  2
CSLAYER15
 70
    64
 62
     7
  6
CONTINUOUS
  0
LAYER
  2
CSLAYER16
 70
    64
 62
     7
  6
CONTINUOUS
  0
ENDTAB
  0
TABLE
  2
STYLE
 70
     1
  0
STYLE
  2
SX_FONT
 70
     0
 40
1.0
 41
1.0
 50
0.0
 71
     0
 42
1.0
  3
monotxt
  4
bigfont
  0
ENDTAB
  0
TABLE
  2
VIEW
 70
     0
  0
ENDTAB
  0
ENDSEC
  0
SECTION
  2
BLOCKS
  0
BLOCK
  8
CSLAYER1
  2
*D0000
 70
    65
 10
0.0
 20
0.0
 30
0.0
  0
LINE
  8
CSLAYER1
  6
CONTINUOUS
 62
     7
 10
62.282835
 20
207.232925
 11
62.282835
 21
213.232925
  0
LINE
  8
CSLAYER1
  6
CONTINUOUS
 62
     7
 10
72.282835
 20
207.232925
 11
72.282835
 21
213.232925
  0
LINE
  8
CSLAYER1
  6
CONTINUOUS
 62
     7
 10
62.282835
 20
212.232925
 11
72.282835
 21
212.232925
  0
LINE
  8
CSLAYER1
  6
CONTINUOUS
 62
     7
 10
56.282835
 20
212.232925
 11
62.282835
 21
212.232925
  0
LINE
  8
CSLAYER1
  6
CONTINUOUS
 62
     7
 10
62.282835
 20
212.232925
 11
58.419132
 21
213.268201
  0
LINE
  8
CSLAYER1
  6
CONTINUOUS
 62
     7
 10
62.282835
 20
212.232925
 11
58.419132
 21
211.197649
  0
LINE
  8
CSLAYER1
  6
CONTINUOUS
 62
     7
 10
72.282835
 20
212.232925
 11
78.282835
 21
212.232925
  0
LINE
  8
CSLAYER1
  6
CONTINUOUS
 62
     7
 10
72.282835
 20
212.232925
 11
76.146539
 21
213.268201
  0
LINE
  8
CSLAYER1
  6
CONTINUOUS
 62
     7
 10
72.282835
 20
212.232925
 11
76.146539
 21
211.197649
  0
TEXT
  8
CSLAYER1
 62
     7
 10
64.282837
 20
213.232925
 40
4.000000
 41
0.900000
  1
10
 50
0.000000
 51
0.000000
  7
SX_FONT
 72
     5
 11
70.282837
 21
213.232925
  0
ENDBLK
  8
0
  0
BLOCK
  8
CSLAYER1
  2
*D0001
 70
    65
 10
0.0
 20
0.0
 30
0.0
  0
LINE
  8
CSLAYER1
  6
CONTINUOUS
 62
     7
 10
77.641844
 20
129.970311
 11
83.641844
 21
129.970311
  0
LINE
  8
CSLAYER1
  6
CONTINUOUS
 62
     7
 10
77.641844
 20
201.970311
 11
83.641844
 21
201.970311
  0
LINE
  8
CSLAYER1
  6
CONTINUOUS
 62
     7
 10
82.641844
 20
129.970311
 11
82.641844
 21
201.970311
  0
LINE
  8
CSLAYER1
  6
CONTINUOUS
 62
     7
 10
82.641844
 20
129.970311
 11
81.606568
 21
133.834014
  0
LINE
  8
CSLAYER1
  6
CONTINUOUS
 62
     7
 10
82.641844
 20
129.970311
 11
83.677120
 21
133.834014
  0
LINE
  8
CSLAYER1
  6
CONTINUOUS
 62
     7
 10
82.641844
 20
201.970311
 11
81.606568
 21
198.106608
  0
LINE
  8
CSLAYER1
  6
CONTINUOUS
 62
     7
 10
82.641844
 20
201.970311
 11
83.677120
 21
198.106608
  0
TEXT
  8
CSLAYER1
 62
     7
 10
88.057701
 20
162.705826
 40
4.000000
 41
0.900000
  1
72
 50
90.000000
 51
0.000000
  7
SX_FONT
 72
     5
 11
88.057701
 21
168.705826
  0
ENDBLK
  8
0
  0
ENDSEC
  0
SECTION
  2
ENTITIES
  0
ARC
  8
CSLAYER2
  6
CONTINUOUS
 62
     7
 10
62.282835
 20
201.970311
 40
5.000000
 50
-90.000000
 51
0.000000
  0
LINE
  8
CSLAYER2
  6
CONTINUOUS
 62
     7
 10
67.282835
 20
201.970311
 11
72.282835
 21
201.970311
  0
LINE
  8
CSLAYER2
  6
CONTINUOUS
 62
     7
 10
72.282835
 20
201.970311
 11
72.282835
 21
129.970311
  0
LINE
  8
CSLAYER2
  6
CONTINUOUS
 62
     7
 10
72.282835
 20
129.970311
 11
62.282835
 21
129.970311
  0
LINE
  8
CSLAYER2
  6
CONTINUOUS
 62
     7
 10
62.282835
 20
129.970311
 11
62.282835
 21
137.970311
  0
LINE
  8
CSLAYER2
  6
CONTINUOUS
 62
     7
 10
62.282835
 20
137.970311
 11
66.282835
 21
137.970311
  0
LINE
  8
CSLAYER2
  6
CONTINUOUS
 62
     7
 10
66.282835
 20
137.970311
 11
66.282835
 21
142.970311
  0
LINE
  8
CSLAYER2
  6
CONTINUOUS
 62
     7
 10
66.282835
 20
142.970311
 11
62.282835
 21
142.970311
  0
LINE
  8
CSLAYER2
  6
CONTINUOUS
 62
     7
 10
62.282835
 20
142.970311
 11
62.282835
 21
181.970311
  0
LINE
  8
CSLAYER2
  6
CONTINUOUS
 62
     7
 10
62.282835
 20
181.970311
 11
66.282835
 21
181.970311
  0
LINE
  8
CSLAYER2
  6
CONTINUOUS
 62
     7
 10
66.282835
 20
181.970311
 11
66.282835
 21
186.970311
  0
LINE
  8
CSLAYER2
  6
CONTINUOUS
 62
     7
 10
66.282835
 20
186.970311
 11
62.282835
 21
186.970311
  0
LINE
  8
CSLAYER2
  6
CONTINUOUS
 62
     7
 10
62.282835
 20
186.970311
 11
62.282835
 21
196.970311
  0
TEXT
  8
CSLAYER1
 62
     7
 10
62.303421
 20
67.765732
 40
12.000000
 41
0.700000
  1
FM-3015
 50
0.000000
 51
0.000000
  7
SX_FONT
 72
     5
 11
118.303421
 21
67.765732
  0
DIMENSION
  8
CSLAYER1
 62
     7
  2
*D0000
 10
72.282835
 20
212.232925
 11
67.282837
 21
213.232925
 13
62.282835
 23
206.232925
 14
72.282835
 24
206.232925
 70
1
  0
DIMENSION
  8
CSLAYER1
 62
     7
  2
*D0001
 10
82.641844
 20
201.970311
 11
88.057701
 21
165.705826
 13
76.641844
 23
129.970311
 14
76.641844
 24
201.970311
 50
90.000000
 70
1
  0
TEXT
  8
CSLAYER1
 62
     7
 10
62.276367
 20
51.760885
 40
5.547002
 41
0.589931
  1
カタログ Vol. 1  P79
 50
0.000000
 51
0.000000
  7
SX_FONT
 72
     5
 11
113.543152
 21
51.760885
  0
TEXT
  8
CSLAYER1
 62
     7
 10
134.970337
 20
68.345314
 40
12.000000
 41
0.714286
  1
10x72
 50
0.000000
 51
0.000000
  7
SX_FONT
 72
     5
 11
174.970337
 21
68.345314
  0
TEXT
  8
CSLAYER1
 62
     7
 10
61.796667
 20
41.979758
 40
4.960742
 41
0.729057
  1
ホ%%dケットカタロク゛ Vol. 1 P54
 50
0.000000
 51
0.000000
  7
SX_FONT
 72
     5
 11
136.541025
 21
41.979758
  0
ENDSEC
  0
EOF
