  0
SECTION
  2
HEADER
  9
$ACADVER
  1
AC1006
  9
$INSBASE
 10
86.865845
 20
197.850505
 30
0.0
  9
$EXTMIN
 10
86.865845
 20
197.850505
  9
$EXTMAX
 10
296.865845
 20
494.850505
  9
$LIMMIN
 10
86.865845
 20
197.850505
  9
$LIMMAX
 10
296.865845
 20
494.850505
  9
$VIEWCTR
 10
191.865845
 20
346.350505
  9
$VIEWSIZE
 40
297.000000
  9
$SNAPMODE
 70
     0
  9
$SNAPUNIT
 10
1.0
 20
1.0
  9
$SNAPBASE
 10
0.0
 20
0.0
  9
$SNAPANG
 50
0.0
  9
$SNAPSTYLE
 70
     0
  9
$SNAPISOPAIR
 70
     0
  9
$GRIDMODE
 70
     0
  9
$GRIDUNIT
 10
0.0
 20
0.0
  9
$ORTHOMODE
 70
     0
  9
$REGENMODE
 70
     1
  9
$FILLMODE
 70
     1
  9
$QTEXTMODE
 70
     0
  9
$DRAGMODE
 70
     2
  9
$LTSCALE
 40
15.000000
  9
$OSMODE
 70
     0
  9
$ATTMODE
 70
     1
  9
$TEXTSIZE
 40
0.2
  9
$TRACEWID
 40
0.05
  9
$TEXTSTYLE
  7
STANDARD
  9
$CLAYER
  8
CSLAYER3
  9
$CELTYPE
  6
BYLAYER
  9
$CECOLOR
 62
   256
  9
$DIMSCALE
 40
1.0
  9
$DIMASZ
 40
0.18
  9
$DIMEXO
 40
0.0625
  9
$DIMDLI
 40
0.38
  9
$DIMRND
 40
0.0
  9
$DIMDLE
 40
0.0
  9
$DIMEXE
 40
0.18
  9
$DIMTP
 40
0.0
  9
$DIMTM
 40
0.0
  9
$DIMTXT
 40
0.18
  9
$DIMCEN
 40
0.09
  9
$DIMTSZ
 40
0.0
  9
$DIMTOL
 70
     0
  9
$DIMLIM
 70
     0
  9
$DIMTIH
 70
     1
  9
$DIMTOH
 70
     1
  9
$DIMSE1
 70
     0
  9
$DIMSE2
 70
     0
  9
$DIMTAD
 70
     0
  9
$DIMZIN
 70
     0
  9
$DIMBLK
  1

  9
$LUNITS
 70
     2
  9
$LUPREC
 70
     4
  9
$AXISMODE
 70
     0
  9
$AXISUNIT
 10
0.0
 20
0.0
  9
$SKETCHINC
 40
0.1
  9
$FILLETRAD
 40
0.0
  9
$AUNITS
 70
     0
  9
$AUPREC
 70
     0
  9
$MENU
  1
ACAD
  9
$ELEVATION
 40
0.0
  9
$THICKNESS
 40
0.0
  9
$VIEWDIR
 10
0.0
 20
0.0
 30
1.0
  9
$LIMCHECK
 70
     0
  9
$BLIPMODE
 70
     1
  9
$CHAMFERA
 40
0.0
  9
$CHAMFERB
 40
0.0
  9
$FASTZOOM
 70
     1
  9
$SKPOLY
 70
     0
  9
$TDCREATE
 40
0.000000
  9
$TDUPDATE
 40
0.000000
  9
$TDINDWG
 40
0.0
  9
$TDUSRTIMER
 40
0.0
  9
$USRTIMER
 70
     1
  9
$ANGBASE
 50
0.0
  9
$ANGDIR
 70
     0
  9
$PDMODE
 70
     0
  9
$PDSIZE
 40
0.0
  9
$PLINEWID
 40
0.0
  9
$COORDS
 70
     0
  9
$USERI1
 70
     0
  9
$USERI2
 70
     0
  9
$USERI3
 70
     0
  9
$USERI4
 70
     0
  9
$USERI5
 70
     0
  9
$USERR1
 40
0.0
  9
$USERR2
 40
0.0
  9
$USERR3
 40
0.0
  9
$USERR4
 40
0.0
  9
$USERR5
 40
0.0
  0
ENDSEC
  0
SECTION
  2
TABLES
  0
TABLE
  2
LTYPE
 70
     9
  0
LTYPE
  2
CONTINUOUS
 70
    64
  3
Solid line
 72
    65
 73
     0
 40
0.0
  0
LTYPE
  2
DASHED
 70
    64
  3
__ __ __ __ __ __ __ __ __ __ __ __ __ __ __
 72
    65
 73
     2
 40
0.75
 49
0.5
 49
-0.25
  0
LTYPE
  2
HIDDEN
 70
    64
  3
_ _ _ _ _ _ _ _ _ _ _ _ _ _ _ _ _ _ _ _ _ _ _
 72
    65
 73
     2
 40
0.375
 49
0.25
 49
-0.125
  0
LTYPE
  2
DOT
 70
    64
  3
...............................................
 72
    65
 73
     2
 40
0.25
 49
0.0
 49
-0.25
  0
LTYPE
  2
DASHDOT
 70
    64
  3
__ . __ . __ . __ . __ . __ . __ . __ . __ . __
 72
    65
 73
     4
 40
1.0
 49
0.5
 49
-0.25
 49
0.0
 49
-0.25
  0
LTYPE
  2
DIVIDE
 70
    64
  3
__ . . __ . . __ . . __ . . __ . . __ . . __
 72
    65
 73
     6
 40
1.25
 49
0.5
 49
-0.25
 49
0.0
 49
-0.25
 49
0.0
 49
-0.25
  0
LTYPE
  2
CENTER
 70
    64
  3
____ _ ____ _ ____ _ ____ _ ____ _ ____ _ ____ 
 72
    65
 73
     4
 40
2.0
 49
1.25
 49
-0.25
 49
0.25
 49
-0.25
  0
LTYPE
  2
PHANTOM
 70
    64
  3
______  __  __  ______  __  __  ______  __  __ 
 72
    65
 73
     6
 40
2.5
 49
1.25
 49
-0.25
 49
0.25
 49
-0.25
 49
0.25
 49
-0.25
  0
LTYPE
  2
BORDER
 70
    64
  3
__ __ . __ __ . __ __ . __ __ . __ __ . __ __ .
 72
    65
 73
     6
 40
1.75
 49
0.5
 49
-0.25
 49
0.5
 49
-0.25
 49
0.0
 49
-0.25
  0
ENDTAB
  0
TABLE
  2
LAYER
 70
    16
  0
LAYER
  2
CSLAYER1
 70
    64
 62
     7
  6
CONTINUOUS
  0
LAYER
  2
CSLAYER2
 70
    64
 62
     7
  6
CONTINUOUS
  0
LAYER
  2
CSLAYER3
 70
    64
 62
     7
  6
CONTINUOUS
  0
LAYER
  2
CSLAYER4
 70
    64
 62
     7
  6
CONTINUOUS
  0
LAYER
  2
CSLAYER5
 70
    64
 62
     7
  6
CONTINUOUS
  0
LAYER
  2
CSLAYER6
 70
    64
 62
     7
  6
CONTINUOUS
  0
LAYER
  2
CSLAYER7
 70
    64
 62
     7
  6
CONTINUOUS
  0
LAYER
  2
CSLAYER8
 70
    64
 62
     7
  6
CONTINUOUS
  0
LAYER
  2
CSLAYER9
 70
    64
 62
     7
  6
CONTINUOUS
  0
LAYER
  2
CSLAYER10
 70
    64
 62
     7
  6
CONTINUOUS
  0
LAYER
  2
CSLAYER11
 70
    64
 62
     7
  6
CONTINUOUS
  0
LAYER
  2
CSLAYER12
 70
    64
 62
     7
  6
CONTINUOUS
  0
LAYER
  2
CSLAYER13
 70
    64
 62
     7
  6
CONTINUOUS
  0
LAYER
  2
CSLAYER14
 70
    64
 62
     7
  6
CONTINUOUS
  0
LAYER
  2
CSLAYER15
 70
    64
 62
     7
  6
CONTINUOUS
  0
LAYER
  2
CSLAYER16
 70
    64
 62
     7
  6
CONTINUOUS
  0
ENDTAB
  0
TABLE
  2
STYLE
 70
     1
  0
STYLE
  2
SX_FONT
 70
     0
 40
1.0
 41
1.0
 50
0.0
 71
     0
 42
1.0
  3
monotxt
  4
bigfont
  0
ENDTAB
  0
TABLE
  2
VIEW
 70
     0
  0
ENDTAB
  0
ENDSEC
  0
SECTION
  2
BLOCKS
  0
BLOCK
  8
CSLAYER1
  2
*D0000
 70
    65
 10
0.0
 20
0.0
 30
0.0
  0
LINE
  8
CSLAYER1
  6
CONTINUOUS
 62
     7
 10
74.345703
 20
216.839600
 11
74.345703
 21
222.839600
  0
LINE
  8
CSLAYER1
  6
CONTINUOUS
 62
     7
 10
89.345703
 20
216.839600
 11
89.345703
 21
222.839600
  0
LINE
  8
CSLAYER1
  6
CONTINUOUS
 62
     7
 10
74.345703
 20
221.839600
 11
89.345703
 21
221.839600
  0
LINE
  8
CSLAYER1
  6
CONTINUOUS
 62
     7
 10
74.345703
 20
221.839600
 11
78.209406
 21
222.874876
  0
LINE
  8
CSLAYER1
  6
CONTINUOUS
 62
     7
 10
74.345703
 20
221.839600
 11
78.209406
 21
220.804323
  0
LINE
  8
CSLAYER1
  6
CONTINUOUS
 62
     7
 10
89.345703
 20
221.839600
 11
85.482000
 21
222.874876
  0
LINE
  8
CSLAYER1
  6
CONTINUOUS
 62
     7
 10
89.345703
 20
221.839600
 11
85.482000
 21
220.804323
  0
TEXT
  8
CSLAYER1
 62
     7
 10
78.845703
 20
222.839600
 40
4.000000
 41
0.900000
  1
15
 50
0.000000
 51
0.000000
  7
SX_FONT
 72
     5
 11
84.845703
 21
222.839600
  0
ENDBLK
  8
0
  0
BLOCK
  8
CSLAYER1
  2
*D0001
 70
    65
 10
0.0
 20
0.0
 30
0.0
  0
LINE
  8
CSLAYER1
  6
CONTINUOUS
 62
     7
 10
94.607869
 20
121.500000
 11
100.607869
 21
121.500000
  0
LINE
  8
CSLAYER1
  6
CONTINUOUS
 62
     7
 10
94.607869
 20
211.500000
 11
100.607869
 21
211.500000
  0
LINE
  8
CSLAYER1
  6
CONTINUOUS
 62
     7
 10
99.607869
 20
121.500000
 11
99.607869
 21
211.500000
  0
LINE
  8
CSLAYER1
  6
CONTINUOUS
 62
     7
 10
99.607869
 20
121.500000
 11
98.572593
 21
125.363703
  0
LINE
  8
CSLAYER1
  6
CONTINUOUS
 62
     7
 10
99.607869
 20
121.500000
 11
100.643146
 21
125.363703
  0
LINE
  8
CSLAYER1
  6
CONTINUOUS
 62
     7
 10
99.607869
 20
211.500000
 11
98.572593
 21
207.636297
  0
LINE
  8
CSLAYER1
  6
CONTINUOUS
 62
     7
 10
99.607869
 20
211.500000
 11
100.643146
 21
207.636297
  0
TEXT
  8
CSLAYER1
 62
     7
 10
105.003128
 20
163.345459
 40
4.000000
 41
0.900000
  1
90
 50
90.000000
 51
0.000000
  7
SX_FONT
 72
     5
 11
105.003128
 21
169.345459
  0
ENDBLK
  8
0
  0
ENDSEC
  0
SECTION
  2
ENTITIES
  0
LINE
  8
CSLAYER2
  6
CONTINUOUS
 62
     7
 10
74.345703
 20
197.500000
 11
74.345703
 21
188.500000
  0
ARC
  8
CSLAYER2
  6
CONTINUOUS
 62
     7
 10
83.595703
 20
211.500000
 40
2.750000
 50
-84.047844
 51
0.000000
  0
ARC
  8
CSLAYER2
  6
CONTINUOUS
 62
     7
 10
84.814154
 20
199.813346
 40
9.000000
 50
95.952156
 51
184.442670
  0
ARC
  8
CSLAYER2
  6
CONTINUOUS
 62
     7
 10
74.345703
 20
199.000000
 40
1.500000
 50
-90.000000
 51
4.442670
  0
LINE
  8
CSLAYER2
  6
CONTINUOUS
 62
     7
 10
86.345703
 20
211.500000
 11
89.345703
 21
211.500000
  0
LINE
  8
CSLAYER2
  6
CONTINUOUS
 62
     7
 10
89.345703
 20
211.500000
 11
89.345703
 21
121.500000
  0
LINE
  8
CSLAYER2
  6
CONTINUOUS
 62
     7
 10
89.345703
 20
121.500000
 11
74.345703
 21
121.500000
  0
LINE
  8
CSLAYER2
  6
CONTINUOUS
 62
     7
 10
74.345703
 20
121.500000
 11
74.345703
 21
181.500000
  0
ARC
  8
CSLAYER2
  6
CONTINUOUS
 62
     7
 10
74.345703
 20
185.000000
 40
3.500000
 50
-90.000000
 51
0.000000
  0
ARC
  8
CSLAYER2
  6
CONTINUOUS
 62
     7
 10
74.345703
 20
185.000000
 40
3.500000
 50
0.000000
 51
90.000000
  0
TEXT
  8
CSLAYER1
 62
     7
 10
74.453575
 20
60.958038
 40
10.000000
 41
0.630000
  1
FM-3012
 50
0.000000
 51
0.000000
  7
SX_FONT
 72
     5
 11
116.453575
 21
60.958038
  0
DIMENSION
  8
CSLAYER1
 62
     7
  2
*D0000
 10
89.345703
 20
221.839600
 11
81.845703
 21
222.839600
 13
74.345703
 23
215.839600
 14
89.345703
 24
215.839600
 70
1
  0
DIMENSION
  8
CSLAYER1
 62
     7
  2
*D0001
 10
99.607869
 20
211.500000
 11
105.003128
 21
166.345459
 13
93.607869
 23
121.500000
 14
93.607869
 24
211.500000
 50
90.000000
 70
1
  0
TEXT
  8
CSLAYER1
 62
     7
 10
131.388458
 20
61.715164
 40
10.000000
 41
0.642857
  1
15x90
 50
0.000000
 51
0.000000
  7
SX_FONT
 72
     5
 11
161.388458
 21
61.715164
  0
TEXT
  8
CSLAYER1
 62
     7
 10
74.563820
 20
49.490116
 40
5.000000
 41
0.612766
  1
カタログ Vol. 1  P78
 50
0.000000
 51
0.000000
  7
SX_FONT
 72
     5
 11
122.563820
 21
49.490116
  0
TEXT
  8
CSLAYER1
 62
     7
 10
74.066977
 20
40.210891
 40
4.960742
 41
0.729057
  1
ホ%%dケットカタロク゛ Vol. 1 P53
 50
0.000000
 51
0.000000
  7
SX_FONT
 72
     5
 11
148.811334
 21
40.210891
  0
ENDSEC
  0
EOF
