  0
SECTION
  2
HEADER
  9
$ACADVER
  1
AC1006
  9
$INSBASE
 10
92.596354
 20
179.609375
 30
0.0
  9
$EXTMIN
 10
92.596354
 20
179.609375
  9
$EXTMAX
 10
302.596354
 20
476.609375
  9
$LIMMIN
 10
92.596354
 20
179.609375
  9
$LIMMAX
 10
302.596354
 20
476.609375
  9
$VIEWCTR
 10
197.596354
 20
328.109375
  9
$VIEWSIZE
 40
297.000000
  9
$SNAPMODE
 70
     0
  9
$SNAPUNIT
 10
1.0
 20
1.0
  9
$SNAPBASE
 10
0.0
 20
0.0
  9
$SNAPANG
 50
0.0
  9
$SNAPSTYLE
 70
     0
  9
$SNAPISOPAIR
 70
     0
  9
$GRIDMODE
 70
     0
  9
$GRIDUNIT
 10
0.0
 20
0.0
  9
$ORTHOMODE
 70
     0
  9
$REGENMODE
 70
     1
  9
$FILLMODE
 70
     1
  9
$QTEXTMODE
 70
     0
  9
$DRAGMODE
 70
     2
  9
$LTSCALE
 40
15.000000
  9
$OSMODE
 70
     0
  9
$ATTMODE
 70
     1
  9
$TEXTSIZE
 40
0.2
  9
$TRACEWID
 40
0.05
  9
$TEXTSTYLE
  7
STANDARD
  9
$CLAYER
  8
CSLAYER3
  9
$CELTYPE
  6
BYLAYER
  9
$CECOLOR
 62
   256
  9
$DIMSCALE
 40
1.0
  9
$DIMASZ
 40
0.18
  9
$DIMEXO
 40
0.0625
  9
$DIMDLI
 40
0.38
  9
$DIMRND
 40
0.0
  9
$DIMDLE
 40
0.0
  9
$DIMEXE
 40
0.18
  9
$DIMTP
 40
0.0
  9
$DIMTM
 40
0.0
  9
$DIMTXT
 40
0.18
  9
$DIMCEN
 40
0.09
  9
$DIMTSZ
 40
0.0
  9
$DIMTOL
 70
     0
  9
$DIMLIM
 70
     0
  9
$DIMTIH
 70
     1
  9
$DIMTOH
 70
     1
  9
$DIMSE1
 70
     0
  9
$DIMSE2
 70
     0
  9
$DIMTAD
 70
     0
  9
$DIMZIN
 70
     0
  9
$DIMBLK
  1

  9
$LUNITS
 70
     2
  9
$LUPREC
 70
     4
  9
$AXISMODE
 70
     0
  9
$AXISUNIT
 10
0.0
 20
0.0
  9
$SKETCHINC
 40
0.1
  9
$FILLETRAD
 40
0.0
  9
$AUNITS
 70
     0
  9
$AUPREC
 70
     0
  9
$MENU
  1
ACAD
  9
$ELEVATION
 40
0.0
  9
$THICKNESS
 40
0.0
  9
$VIEWDIR
 10
0.0
 20
0.0
 30
1.0
  9
$LIMCHECK
 70
     0
  9
$BLIPMODE
 70
     1
  9
$CHAMFERA
 40
0.0
  9
$CHAMFERB
 40
0.0
  9
$FASTZOOM
 70
     1
  9
$SKPOLY
 70
     0
  9
$TDCREATE
 40
0.000000
  9
$TDUPDATE
 40
0.000000
  9
$TDINDWG
 40
0.0
  9
$TDUSRTIMER
 40
0.0
  9
$USRTIMER
 70
     1
  9
$ANGBASE
 50
0.0
  9
$ANGDIR
 70
     0
  9
$PDMODE
 70
     0
  9
$PDSIZE
 40
0.0
  9
$PLINEWID
 40
0.0
  9
$COORDS
 70
     0
  9
$USERI1
 70
     0
  9
$USERI2
 70
     0
  9
$USERI3
 70
     0
  9
$USERI4
 70
     0
  9
$USERI5
 70
     0
  9
$USERR1
 40
0.0
  9
$USERR2
 40
0.0
  9
$USERR3
 40
0.0
  9
$USERR4
 40
0.0
  9
$USERR5
 40
0.0
  0
ENDSEC
  0
SECTION
  2
TABLES
  0
TABLE
  2
LTYPE
 70
     9
  0
LTYPE
  2
CONTINUOUS
 70
    64
  3
Solid line
 72
    65
 73
     0
 40
0.0
  0
LTYPE
  2
DASHED
 70
    64
  3
__ __ __ __ __ __ __ __ __ __ __ __ __ __ __
 72
    65
 73
     2
 40
0.75
 49
0.5
 49
-0.25
  0
LTYPE
  2
HIDDEN
 70
    64
  3
_ _ _ _ _ _ _ _ _ _ _ _ _ _ _ _ _ _ _ _ _ _ _
 72
    65
 73
     2
 40
0.375
 49
0.25
 49
-0.125
  0
LTYPE
  2
DOT
 70
    64
  3
...............................................
 72
    65
 73
     2
 40
0.25
 49
0.0
 49
-0.25
  0
LTYPE
  2
DASHDOT
 70
    64
  3
__ . __ . __ . __ . __ . __ . __ . __ . __ . __
 72
    65
 73
     4
 40
1.0
 49
0.5
 49
-0.25
 49
0.0
 49
-0.25
  0
LTYPE
  2
DIVIDE
 70
    64
  3
__ . . __ . . __ . . __ . . __ . . __ . . __
 72
    65
 73
     6
 40
1.25
 49
0.5
 49
-0.25
 49
0.0
 49
-0.25
 49
0.0
 49
-0.25
  0
LTYPE
  2
CENTER
 70
    64
  3
____ _ ____ _ ____ _ ____ _ ____ _ ____ _ ____ 
 72
    65
 73
     4
 40
2.0
 49
1.25
 49
-0.25
 49
0.25
 49
-0.25
  0
LTYPE
  2
PHANTOM
 70
    64
  3
______  __  __  ______  __  __  ______  __  __ 
 72
    65
 73
     6
 40
2.5
 49
1.25
 49
-0.25
 49
0.25
 49
-0.25
 49
0.25
 49
-0.25
  0
LTYPE
  2
BORDER
 70
    64
  3
__ __ . __ __ . __ __ . __ __ . __ __ . __ __ .
 72
    65
 73
     6
 40
1.75
 49
0.5
 49
-0.25
 49
0.5
 49
-0.25
 49
0.0
 49
-0.25
  0
ENDTAB
  0
TABLE
  2
LAYER
 70
    16
  0
LAYER
  2
CSLAYER1
 70
    64
 62
     7
  6
CONTINUOUS
  0
LAYER
  2
CSLAYER2
 70
    64
 62
     7
  6
CONTINUOUS
  0
LAYER
  2
CSLAYER3
 70
    64
 62
     7
  6
CONTINUOUS
  0
LAYER
  2
CSLAYER4
 70
    64
 62
     7
  6
CONTINUOUS
  0
LAYER
  2
CSLAYER5
 70
    64
 62
     7
  6
CONTINUOUS
  0
LAYER
  2
CSLAYER6
 70
    64
 62
     7
  6
CONTINUOUS
  0
LAYER
  2
CSLAYER7
 70
    64
 62
     7
  6
CONTINUOUS
  0
LAYER
  2
CSLAYER8
 70
    64
 62
     7
  6
CONTINUOUS
  0
LAYER
  2
CSLAYER9
 70
    64
 62
     7
  6
CONTINUOUS
  0
LAYER
  2
CSLAYER10
 70
    64
 62
     7
  6
CONTINUOUS
  0
LAYER
  2
CSLAYER11
 70
    64
 62
     7
  6
CONTINUOUS
  0
LAYER
  2
CSLAYER12
 70
    64
 62
     7
  6
CONTINUOUS
  0
LAYER
  2
CSLAYER13
 70
    64
 62
     7
  6
CONTINUOUS
  0
LAYER
  2
CSLAYER14
 70
    64
 62
     7
  6
CONTINUOUS
  0
LAYER
  2
CSLAYER15
 70
    64
 62
     7
  6
CONTINUOUS
  0
LAYER
  2
CSLAYER16
 70
    64
 62
     7
  6
CONTINUOUS
  0
ENDTAB
  0
TABLE
  2
STYLE
 70
     1
  0
STYLE
  2
SX_FONT
 70
     0
 40
1.0
 41
1.0
 50
0.0
 71
     0
 42
1.0
  3
monotxt
  4
bigfont
  0
ENDTAB
  0
TABLE
  2
VIEW
 70
     0
  0
ENDTAB
  0
ENDSEC
  0
SECTION
  2
BLOCKS
  0
BLOCK
  8
CSLAYER1
  2
*D0000
 70
    65
 10
0.0
 20
0.0
 30
0.0
  0
LINE
  8
CSLAYER1
  6
CONTINUOUS
 62
     7
 10
82.416016
 20
196.473307
 11
82.416016
 21
202.473307
  0
LINE
  8
CSLAYER1
  6
CONTINUOUS
 62
     7
 10
97.416016
 20
196.473307
 11
97.416016
 21
202.473307
  0
LINE
  8
CSLAYER1
  6
CONTINUOUS
 62
     7
 10
82.416016
 20
201.473307
 11
97.416016
 21
201.473307
  0
LINE
  8
CSLAYER1
  6
CONTINUOUS
 62
     7
 10
82.416016
 20
201.473307
 11
86.279719
 21
202.508583
  0
LINE
  8
CSLAYER1
  6
CONTINUOUS
 62
     7
 10
82.416016
 20
201.473307
 11
86.279719
 21
200.438031
  0
LINE
  8
CSLAYER1
  6
CONTINUOUS
 62
     7
 10
97.416016
 20
201.473307
 11
93.552312
 21
202.508583
  0
LINE
  8
CSLAYER1
  6
CONTINUOUS
 62
     7
 10
97.416016
 20
201.473307
 11
93.552312
 21
200.438031
  0
TEXT
  8
CSLAYER1
 62
     7
 10
86.916016
 20
202.473312
 40
4.000000
 41
0.900000
  1
15
 50
0.000000
 51
0.000000
  7
SX_FONT
 72
     5
 11
92.916016
 21
202.473312
  0
ENDBLK
  8
0
  0
BLOCK
  8
CSLAYER1
  2
*D0001
 70
    65
 10
0.0
 20
0.0
 30
0.0
  0
LINE
  8
CSLAYER1
  6
CONTINUOUS
 62
     7
 10
102.556641
 20
131.025391
 11
108.556641
 21
131.025391
  0
LINE
  8
CSLAYER1
  6
CONTINUOUS
 62
     7
 10
102.556641
 20
191.025391
 11
108.556641
 21
191.025391
  0
LINE
  8
CSLAYER1
  6
CONTINUOUS
 62
     7
 10
107.556641
 20
131.025391
 11
107.556641
 21
191.025391
  0
LINE
  8
CSLAYER1
  6
CONTINUOUS
 62
     7
 10
107.556641
 20
131.025391
 11
106.521364
 21
134.889094
  0
LINE
  8
CSLAYER1
  6
CONTINUOUS
 62
     7
 10
107.556641
 20
131.025391
 11
108.591917
 21
134.889094
  0
LINE
  8
CSLAYER1
  6
CONTINUOUS
 62
     7
 10
107.556641
 20
191.025391
 11
106.521364
 21
187.161687
  0
LINE
  8
CSLAYER1
  6
CONTINUOUS
 62
     7
 10
107.556641
 20
191.025391
 11
108.591917
 21
187.161687
  0
TEXT
  8
CSLAYER1
 62
     7
 10
113.056641
 20
157.910812
 40
4.000000
 41
0.900000
  1
60
 50
90.000000
 51
0.000000
  7
SX_FONT
 72
     5
 11
113.056641
 21
163.910812
  0
ENDBLK
  8
0
  0
ENDSEC
  0
SECTION
  2
ENTITIES
  0
LINE
  8
CSLAYER2
  6
CONTINUOUS
 62
     7
 10
82.416016
 20
177.025391
 11
82.416016
 21
168.025391
  0
ARC
  8
CSLAYER2
  6
CONTINUOUS
 62
     7
 10
91.666016
 20
191.025391
 40
2.750000
 50
275.952156
 51
360.000000
  0
ARC
  8
CSLAYER2
  6
CONTINUOUS
 62
     7
 10
92.884467
 20
179.338737
 40
9.000000
 50
95.952156
 51
184.442670
  0
ARC
  8
CSLAYER2
  6
CONTINUOUS
 62
     7
 10
82.416016
 20
178.525391
 40
1.500000
 50
-90.000000
 51
4.442670
  0
LINE
  8
CSLAYER2
  6
CONTINUOUS
 62
     7
 10
94.416016
 20
191.025391
 11
97.416016
 21
191.025391
  0
LINE
  8
CSLAYER2
  6
CONTINUOUS
 62
     7
 10
97.416016
 20
191.025391
 11
97.416016
 21
131.025391
  0
LINE
  8
CSLAYER2
  6
CONTINUOUS
 62
     7
 10
97.416016
 20
131.025391
 11
82.416016
 21
131.025391
  0
LINE
  8
CSLAYER2
  6
CONTINUOUS
 62
     7
 10
82.416016
 20
131.025391
 11
82.416016
 21
161.025391
  0
ARC
  8
CSLAYER2
  6
CONTINUOUS
 62
     7
 10
82.416016
 20
164.525391
 40
3.500000
 50
-90.000000
 51
0.000000
  0
ARC
  8
CSLAYER2
  6
CONTINUOUS
 62
     7
 10
82.416016
 20
164.525391
 40
3.500000
 50
0.000000
 51
90.000000
  0
TEXT
  8
CSLAYER1
 62
     7
 10
82.327744
 20
70.727196
 40
10.000000
 41
0.630000
  1
FM-3010
 50
0.000000
 51
0.000000
  7
SX_FONT
 72
     5
 11
124.327744
 21
70.727196
  0
DIMENSION
  8
CSLAYER1
 62
     7
  2
*D0000
 10
97.416016
 20
201.473307
 11
89.916016
 21
202.473312
 13
82.416016
 23
195.473307
 14
97.416016
 24
195.473307
 70
1
  0
DIMENSION
  8
CSLAYER1
 62
     7
  2
*D0001
 10
107.556641
 20
191.025391
 11
113.056641
 21
160.910812
 13
101.556641
 23
131.025391
 14
101.556641
 24
191.025391
 50
90.000000
 70
1
  0
TEXT
  8
CSLAYER1
 62
     7
 10
138.927994
 20
70.970879
 40
10.000000
 41
0.642857
  1
15x60
 50
0.000000
 51
0.000000
  7
SX_FONT
 72
     5
 11
168.927994
 21
70.970879
  0
TEXT
  8
CSLAYER1
 62
     7
 10
82.676476
 20
59.359718
 40
5.000000
 41
0.612766
  1
カタログ Vol. 1  P78
 50
0.000000
 51
0.000000
  7
SX_FONT
 72
     5
 11
130.676476
 21
59.359718
  0
TEXT
  8
CSLAYER1
 62
     7
 10
82.036574
 20
50.080493
 40
4.960742
 41
0.729057
  1
ホ%%dケットカタロク゛ Vol. 1 P53
 50
0.000000
 51
0.000000
  7
SX_FONT
 72
     5
 11
156.780931
 21
50.080493
  0
ENDSEC
  0
EOF
