  0
SECTION
  2
HEADER
  9
$ACADVER
  1
AC1006
  9
$INSBASE
 10
98.713135
 20
187.988281
 30
0.0
  9
$EXTMIN
 10
98.713135
 20
187.988281
  9
$EXTMAX
 10
308.713135
 20
484.988281
  9
$LIMMIN
 10
98.713135
 20
187.988281
  9
$LIMMAX
 10
308.713135
 20
484.988281
  9
$VIEWCTR
 10
203.713135
 20
336.488281
  9
$VIEWSIZE
 40
297.000000
  9
$SNAPMODE
 70
     0
  9
$SNAPUNIT
 10
1.0
 20
1.0
  9
$SNAPBASE
 10
0.0
 20
0.0
  9
$SNAPANG
 50
0.0
  9
$SNAPSTYLE
 70
     0
  9
$SNAPISOPAIR
 70
     0
  9
$GRIDMODE
 70
     0
  9
$GRIDUNIT
 10
0.0
 20
0.0
  9
$ORTHOMODE
 70
     0
  9
$REGENMODE
 70
     1
  9
$FILLMODE
 70
     1
  9
$QTEXTMODE
 70
     0
  9
$DRAGMODE
 70
     2
  9
$LTSCALE
 40
15.000000
  9
$OSMODE
 70
     0
  9
$ATTMODE
 70
     1
  9
$TEXTSIZE
 40
0.2
  9
$TRACEWID
 40
0.05
  9
$TEXTSTYLE
  7
STANDARD
  9
$CLAYER
  8
CSLAYER3
  9
$CELTYPE
  6
BYLAYER
  9
$CECOLOR
 62
   256
  9
$DIMSCALE
 40
1.0
  9
$DIMASZ
 40
0.18
  9
$DIMEXO
 40
0.0625
  9
$DIMDLI
 40
0.38
  9
$DIMRND
 40
0.0
  9
$DIMDLE
 40
0.0
  9
$DIMEXE
 40
0.18
  9
$DIMTP
 40
0.0
  9
$DIMTM
 40
0.0
  9
$DIMTXT
 40
0.18
  9
$DIMCEN
 40
0.09
  9
$DIMTSZ
 40
0.0
  9
$DIMTOL
 70
     0
  9
$DIMLIM
 70
     0
  9
$DIMTIH
 70
     1
  9
$DIMTOH
 70
     1
  9
$DIMSE1
 70
     0
  9
$DIMSE2
 70
     0
  9
$DIMTAD
 70
     0
  9
$DIMZIN
 70
     0
  9
$DIMBLK
  1

  9
$LUNITS
 70
     2
  9
$LUPREC
 70
     4
  9
$AXISMODE
 70
     0
  9
$AXISUNIT
 10
0.0
 20
0.0
  9
$SKETCHINC
 40
0.1
  9
$FILLETRAD
 40
0.0
  9
$AUNITS
 70
     0
  9
$AUPREC
 70
     0
  9
$MENU
  1
ACAD
  9
$ELEVATION
 40
0.0
  9
$THICKNESS
 40
0.0
  9
$VIEWDIR
 10
0.0
 20
0.0
 30
1.0
  9
$LIMCHECK
 70
     0
  9
$BLIPMODE
 70
     1
  9
$CHAMFERA
 40
0.0
  9
$CHAMFERB
 40
0.0
  9
$FASTZOOM
 70
     1
  9
$SKPOLY
 70
     0
  9
$TDCREATE
 40
0.000000
  9
$TDUPDATE
 40
0.000000
  9
$TDINDWG
 40
0.0
  9
$TDUSRTIMER
 40
0.0
  9
$USRTIMER
 70
     1
  9
$ANGBASE
 50
0.0
  9
$ANGDIR
 70
     0
  9
$PDMODE
 70
     0
  9
$PDSIZE
 40
0.0
  9
$PLINEWID
 40
0.0
  9
$COORDS
 70
     0
  9
$USERI1
 70
     0
  9
$USERI2
 70
     0
  9
$USERI3
 70
     0
  9
$USERI4
 70
     0
  9
$USERI5
 70
     0
  9
$USERR1
 40
0.0
  9
$USERR2
 40
0.0
  9
$USERR3
 40
0.0
  9
$USERR4
 40
0.0
  9
$USERR5
 40
0.0
  0
ENDSEC
  0
SECTION
  2
TABLES
  0
TABLE
  2
LTYPE
 70
     9
  0
LTYPE
  2
CONTINUOUS
 70
    64
  3
Solid line
 72
    65
 73
     0
 40
0.0
  0
LTYPE
  2
DASHED
 70
    64
  3
__ __ __ __ __ __ __ __ __ __ __ __ __ __ __
 72
    65
 73
     2
 40
0.75
 49
0.5
 49
-0.25
  0
LTYPE
  2
HIDDEN
 70
    64
  3
_ _ _ _ _ _ _ _ _ _ _ _ _ _ _ _ _ _ _ _ _ _ _
 72
    65
 73
     2
 40
0.375
 49
0.25
 49
-0.125
  0
LTYPE
  2
DOT
 70
    64
  3
...............................................
 72
    65
 73
     2
 40
0.25
 49
0.0
 49
-0.25
  0
LTYPE
  2
DASHDOT
 70
    64
  3
__ . __ . __ . __ . __ . __ . __ . __ . __ . __
 72
    65
 73
     4
 40
1.0
 49
0.5
 49
-0.25
 49
0.0
 49
-0.25
  0
LTYPE
  2
DIVIDE
 70
    64
  3
__ . . __ . . __ . . __ . . __ . . __ . . __
 72
    65
 73
     6
 40
1.25
 49
0.5
 49
-0.25
 49
0.0
 49
-0.25
 49
0.0
 49
-0.25
  0
LTYPE
  2
CENTER
 70
    64
  3
____ _ ____ _ ____ _ ____ _ ____ _ ____ _ ____ 
 72
    65
 73
     4
 40
2.0
 49
1.25
 49
-0.25
 49
0.25
 49
-0.25
  0
LTYPE
  2
PHANTOM
 70
    64
  3
______  __  __  ______  __  __  ______  __  __ 
 72
    65
 73
     6
 40
2.5
 49
1.25
 49
-0.25
 49
0.25
 49
-0.25
 49
0.25
 49
-0.25
  0
LTYPE
  2
BORDER
 70
    64
  3
__ __ . __ __ . __ __ . __ __ . __ __ . __ __ .
 72
    65
 73
     6
 40
1.75
 49
0.5
 49
-0.25
 49
0.5
 49
-0.25
 49
0.0
 49
-0.25
  0
ENDTAB
  0
TABLE
  2
LAYER
 70
    16
  0
LAYER
  2
CSLAYER1
 70
    64
 62
     7
  6
CONTINUOUS
  0
LAYER
  2
CSLAYER2
 70
    64
 62
     7
  6
CONTINUOUS
  0
LAYER
  2
CSLAYER3
 70
    64
 62
     7
  6
CONTINUOUS
  0
LAYER
  2
CSLAYER4
 70
    64
 62
     7
  6
CONTINUOUS
  0
LAYER
  2
CSLAYER5
 70
    64
 62
     7
  6
CONTINUOUS
  0
LAYER
  2
CSLAYER6
 70
    64
 62
     7
  6
CONTINUOUS
  0
LAYER
  2
CSLAYER7
 70
    64
 62
     7
  6
CONTINUOUS
  0
LAYER
  2
CSLAYER8
 70
    64
 62
     7
  6
CONTINUOUS
  0
LAYER
  2
CSLAYER9
 70
    64
 62
     7
  6
CONTINUOUS
  0
LAYER
  2
CSLAYER10
 70
    64
 62
     7
  6
CONTINUOUS
  0
LAYER
  2
CSLAYER11
 70
    64
 62
     7
  6
CONTINUOUS
  0
LAYER
  2
CSLAYER12
 70
    64
 62
     7
  6
CONTINUOUS
  0
LAYER
  2
CSLAYER13
 70
    64
 62
     7
  6
CONTINUOUS
  0
LAYER
  2
CSLAYER14
 70
    64
 62
     7
  6
CONTINUOUS
  0
LAYER
  2
CSLAYER15
 70
    64
 62
     7
  6
CONTINUOUS
  0
LAYER
  2
CSLAYER16
 70
    64
 62
     7
  6
CONTINUOUS
  0
ENDTAB
  0
TABLE
  2
STYLE
 70
     1
  0
STYLE
  2
SX_FONT
 70
     0
 40
1.0
 41
1.0
 50
0.0
 71
     0
 42
1.0
  3
monotxt
  4
bigfont
  0
ENDTAB
  0
TABLE
  2
VIEW
 70
     0
  0
ENDTAB
  0
ENDSEC
  0
SECTION
  2
BLOCKS
  0
BLOCK
  8
CSLAYER1
  2
*D0000
 70
    65
 10
0.0
 20
0.0
 30
0.0
  0
TEXT
  8
CSLAYER1
 62
     7
 10
85.020508
 20
202.439514
 40
4.000000
 41
0.900000
  1
15
 50
0.000000
 51
0.000000
  7
SX_FONT
 72
     5
 11
91.020508
 21
202.439514
  0
LINE
  8
CSLAYER1
  6
CONTINUOUS
 62
     7
 10
80.520508
 20
197.168620
 11
80.520508
 21
202.439496
  0
LINE
  8
CSLAYER1
  6
CONTINUOUS
 62
     7
 10
95.520508
 20
197.168620
 11
95.520508
 21
202.439496
  0
LINE
  8
CSLAYER1
  6
CONTINUOUS
 62
     7
 10
80.520508
 20
201.439496
 11
95.520508
 21
201.439496
  0
LINE
  8
CSLAYER1
  6
CONTINUOUS
 62
     7
 10
80.520508
 20
201.439496
 11
84.384211
 21
202.474772
  0
LINE
  8
CSLAYER1
  6
CONTINUOUS
 62
     7
 10
80.520508
 20
201.439496
 11
84.384211
 21
200.404220
  0
LINE
  8
CSLAYER1
  6
CONTINUOUS
 62
     7
 10
95.520508
 20
201.439496
 11
91.656805
 21
202.474772
  0
LINE
  8
CSLAYER1
  6
CONTINUOUS
 62
     7
 10
95.520508
 20
201.439496
 11
91.656805
 21
200.404220
  0
ENDBLK
  8
0
  0
BLOCK
  8
CSLAYER1
  2
*D0001
 70
    65
 10
0.0
 20
0.0
 30
0.0
  0
TEXT
  8
CSLAYER1
 62
     7
 10
110.677155
 20
150.601563
 40
4.000000
 41
0.900000
  1
75
 50
90.000000
 51
0.000000
  7
SX_FONT
 72
     5
 11
110.677155
 21
156.601563
  0
LINE
  8
CSLAYER1
  6
CONTINUOUS
 62
     7
 10
101.520508
 20
116.168620
 11
106.689312
 21
116.168620
  0
LINE
  8
CSLAYER1
  6
CONTINUOUS
 62
     7
 10
101.520508
 20
191.168620
 11
106.689312
 21
191.168620
  0
LINE
  8
CSLAYER1
  6
CONTINUOUS
 62
     7
 10
105.689312
 20
116.168620
 11
105.689312
 21
191.168620
  0
LINE
  8
CSLAYER1
  6
CONTINUOUS
 62
     7
 10
105.689312
 20
116.168620
 11
104.654036
 21
120.032323
  0
LINE
  8
CSLAYER1
  6
CONTINUOUS
 62
     7
 10
105.689312
 20
116.168620
 11
106.724588
 21
120.032323
  0
LINE
  8
CSLAYER1
  6
CONTINUOUS
 62
     7
 10
105.689312
 20
191.168620
 11
104.654036
 21
187.304916
  0
LINE
  8
CSLAYER1
  6
CONTINUOUS
 62
     7
 10
105.689312
 20
191.168620
 11
106.724588
 21
187.304916
  0
ENDBLK
  8
0
  0
ENDSEC
  0
SECTION
  2
ENTITIES
  0
TEXT
  8
CSLAYER1
 62
     7
 10
79.788841
 20
66.522156
 40
10.000000
 41
0.630000
  1
FM-3008
 50
0.000000
 51
0.000000
  7
SX_FONT
 72
     5
 11
121.788841
 21
66.522156
  0
TEXT
  8
CSLAYER1
 62
     7
 10
137.006104
 20
65.987030
 40
10.000000
 41
0.642857
  1
15x75
 50
0.000000
 51
0.000000
  7
SX_FONT
 72
     5
 11
167.006104
 21
65.987030
  0
TEXT
  8
CSLAYER1
 62
     7
 10
80.002060
 20
54.254288
 40
5.000000
 41
0.612766
  1
カタログ Vol. 1  P78
 50
0.000000
 51
0.000000
  7
SX_FONT
 72
     5
 11
128.002060
 21
54.254288
  0
TEXT
  8
CSLAYER1
 62
     7
 10
80.043677
 20
45.227404
 40
4.960742
 41
0.729057
  1
ホ%%dケットカタロク゛ Vol. 1 P53
 50
0.000000
 51
0.000000
  7
SX_FONT
 72
     5
 11
154.788034
 21
45.227404
  0
LINE
  8
CSLAYER3
  6
CONTINUOUS
 62
     7
 10
95.520508
 20
116.168620
 11
95.520508
 21
191.168620
  0
LINE
  8
CSLAYER3
  6
CONTINUOUS
 62
     7
 10
95.520508
 20
191.168620
 11
88.020508
 21
191.168620
  0
LINE
  8
CSLAYER3
  6
CONTINUOUS
 62
     7
 10
80.520508
 20
116.168620
 11
95.520508
 21
116.168620
  0
LINE
  8
CSLAYER3
  6
CONTINUOUS
 62
     7
 10
84.020508
 20
177.668620
 11
84.020508
 21
179.668620
  0
ARC
  8
CSLAYER3
  6
CONTINUOUS
 62
     7
 10
84.020508
 20
175.168620
 40
2.500000
 50
90.000000
 51
196.698883
  0
LINE
  8
CSLAYER3
  6
CONTINUOUS
 62
     7
 10
87.084748
 20
184.510341
 11
88.020508
 21
191.168620
  0
ARC
  8
CSLAYER3
  6
CONTINUOUS
 62
     7
 10
79.241044
 20
186.083970
 40
8.000000
 50
306.686270
 51
348.655737
  0
ARC
  8
CSLAYER3
  6
CONTINUOUS
 62
     7
 10
37.411752
 20
166.077345
 40
45.000000
 50
-16.670095
 51
10.723225
  0
LINE
  8
CSLAYER3
  6
CONTINUOUS
 62
     7
 10
80.520508
 20
153.168620
 11
80.520508
 21
116.168620
  0
DIMENSION
  8
CSLAYER1
 62
     7
  2
*D0000
 10
95.520508
 20
201.439496
 11
88.020508
 21
202.439514
 13
80.520508
 23
196.168620
 14
95.520508
 24
196.168620
 70
1
  0
DIMENSION
  8
CSLAYER1
 62
     7
  2
*D0001
 10
105.689312
 20
191.168620
 11
110.677155
 21
153.601563
 13
100.520508
 23
116.168620
 14
100.520508
 24
191.168620
 50
90.000000
 70
1
  0
ENDSEC
  0
EOF
