  0
SECTION
  2
HEADER
  9
$ACADVER
  1
AC1006
  9
$INSBASE
 10
90.137288
 20
214.149089
 30
0.0
  9
$EXTMIN
 10
90.137288
 20
214.149089
  9
$EXTMAX
 10
300.137288
 20
511.149089
  9
$LIMMIN
 10
90.137288
 20
214.149089
  9
$LIMMAX
 10
300.137288
 20
511.149089
  9
$VIEWCTR
 10
195.137288
 20
362.649089
  9
$VIEWSIZE
 40
297.000000
  9
$SNAPMODE
 70
     0
  9
$SNAPUNIT
 10
1.0
 20
1.0
  9
$SNAPBASE
 10
0.0
 20
0.0
  9
$SNAPANG
 50
0.0
  9
$SNAPSTYLE
 70
     0
  9
$SNAPISOPAIR
 70
     0
  9
$GRIDMODE
 70
     0
  9
$GRIDUNIT
 10
0.0
 20
0.0
  9
$ORTHOMODE
 70
     0
  9
$REGENMODE
 70
     1
  9
$FILLMODE
 70
     1
  9
$QTEXTMODE
 70
     0
  9
$DRAGMODE
 70
     2
  9
$LTSCALE
 40
15.000000
  9
$OSMODE
 70
     0
  9
$ATTMODE
 70
     1
  9
$TEXTSIZE
 40
0.2
  9
$TRACEWID
 40
0.05
  9
$TEXTSTYLE
  7
STANDARD
  9
$CLAYER
  8
CSLAYER3
  9
$CELTYPE
  6
BYLAYER
  9
$CECOLOR
 62
   256
  9
$DIMSCALE
 40
1.0
  9
$DIMASZ
 40
0.18
  9
$DIMEXO
 40
0.0625
  9
$DIMDLI
 40
0.38
  9
$DIMRND
 40
0.0
  9
$DIMDLE
 40
0.0
  9
$DIMEXE
 40
0.18
  9
$DIMTP
 40
0.0
  9
$DIMTM
 40
0.0
  9
$DIMTXT
 40
0.18
  9
$DIMCEN
 40
0.09
  9
$DIMTSZ
 40
0.0
  9
$DIMTOL
 70
     0
  9
$DIMLIM
 70
     0
  9
$DIMTIH
 70
     1
  9
$DIMTOH
 70
     1
  9
$DIMSE1
 70
     0
  9
$DIMSE2
 70
     0
  9
$DIMTAD
 70
     0
  9
$DIMZIN
 70
     0
  9
$DIMBLK
  1

  9
$LUNITS
 70
     2
  9
$LUPREC
 70
     4
  9
$AXISMODE
 70
     0
  9
$AXISUNIT
 10
0.0
 20
0.0
  9
$SKETCHINC
 40
0.1
  9
$FILLETRAD
 40
0.0
  9
$AUNITS
 70
     0
  9
$AUPREC
 70
     0
  9
$MENU
  1
ACAD
  9
$ELEVATION
 40
0.0
  9
$THICKNESS
 40
0.0
  9
$VIEWDIR
 10
0.0
 20
0.0
 30
1.0
  9
$LIMCHECK
 70
     0
  9
$BLIPMODE
 70
     1
  9
$CHAMFERA
 40
0.0
  9
$CHAMFERB
 40
0.0
  9
$FASTZOOM
 70
     1
  9
$SKPOLY
 70
     0
  9
$TDCREATE
 40
0.000000
  9
$TDUPDATE
 40
0.000000
  9
$TDINDWG
 40
0.0
  9
$TDUSRTIMER
 40
0.0
  9
$USRTIMER
 70
     1
  9
$ANGBASE
 50
0.0
  9
$ANGDIR
 70
     0
  9
$PDMODE
 70
     0
  9
$PDSIZE
 40
0.0
  9
$PLINEWID
 40
0.0
  9
$COORDS
 70
     0
  9
$USERI1
 70
     0
  9
$USERI2
 70
     0
  9
$USERI3
 70
     0
  9
$USERI4
 70
     0
  9
$USERI5
 70
     0
  9
$USERR1
 40
0.0
  9
$USERR2
 40
0.0
  9
$USERR3
 40
0.0
  9
$USERR4
 40
0.0
  9
$USERR5
 40
0.0
  0
ENDSEC
  0
SECTION
  2
TABLES
  0
TABLE
  2
LTYPE
 70
     9
  0
LTYPE
  2
CONTINUOUS
 70
    64
  3
Solid line
 72
    65
 73
     0
 40
0.0
  0
LTYPE
  2
DASHED
 70
    64
  3
__ __ __ __ __ __ __ __ __ __ __ __ __ __ __
 72
    65
 73
     2
 40
0.75
 49
0.5
 49
-0.25
  0
LTYPE
  2
HIDDEN
 70
    64
  3
_ _ _ _ _ _ _ _ _ _ _ _ _ _ _ _ _ _ _ _ _ _ _
 72
    65
 73
     2
 40
0.375
 49
0.25
 49
-0.125
  0
LTYPE
  2
DOT
 70
    64
  3
...............................................
 72
    65
 73
     2
 40
0.25
 49
0.0
 49
-0.25
  0
LTYPE
  2
DASHDOT
 70
    64
  3
__ . __ . __ . __ . __ . __ . __ . __ . __ . __
 72
    65
 73
     4
 40
1.0
 49
0.5
 49
-0.25
 49
0.0
 49
-0.25
  0
LTYPE
  2
DIVIDE
 70
    64
  3
__ . . __ . . __ . . __ . . __ . . __ . . __
 72
    65
 73
     6
 40
1.25
 49
0.5
 49
-0.25
 49
0.0
 49
-0.25
 49
0.0
 49
-0.25
  0
LTYPE
  2
CENTER
 70
    64
  3
____ _ ____ _ ____ _ ____ _ ____ _ ____ _ ____ 
 72
    65
 73
     4
 40
2.0
 49
1.25
 49
-0.25
 49
0.25
 49
-0.25
  0
LTYPE
  2
PHANTOM
 70
    64
  3
______  __  __  ______  __  __  ______  __  __ 
 72
    65
 73
     6
 40
2.5
 49
1.25
 49
-0.25
 49
0.25
 49
-0.25
 49
0.25
 49
-0.25
  0
LTYPE
  2
BORDER
 70
    64
  3
__ __ . __ __ . __ __ . __ __ . __ __ . __ __ .
 72
    65
 73
     6
 40
1.75
 49
0.5
 49
-0.25
 49
0.5
 49
-0.25
 49
0.0
 49
-0.25
  0
ENDTAB
  0
TABLE
  2
LAYER
 70
    16
  0
LAYER
  2
CSLAYER1
 70
    64
 62
     7
  6
CONTINUOUS
  0
LAYER
  2
CSLAYER2
 70
    64
 62
     7
  6
CONTINUOUS
  0
LAYER
  2
CSLAYER3
 70
    64
 62
     7
  6
CONTINUOUS
  0
LAYER
  2
CSLAYER4
 70
    64
 62
     7
  6
CONTINUOUS
  0
LAYER
  2
CSLAYER5
 70
    64
 62
     7
  6
CONTINUOUS
  0
LAYER
  2
CSLAYER6
 70
    64
 62
     7
  6
CONTINUOUS
  0
LAYER
  2
CSLAYER7
 70
    64
 62
     7
  6
CONTINUOUS
  0
LAYER
  2
CSLAYER8
 70
    64
 62
     7
  6
CONTINUOUS
  0
LAYER
  2
CSLAYER9
 70
    64
 62
     7
  6
CONTINUOUS
  0
LAYER
  2
CSLAYER10
 70
    64
 62
     7
  6
CONTINUOUS
  0
LAYER
  2
CSLAYER11
 70
    64
 62
     7
  6
CONTINUOUS
  0
LAYER
  2
CSLAYER12
 70
    64
 62
     7
  6
CONTINUOUS
  0
LAYER
  2
CSLAYER13
 70
    64
 62
     7
  6
CONTINUOUS
  0
LAYER
  2
CSLAYER14
 70
    64
 62
     7
  6
CONTINUOUS
  0
LAYER
  2
CSLAYER15
 70
    64
 62
     7
  6
CONTINUOUS
  0
LAYER
  2
CSLAYER16
 70
    64
 62
     7
  6
CONTINUOUS
  0
ENDTAB
  0
TABLE
  2
STYLE
 70
     1
  0
STYLE
  2
SX_FONT
 70
     0
 40
1.0
 41
1.0
 50
0.0
 71
     0
 42
1.0
  3
monotxt
  4
bigfont
  0
ENDTAB
  0
TABLE
  2
VIEW
 70
     0
  0
ENDTAB
  0
ENDSEC
  0
SECTION
  2
BLOCKS
  0
BLOCK
  8
CSLAYER1
  2
*D0000
 70
    65
 10
0.0
 20
0.0
 30
0.0
  0
LINE
  8
CSLAYER1
  6
CONTINUOUS
 62
     7
 10
73.992188
 20
253.181315
 11
73.992187
 21
259.181315
  0
LINE
  8
CSLAYER1
  6
CONTINUOUS
 62
     7
 10
88.992188
 20
253.181315
 11
88.992188
 21
259.181315
  0
LINE
  8
CSLAYER1
  6
CONTINUOUS
 62
     7
 10
73.992187
 20
258.181315
 11
88.992188
 21
258.181315
  0
LINE
  8
CSLAYER1
  6
CONTINUOUS
 62
     7
 10
73.992187
 20
258.181315
 11
77.855891
 21
259.216591
  0
LINE
  8
CSLAYER1
  6
CONTINUOUS
 62
     7
 10
73.992187
 20
258.181315
 11
77.855891
 21
257.146039
  0
LINE
  8
CSLAYER1
  6
CONTINUOUS
 62
     7
 10
88.992188
 20
258.181315
 11
85.128484
 21
259.216591
  0
LINE
  8
CSLAYER1
  6
CONTINUOUS
 62
     7
 10
88.992188
 20
258.181315
 11
85.128484
 21
257.146039
  0
TEXT
  8
CSLAYER1
 62
     7
 10
78.492188
 20
259.181335
 40
4.000000
 41
0.900000
  1
15
 50
0.000000
 51
0.000000
  7
SX_FONT
 72
     5
 11
84.492188
 21
259.181335
  0
ENDBLK
  8
0
  0
BLOCK
  8
CSLAYER1
  2
*D0001
 70
    65
 10
0.0
 20
0.0
 30
0.0
  0
LINE
  8
CSLAYER1
  6
CONTINUOUS
 62
     7
 10
94.776611
 20
97.765625
 11
100.776611
 21
97.765625
  0
LINE
  8
CSLAYER1
  6
CONTINUOUS
 62
     7
 10
94.776611
 20
247.765625
 11
100.776611
 21
247.765625
  0
LINE
  8
CSLAYER1
  6
CONTINUOUS
 62
     7
 10
99.776611
 20
97.765625
 11
99.776611
 21
247.765625
  0
LINE
  8
CSLAYER1
  6
CONTINUOUS
 62
     7
 10
99.776611
 20
97.765625
 11
98.741335
 21
101.629328
  0
LINE
  8
CSLAYER1
  6
CONTINUOUS
 62
     7
 10
99.776611
 20
97.765625
 11
100.811888
 21
101.629328
  0
LINE
  8
CSLAYER1
  6
CONTINUOUS
 62
     7
 10
99.776611
 20
247.765625
 11
98.741335
 21
243.901922
  0
LINE
  8
CSLAYER1
  6
CONTINUOUS
 62
     7
 10
99.776611
 20
247.765625
 11
100.811888
 21
243.901922
  0
TEXT
  8
CSLAYER1
 62
     7
 10
105.165604
 20
168.612137
 40
4.000000
 41
0.843750
  1
150
 50
90.000000
 51
0.000000
  7
SX_FONT
 72
     5
 11
105.165604
 21
177.612137
  0
ENDBLK
  8
0
  0
ENDSEC
  0
SECTION
  2
ENTITIES
  0
LINE
  8
CSLAYER2
  6
CONTINUOUS
 62
     7
 10
73.992187
 20
97.765625
 11
73.992188
 21
203.265625
  0
LINE
  8
CSLAYER2
  6
CONTINUOUS
 62
     7
 10
88.992188
 20
247.765625
 11
88.992187
 21
97.765625
  0
LINE
  8
CSLAYER2
  6
CONTINUOUS
 62
     7
 10
88.992187
 20
97.765625
 11
73.992187
 21
97.765625
  0
LINE
  8
CSLAYER2
  6
CONTINUOUS
 62
     7
 10
88.992187
 20
97.765625
 11
73.992187
 21
97.765625
  0
ARC
  8
CSLAYER2
  6
CONTINUOUS
 62
     7
 10
77.992188
 20
243.765625
 40
3.000000
 50
270.000000
 51
360.000000
  0
ARC
  8
CSLAYER2
  6
CONTINUOUS
 62
     7
 10
103.992188
 20
218.265625
 40
30.000000
 50
160.606378
 51
200.408199
  0
ARC
  8
CSLAYER2
  6
CONTINUOUS
 62
     7
 10
72.018185
 20
206.744607
 40
4.000000
 50
-60.429072
 51
15.364476
  0
ARC
  8
CSLAYER2
  6
CONTINUOUS
 62
     7
 10
77.992188
 20
234.765625
 40
4.000000
 50
90.000000
 51
180.000000
  0
ARC
  8
CSLAYER2
  6
CONTINUOUS
 62
     7
 10
77.992188
 20
234.765625
 40
4.000000
 50
90.000000
 51
220.636778
  0
ARC
  8
CSLAYER2
  6
CONTINUOUS
 62
     7
 10
71.921360
 20
229.555534
 40
4.000000
 50
-19.393622
 51
40.636778
  0
LINE
  8
CSLAYER2
  6
CONTINUOUS
 62
     7
 10
77.992188
 20
240.765625
 11
77.992188
 21
238.765625
  0
LINE
  8
CSLAYER2
  6
CONTINUOUS
 62
     7
 10
82.992188
 20
247.765625
 11
88.992188
 21
247.765625
  0
LINE
  8
CSLAYER5
  6
CONTINUOUS
 62
     7
 10
80.992188
 20
243.765625
 11
82.992188
 21
243.765625
  0
LINE
  8
CSLAYER2
  6
CONTINUOUS
 62
     7
 10
82.992188
 20
247.765625
 11
82.992188
 21
243.765625
  0
TEXT
  8
CSLAYER1
 62
     7
 10
73.088715
 20
54.298599
 40
10.000000
 41
0.630000
  1
FM-3007
 50
0.000000
 51
0.000000
  7
SX_FONT
 72
     5
 11
115.088715
 21
54.298599
  0
DIMENSION
  8
CSLAYER1
 62
     7
  2
*D0000
 10
88.992188
 20
258.181315
 11
81.492188
 21
259.181335
 13
73.992188
 23
252.181315
 14
88.992188
 24
252.181315
 70
1
  0
DIMENSION
  8
CSLAYER1
 62
     7
  2
*D0001
 10
99.776611
 20
247.765625
 11
105.165604
 21
173.112137
 13
93.776611
 23
97.765625
 14
93.776611
 24
247.765625
 50
90.000000
 70
1
  0
TEXT
  8
CSLAYER1
 62
     7
 10
126.764893
 20
53.915085
 40
10.000000
 41
0.635294
  1
15x150
 50
0.000000
 51
0.000000
  7
SX_FONT
 72
     5
 11
162.764893
 21
53.915085
  0
TEXT
  8
CSLAYER1
 62
     7
 10
74.285202
 20
42.338375
 40
5.000000
 41
0.612766
  1
カタログ Vol. 1  P77
 50
0.000000
 51
0.000000
  7
SX_FONT
 72
     5
 11
122.285202
 21
42.338375
  0
TEXT
  8
CSLAYER1
 62
     7
 10
74.254744
 20
33.524359
 40
4.960742
 41
0.729057
  1
ホ%%dケットカタロク゛ Vol. 1 P52
 50
0.000000
 51
0.000000
  7
SX_FONT
 72
     5
 11
148.999101
 21
33.524359
  0
ENDSEC
  0
EOF
