  0
SECTION
  2
HEADER
  9
$ACADVER
  1
AC1006
  9
$INSBASE
 10
108.142090
 20
188.890625
 30
0.0
  9
$EXTMIN
 10
108.142090
 20
188.890625
  9
$EXTMAX
 10
318.142090
 20
485.890625
  9
$LIMMIN
 10
108.142090
 20
188.890625
  9
$LIMMAX
 10
318.142090
 20
485.890625
  9
$VIEWCTR
 10
213.142090
 20
337.390625
  9
$VIEWSIZE
 40
297.000000
  9
$SNAPMODE
 70
     0
  9
$SNAPUNIT
 10
1.0
 20
1.0
  9
$SNAPBASE
 10
0.0
 20
0.0
  9
$SNAPANG
 50
0.0
  9
$SNAPSTYLE
 70
     0
  9
$SNAPISOPAIR
 70
     0
  9
$GRIDMODE
 70
     0
  9
$GRIDUNIT
 10
0.0
 20
0.0
  9
$ORTHOMODE
 70
     0
  9
$REGENMODE
 70
     1
  9
$FILLMODE
 70
     1
  9
$QTEXTMODE
 70
     0
  9
$DRAGMODE
 70
     2
  9
$LTSCALE
 40
15.000000
  9
$OSMODE
 70
     0
  9
$ATTMODE
 70
     1
  9
$TEXTSIZE
 40
0.2
  9
$TRACEWID
 40
0.05
  9
$TEXTSTYLE
  7
STANDARD
  9
$CLAYER
  8
CSLAYER3
  9
$CELTYPE
  6
BYLAYER
  9
$CECOLOR
 62
   256
  9
$DIMSCALE
 40
1.0
  9
$DIMASZ
 40
0.18
  9
$DIMEXO
 40
0.0625
  9
$DIMDLI
 40
0.38
  9
$DIMRND
 40
0.0
  9
$DIMDLE
 40
0.0
  9
$DIMEXE
 40
0.18
  9
$DIMTP
 40
0.0
  9
$DIMTM
 40
0.0
  9
$DIMTXT
 40
0.18
  9
$DIMCEN
 40
0.09
  9
$DIMTSZ
 40
0.0
  9
$DIMTOL
 70
     0
  9
$DIMLIM
 70
     0
  9
$DIMTIH
 70
     1
  9
$DIMTOH
 70
     1
  9
$DIMSE1
 70
     0
  9
$DIMSE2
 70
     0
  9
$DIMTAD
 70
     0
  9
$DIMZIN
 70
     0
  9
$DIMBLK
  1

  9
$LUNITS
 70
     2
  9
$LUPREC
 70
     4
  9
$AXISMODE
 70
     0
  9
$AXISUNIT
 10
0.0
 20
0.0
  9
$SKETCHINC
 40
0.1
  9
$FILLETRAD
 40
0.0
  9
$AUNITS
 70
     0
  9
$AUPREC
 70
     0
  9
$MENU
  1
ACAD
  9
$ELEVATION
 40
0.0
  9
$THICKNESS
 40
0.0
  9
$VIEWDIR
 10
0.0
 20
0.0
 30
1.0
  9
$LIMCHECK
 70
     0
  9
$BLIPMODE
 70
     1
  9
$CHAMFERA
 40
0.0
  9
$CHAMFERB
 40
0.0
  9
$FASTZOOM
 70
     1
  9
$SKPOLY
 70
     0
  9
$TDCREATE
 40
0.000000
  9
$TDUPDATE
 40
0.000000
  9
$TDINDWG
 40
0.0
  9
$TDUSRTIMER
 40
0.0
  9
$USRTIMER
 70
     1
  9
$ANGBASE
 50
0.0
  9
$ANGDIR
 70
     0
  9
$PDMODE
 70
     0
  9
$PDSIZE
 40
0.0
  9
$PLINEWID
 40
0.0
  9
$COORDS
 70
     0
  9
$USERI1
 70
     0
  9
$USERI2
 70
     0
  9
$USERI3
 70
     0
  9
$USERI4
 70
     0
  9
$USERI5
 70
     0
  9
$USERR1
 40
0.0
  9
$USERR2
 40
0.0
  9
$USERR3
 40
0.0
  9
$USERR4
 40
0.0
  9
$USERR5
 40
0.0
  0
ENDSEC
  0
SECTION
  2
TABLES
  0
TABLE
  2
LTYPE
 70
     9
  0
LTYPE
  2
CONTINUOUS
 70
    64
  3
Solid line
 72
    65
 73
     0
 40
0.0
  0
LTYPE
  2
DASHED
 70
    64
  3
__ __ __ __ __ __ __ __ __ __ __ __ __ __ __
 72
    65
 73
     2
 40
0.75
 49
0.5
 49
-0.25
  0
LTYPE
  2
HIDDEN
 70
    64
  3
_ _ _ _ _ _ _ _ _ _ _ _ _ _ _ _ _ _ _ _ _ _ _
 72
    65
 73
     2
 40
0.375
 49
0.25
 49
-0.125
  0
LTYPE
  2
DOT
 70
    64
  3
...............................................
 72
    65
 73
     2
 40
0.25
 49
0.0
 49
-0.25
  0
LTYPE
  2
DASHDOT
 70
    64
  3
__ . __ . __ . __ . __ . __ . __ . __ . __ . __
 72
    65
 73
     4
 40
1.0
 49
0.5
 49
-0.25
 49
0.0
 49
-0.25
  0
LTYPE
  2
DIVIDE
 70
    64
  3
__ . . __ . . __ . . __ . . __ . . __ . . __
 72
    65
 73
     6
 40
1.25
 49
0.5
 49
-0.25
 49
0.0
 49
-0.25
 49
0.0
 49
-0.25
  0
LTYPE
  2
CENTER
 70
    64
  3
____ _ ____ _ ____ _ ____ _ ____ _ ____ _ ____ 
 72
    65
 73
     4
 40
2.0
 49
1.25
 49
-0.25
 49
0.25
 49
-0.25
  0
LTYPE
  2
PHANTOM
 70
    64
  3
______  __  __  ______  __  __  ______  __  __ 
 72
    65
 73
     6
 40
2.5
 49
1.25
 49
-0.25
 49
0.25
 49
-0.25
 49
0.25
 49
-0.25
  0
LTYPE
  2
BORDER
 70
    64
  3
__ __ . __ __ . __ __ . __ __ . __ __ . __ __ .
 72
    65
 73
     6
 40
1.75
 49
0.5
 49
-0.25
 49
0.5
 49
-0.25
 49
0.0
 49
-0.25
  0
ENDTAB
  0
TABLE
  2
LAYER
 70
    16
  0
LAYER
  2
CSLAYER1
 70
    64
 62
     7
  6
CONTINUOUS
  0
LAYER
  2
CSLAYER2
 70
    64
 62
     7
  6
CONTINUOUS
  0
LAYER
  2
CSLAYER3
 70
    64
 62
     7
  6
CONTINUOUS
  0
LAYER
  2
CSLAYER4
 70
    64
 62
     7
  6
CONTINUOUS
  0
LAYER
  2
CSLAYER5
 70
    64
 62
     7
  6
CONTINUOUS
  0
LAYER
  2
CSLAYER6
 70
    64
 62
     7
  6
CONTINUOUS
  0
LAYER
  2
CSLAYER7
 70
    64
 62
     7
  6
CONTINUOUS
  0
LAYER
  2
CSLAYER8
 70
    64
 62
     7
  6
CONTINUOUS
  0
LAYER
  2
CSLAYER9
 70
    64
 62
     7
  6
CONTINUOUS
  0
LAYER
  2
CSLAYER10
 70
    64
 62
     7
  6
CONTINUOUS
  0
LAYER
  2
CSLAYER11
 70
    64
 62
     7
  6
CONTINUOUS
  0
LAYER
  2
CSLAYER12
 70
    64
 62
     7
  6
CONTINUOUS
  0
LAYER
  2
CSLAYER13
 70
    64
 62
     7
  6
CONTINUOUS
  0
LAYER
  2
CSLAYER14
 70
    64
 62
     7
  6
CONTINUOUS
  0
LAYER
  2
CSLAYER15
 70
    64
 62
     7
  6
CONTINUOUS
  0
LAYER
  2
CSLAYER16
 70
    64
 62
     7
  6
CONTINUOUS
  0
ENDTAB
  0
TABLE
  2
STYLE
 70
     1
  0
STYLE
  2
SX_FONT
 70
     0
 40
1.0
 41
1.0
 50
0.0
 71
     0
 42
1.0
  3
monotxt
  4
bigfont
  0
ENDTAB
  0
TABLE
  2
VIEW
 70
     0
  0
ENDTAB
  0
ENDSEC
  0
SECTION
  2
BLOCKS
  0
BLOCK
  8
CSLAYER1
  2
*D0000
 70
    65
 10
0.0
 20
0.0
 30
0.0
  0
LINE
  8
CSLAYER1
  6
CONTINUOUS
 62
     7
 10
83.240723
 20
217.723145
 11
83.240723
 21
223.723145
  0
LINE
  8
CSLAYER1
  6
CONTINUOUS
 62
     7
 10
98.240723
 20
217.723145
 11
98.240723
 21
223.723145
  0
LINE
  8
CSLAYER1
  6
CONTINUOUS
 62
     7
 10
83.240723
 20
222.723145
 11
98.240723
 21
222.723145
  0
LINE
  8
CSLAYER1
  6
CONTINUOUS
 62
     7
 10
83.240723
 20
222.723145
 11
87.104426
 21
223.758421
  0
LINE
  8
CSLAYER1
  6
CONTINUOUS
 62
     7
 10
83.240723
 20
222.723145
 11
87.104426
 21
221.687868
  0
LINE
  8
CSLAYER1
  6
CONTINUOUS
 62
     7
 10
98.240723
 20
222.723145
 11
94.377019
 21
223.758421
  0
LINE
  8
CSLAYER1
  6
CONTINUOUS
 62
     7
 10
98.240723
 20
222.723145
 11
94.377019
 21
221.687868
  0
TEXT
  8
CSLAYER1
 62
     7
 10
87.740723
 20
223.723145
 40
4.000000
 41
0.900000
  1
15
 50
0.000000
 51
0.000000
  7
SX_FONT
 72
     5
 11
93.740723
 21
223.723145
  0
ENDBLK
  8
0
  0
BLOCK
  8
CSLAYER1
  2
*D0001
 70
    65
 10
0.0
 20
0.0
 30
0.0
  0
LINE
  8
CSLAYER1
  6
CONTINUOUS
 62
     7
 10
103.544922
 20
122.601074
 11
109.544922
 21
122.601074
  0
LINE
  8
CSLAYER1
  6
CONTINUOUS
 62
     7
 10
103.544922
 20
212.601074
 11
109.544922
 21
212.601074
  0
LINE
  8
CSLAYER1
  6
CONTINUOUS
 62
     7
 10
108.544922
 20
122.601074
 11
108.544922
 21
212.601074
  0
LINE
  8
CSLAYER1
  6
CONTINUOUS
 62
     7
 10
108.544922
 20
122.601074
 11
107.509646
 21
126.464778
  0
LINE
  8
CSLAYER1
  6
CONTINUOUS
 62
     7
 10
108.544922
 20
122.601074
 11
109.580198
 21
126.464778
  0
LINE
  8
CSLAYER1
  6
CONTINUOUS
 62
     7
 10
108.544922
 20
212.601074
 11
107.509646
 21
208.737371
  0
LINE
  8
CSLAYER1
  6
CONTINUOUS
 62
     7
 10
108.544922
 20
212.601074
 11
109.580198
 21
208.737371
  0
TEXT
  8
CSLAYER1
 62
     7
 10
113.733398
 20
164.132324
 40
4.000000
 41
0.900000
  1
90
 50
90.000000
 51
0.000000
  7
SX_FONT
 72
     5
 11
113.733398
 21
170.132324
  0
ENDBLK
  8
0
  0
ENDSEC
  0
SECTION
  2
ENTITIES
  0
LINE
  8
CSLAYER2
  6
CONTINUOUS
 62
     7
 10
83.240723
 20
122.601074
 11
83.240723
 21
168.101074
  0
LINE
  8
CSLAYER2
  6
CONTINUOUS
 62
     7
 10
98.240723
 20
212.601074
 11
98.240723
 21
122.601074
  0
LINE
  8
CSLAYER2
  6
CONTINUOUS
 62
     7
 10
98.240723
 20
122.601074
 11
83.240723
 21
122.601074
  0
LINE
  8
CSLAYER2
  6
CONTINUOUS
 62
     7
 10
98.240723
 20
122.601074
 11
83.240723
 21
122.601074
  0
LINE
  8
CSLAYER2
  6
CONTINUOUS
 62
     7
 10
98.240723
 20
122.601074
 11
83.240723
 21
122.601074
  0
ARC
  8
CSLAYER2
  6
CONTINUOUS
 62
     7
 10
81.169895
 20
194.390983
 40
4.000000
 50
-19.393622
 51
40.636778
  0
ARC
  8
CSLAYER2
  6
CONTINUOUS
 62
     7
 10
87.240723
 20
199.601074
 40
4.000000
 50
90.000000
 51
220.636778
  0
ARC
  8
CSLAYER2
  6
CONTINUOUS
 62
     7
 10
87.240723
 20
199.601074
 40
4.000000
 50
90.000000
 51
180.000000
  0
ARC
  8
CSLAYER2
  6
CONTINUOUS
 62
     7
 10
81.266720
 20
171.580056
 40
4.000000
 50
-60.429072
 51
15.364476
  0
ARC
  8
CSLAYER2
  6
CONTINUOUS
 62
     7
 10
113.240723
 20
183.101074
 40
30.000000
 50
160.606378
 51
200.408199
  0
LINE
  8
CSLAYER2
  6
CONTINUOUS
 62
     7
 10
92.240723
 20
212.601074
 11
98.240723
 21
212.601074
  0
ARC
  8
CSLAYER2
  6
CONTINUOUS
 62
     7
 10
87.240723
 20
208.601074
 40
3.000000
 50
270.000000
 51
360.000000
  0
LINE
  8
CSLAYER2
  6
CONTINUOUS
 62
     7
 10
87.240723
 20
205.601074
 11
87.240723
 21
203.601074
  0
LINE
  8
CSLAYER2
  6
CONTINUOUS
 62
     7
 10
92.240723
 20
212.601074
 11
92.240723
 21
208.601074
  0
LINE
  8
CSLAYER5
  6
CONTINUOUS
 62
     7
 10
90.240723
 20
208.601074
 11
92.240723
 21
208.601074
  0
TEXT
  8
CSLAYER1
 62
     7
 10
83.347862
 20
62.129341
 40
10.000000
 41
0.630000
  1
FM-3003
 50
0.000000
 51
0.000000
  7
SX_FONT
 72
     5
 11
125.347862
 21
62.129341
  0
DIMENSION
  8
CSLAYER1
 62
     7
  2
*D0000
 10
98.240723
 20
222.723145
 11
90.740723
 21
223.723145
 13
83.240723
 23
216.723145
 14
98.240723
 24
216.723145
 70
1
  0
DIMENSION
  8
CSLAYER1
 62
     7
  2
*D0001
 10
108.544922
 20
212.601074
 11
113.733398
 21
167.132324
 13
102.544922
 23
122.601074
 14
102.544922
 24
212.601074
 50
90.000000
 70
1
  0
TEXT
  8
CSLAYER1
 62
     7
 10
139.731155
 20
62.449730
 40
10.000000
 41
0.642857
  1
15x90
 50
0.000000
 51
0.000000
  7
SX_FONT
 72
     5
 11
169.731155
 21
62.449730
  0
TEXT
  8
CSLAYER1
 62
     7
 10
84.251450
 20
50.873020
 40
5.000000
 41
0.612766
  1
カタログ Vol. 1  P76
 50
0.000000
 51
0.000000
  7
SX_FONT
 72
     5
 11
132.251450
 21
50.873020
  0
TEXT
  8
CSLAYER1
 62
     7
 10
84.444739
 20
42.391055
 40
4.960742
 41
0.729057
  1
ホ%%dケットカタロク゛ Vol. 1 P51
 50
0.000000
 51
0.000000
  7
SX_FONT
 72
     5
 11
159.189096
 21
42.391055
  0
ENDSEC
  0
EOF
