  0
SECTION
  2
HEADER
  9
$ACADVER
  1
AC1006
  9
$INSBASE
 10
103.060588
 20
134.550374
 30
0.0
  9
$EXTMIN
 10
103.060588
 20
134.550374
  9
$EXTMAX
 10
313.060588
 20
431.550374
  9
$LIMMIN
 10
103.060588
 20
134.550374
  9
$LIMMAX
 10
313.060588
 20
431.550374
  9
$VIEWCTR
 10
208.060588
 20
283.050374
  9
$VIEWSIZE
 40
297.000000
  9
$SNAPMODE
 70
     0
  9
$SNAPUNIT
 10
1.0
 20
1.0
  9
$SNAPBASE
 10
0.0
 20
0.0
  9
$SNAPANG
 50
0.0
  9
$SNAPSTYLE
 70
     0
  9
$SNAPISOPAIR
 70
     0
  9
$GRIDMODE
 70
     0
  9
$GRIDUNIT
 10
0.0
 20
0.0
  9
$ORTHOMODE
 70
     0
  9
$REGENMODE
 70
     1
  9
$FILLMODE
 70
     1
  9
$QTEXTMODE
 70
     0
  9
$DRAGMODE
 70
     2
  9
$LTSCALE
 40
15.000000
  9
$OSMODE
 70
     0
  9
$ATTMODE
 70
     1
  9
$TEXTSIZE
 40
0.2
  9
$TRACEWID
 40
0.05
  9
$TEXTSTYLE
  7
STANDARD
  9
$CLAYER
  8
CSLAYER3
  9
$CELTYPE
  6
BYLAYER
  9
$CECOLOR
 62
   256
  9
$DIMSCALE
 40
1.0
  9
$DIMASZ
 40
0.18
  9
$DIMEXO
 40
0.0625
  9
$DIMDLI
 40
0.38
  9
$DIMRND
 40
0.0
  9
$DIMDLE
 40
0.0
  9
$DIMEXE
 40
0.18
  9
$DIMTP
 40
0.0
  9
$DIMTM
 40
0.0
  9
$DIMTXT
 40
0.18
  9
$DIMCEN
 40
0.09
  9
$DIMTSZ
 40
0.0
  9
$DIMTOL
 70
     0
  9
$DIMLIM
 70
     0
  9
$DIMTIH
 70
     1
  9
$DIMTOH
 70
     1
  9
$DIMSE1
 70
     0
  9
$DIMSE2
 70
     0
  9
$DIMTAD
 70
     0
  9
$DIMZIN
 70
     0
  9
$DIMBLK
  1

  9
$LUNITS
 70
     2
  9
$LUPREC
 70
     4
  9
$AXISMODE
 70
     0
  9
$AXISUNIT
 10
0.0
 20
0.0
  9
$SKETCHINC
 40
0.1
  9
$FILLETRAD
 40
0.0
  9
$AUNITS
 70
     0
  9
$AUPREC
 70
     0
  9
$MENU
  1
ACAD
  9
$ELEVATION
 40
0.0
  9
$THICKNESS
 40
0.0
  9
$VIEWDIR
 10
0.0
 20
0.0
 30
1.0
  9
$LIMCHECK
 70
     0
  9
$BLIPMODE
 70
     1
  9
$CHAMFERA
 40
0.0
  9
$CHAMFERB
 40
0.0
  9
$FASTZOOM
 70
     1
  9
$SKPOLY
 70
     0
  9
$TDCREATE
 40
0.000000
  9
$TDUPDATE
 40
0.000000
  9
$TDINDWG
 40
0.0
  9
$TDUSRTIMER
 40
0.0
  9
$USRTIMER
 70
     1
  9
$ANGBASE
 50
0.0
  9
$ANGDIR
 70
     0
  9
$PDMODE
 70
     0
  9
$PDSIZE
 40
0.0
  9
$PLINEWID
 40
0.0
  9
$COORDS
 70
     0
  9
$USERI1
 70
     0
  9
$USERI2
 70
     0
  9
$USERI3
 70
     0
  9
$USERI4
 70
     0
  9
$USERI5
 70
     0
  9
$USERR1
 40
0.0
  9
$USERR2
 40
0.0
  9
$USERR3
 40
0.0
  9
$USERR4
 40
0.0
  9
$USERR5
 40
0.0
  0
ENDSEC
  0
SECTION
  2
TABLES
  0
TABLE
  2
LTYPE
 70
     9
  0
LTYPE
  2
CONTINUOUS
 70
    64
  3
Solid line
 72
    65
 73
     0
 40
0.0
  0
LTYPE
  2
DASHED
 70
    64
  3
__ __ __ __ __ __ __ __ __ __ __ __ __ __ __
 72
    65
 73
     2
 40
0.75
 49
0.5
 49
-0.25
  0
LTYPE
  2
HIDDEN
 70
    64
  3
_ _ _ _ _ _ _ _ _ _ _ _ _ _ _ _ _ _ _ _ _ _ _
 72
    65
 73
     2
 40
0.375
 49
0.25
 49
-0.125
  0
LTYPE
  2
DOT
 70
    64
  3
...............................................
 72
    65
 73
     2
 40
0.25
 49
0.0
 49
-0.25
  0
LTYPE
  2
DASHDOT
 70
    64
  3
__ . __ . __ . __ . __ . __ . __ . __ . __ . __
 72
    65
 73
     4
 40
1.0
 49
0.5
 49
-0.25
 49
0.0
 49
-0.25
  0
LTYPE
  2
DIVIDE
 70
    64
  3
__ . . __ . . __ . . __ . . __ . . __ . . __
 72
    65
 73
     6
 40
1.25
 49
0.5
 49
-0.25
 49
0.0
 49
-0.25
 49
0.0
 49
-0.25
  0
LTYPE
  2
CENTER
 70
    64
  3
____ _ ____ _ ____ _ ____ _ ____ _ ____ _ ____ 
 72
    65
 73
     4
 40
2.0
 49
1.25
 49
-0.25
 49
0.25
 49
-0.25
  0
LTYPE
  2
PHANTOM
 70
    64
  3
______  __  __  ______  __  __  ______  __  __ 
 72
    65
 73
     6
 40
2.5
 49
1.25
 49
-0.25
 49
0.25
 49
-0.25
 49
0.25
 49
-0.25
  0
LTYPE
  2
BORDER
 70
    64
  3
__ __ . __ __ . __ __ . __ __ . __ __ . __ __ .
 72
    65
 73
     6
 40
1.75
 49
0.5
 49
-0.25
 49
0.5
 49
-0.25
 49
0.0
 49
-0.25
  0
ENDTAB
  0
TABLE
  2
LAYER
 70
    16
  0
LAYER
  2
CSLAYER1
 70
    64
 62
     7
  6
CONTINUOUS
  0
LAYER
  2
CSLAYER2
 70
    64
 62
     7
  6
CONTINUOUS
  0
LAYER
  2
CSLAYER3
 70
    64
 62
     7
  6
CONTINUOUS
  0
LAYER
  2
CSLAYER4
 70
    64
 62
     7
  6
CONTINUOUS
  0
LAYER
  2
CSLAYER5
 70
    64
 62
     7
  6
CONTINUOUS
  0
LAYER
  2
CSLAYER6
 70
    64
 62
     7
  6
CONTINUOUS
  0
LAYER
  2
CSLAYER7
 70
    64
 62
     7
  6
CONTINUOUS
  0
LAYER
  2
CSLAYER8
 70
    64
 62
     7
  6
CONTINUOUS
  0
LAYER
  2
CSLAYER9
 70
    64
 62
     7
  6
CONTINUOUS
  0
LAYER
  2
CSLAYER10
 70
    64
 62
     7
  6
CONTINUOUS
  0
LAYER
  2
CSLAYER11
 70
    64
 62
     7
  6
CONTINUOUS
  0
LAYER
  2
CSLAYER12
 70
    64
 62
     7
  6
CONTINUOUS
  0
LAYER
  2
CSLAYER13
 70
    64
 62
     7
  6
CONTINUOUS
  0
LAYER
  2
CSLAYER14
 70
    64
 62
     7
  6
CONTINUOUS
  0
LAYER
  2
CSLAYER15
 70
    64
 62
     7
  6
CONTINUOUS
  0
LAYER
  2
CSLAYER16
 70
    64
 62
     7
  6
CONTINUOUS
  0
ENDTAB
  0
TABLE
  2
STYLE
 70
     1
  0
STYLE
  2
SX_FONT
 70
     0
 40
1.0
 41
1.0
 50
0.0
 71
     0
 42
1.0
  3
monotxt
  4
bigfont
  0
ENDTAB
  0
TABLE
  2
VIEW
 70
     0
  0
ENDTAB
  0
ENDSEC
  0
SECTION
  2
BLOCKS
  0
BLOCK
  8
CSLAYER1
  2
*D0000
 70
    65
 10
0.0
 20
0.0
 30
0.0
  0
LINE
  8
CSLAYER1
  6
CONTINUOUS
 62
     7
 10
84.820312
 20
200.655599
 11
84.820312
 21
206.655599
  0
LINE
  8
CSLAYER1
  6
CONTINUOUS
 62
     7
 10
99.820312
 20
200.655599
 11
99.820312
 21
206.655599
  0
LINE
  8
CSLAYER1
  6
CONTINUOUS
 62
     7
 10
84.820312
 20
205.655599
 11
99.820312
 21
205.655599
  0
LINE
  8
CSLAYER1
  6
CONTINUOUS
 62
     7
 10
84.820312
 20
205.655599
 11
88.684016
 21
206.690875
  0
LINE
  8
CSLAYER1
  6
CONTINUOUS
 62
     7
 10
84.820312
 20
205.655599
 11
88.684016
 21
204.620323
  0
LINE
  8
CSLAYER1
  6
CONTINUOUS
 62
     7
 10
99.820312
 20
205.655599
 11
95.956609
 21
206.690875
  0
LINE
  8
CSLAYER1
  6
CONTINUOUS
 62
     7
 10
99.820312
 20
205.655599
 11
95.956609
 21
204.620323
  0
TEXT
  8
CSLAYER1
 62
     7
 10
89.320313
 20
206.655594
 40
4.000000
 41
0.900000
  1
15
 50
0.000000
 51
0.000000
  7
SX_FONT
 72
     5
 11
95.320313
 21
206.655594
  0
ENDBLK
  8
0
  0
BLOCK
  8
CSLAYER1
  2
*D0001
 70
    65
 10
0.0
 20
0.0
 30
0.0
  0
LINE
  8
CSLAYER1
  6
CONTINUOUS
 62
     7
 10
104.850545
 20
135.687500
 11
110.850545
 21
135.687500
  0
LINE
  8
CSLAYER1
  6
CONTINUOUS
 62
     7
 10
104.850545
 20
195.687500
 11
110.850545
 21
195.687500
  0
LINE
  8
CSLAYER1
  6
CONTINUOUS
 62
     7
 10
109.850545
 20
135.687500
 11
109.850545
 21
195.687500
  0
LINE
  8
CSLAYER1
  6
CONTINUOUS
 62
     7
 10
109.850545
 20
135.687500
 11
108.815269
 21
139.551203
  0
LINE
  8
CSLAYER1
  6
CONTINUOUS
 62
     7
 10
109.850545
 20
135.687500
 11
110.885821
 21
139.551203
  0
LINE
  8
CSLAYER1
  6
CONTINUOUS
 62
     7
 10
109.850545
 20
195.687500
 11
108.815269
 21
191.823797
  0
LINE
  8
CSLAYER1
  6
CONTINUOUS
 62
     7
 10
109.850545
 20
195.687500
 11
110.885821
 21
191.823797
  0
TEXT
  8
CSLAYER1
 62
     7
 10
115.148239
 20
162.682129
 40
4.000000
 41
0.900000
  1
60
 50
90.000000
 51
0.000000
  7
SX_FONT
 72
     5
 11
115.148239
 21
168.682129
  0
ENDBLK
  8
0
  0
ENDSEC
  0
SECTION
  2
ENTITIES
  0
LINE
  8
CSLAYER2
  6
CONTINUOUS
 62
     7
 10
99.820312
 20
135.687500
 11
84.820312
 21
135.687500
  0
LINE
  8
CSLAYER2
  6
CONTINUOUS
 62
     7
 10
99.820312
 20
135.687500
 11
84.820312
 21
135.687500
  0
LINE
  8
CSLAYER2
  6
CONTINUOUS
 62
     7
 10
93.820312
 20
195.687500
 11
99.820312
 21
195.687500
  0
LINE
  8
CSLAYER2
  6
CONTINUOUS
 62
     7
 10
99.820312
 20
135.687500
 11
84.820312
 21
135.687500
  0
ARC
  8
CSLAYER2
  6
CONTINUOUS
 62
     7
 10
114.820312
 20
166.187500
 40
30.000000
 50
160.606378
 51
200.408199
  0
LINE
  8
CSLAYER2
  6
CONTINUOUS
 62
     7
 10
84.820312
 20
135.687500
 11
84.820312
 21
151.187500
  0
ARC
  8
CSLAYER2
  6
CONTINUOUS
 62
     7
 10
82.846310
 20
154.666482
 40
4.000000
 50
-60.429072
 51
15.364476
  0
LINE
  8
CSLAYER5
  6
CONTINUOUS
 62
     7
 10
91.820312
 20
191.687500
 11
93.820312
 21
191.687500
  0
LINE
  8
CSLAYER2
  6
CONTINUOUS
 62
     7
 10
93.820312
 20
195.687500
 11
93.820312
 21
191.687500
  0
ARC
  8
CSLAYER2
  6
CONTINUOUS
 62
     7
 10
88.820312
 20
182.687500
 40
4.000000
 50
90.000000
 51
180.000000
  0
ARC
  8
CSLAYER2
  6
CONTINUOUS
 62
     7
 10
88.820312
 20
182.687500
 40
4.000000
 50
90.000000
 51
220.636778
  0
LINE
  8
CSLAYER2
  6
CONTINUOUS
 62
     7
 10
88.820312
 20
188.687500
 11
88.820312
 21
186.687500
  0
ARC
  8
CSLAYER2
  6
CONTINUOUS
 62
     7
 10
82.749485
 20
177.477409
 40
4.000000
 50
-19.393622
 51
40.636778
  0
ARC
  8
CSLAYER2
  6
CONTINUOUS
 62
     7
 10
88.820312
 20
191.687500
 40
3.000000
 50
270.000000
 51
360.000000
  0
LINE
  8
CSLAYER2
  6
CONTINUOUS
 62
     7
 10
99.820312
 20
195.687500
 11
99.820312
 21
135.687500
  0
TEXT
  8
CSLAYER1
 62
     7
 10
84.818359
 20
75.209061
 40
10.000000
 41
0.630000
  1
FM-3001
 50
0.000000
 51
0.000000
  7
SX_FONT
 72
     5
 11
126.818359
 21
75.209061
  0
DIMENSION
  8
CSLAYER1
 62
     7
  2
*D0000
 10
99.820312
 20
205.655599
 11
92.320313
 21
206.655594
 13
84.820312
 23
199.655599
 14
99.820312
 24
199.655599
 70
1
  0
DIMENSION
  8
CSLAYER1
 62
     7
  2
*D0001
 10
109.850545
 20
195.687500
 11
115.148239
 21
165.682129
 13
103.850545
 23
135.687500
 14
103.850545
 24
195.687500
 50
90.000000
 70
1
  0
TEXT
  8
CSLAYER1
 62
     7
 10
140.893417
 20
75.771828
 40
10.000000
 41
0.642857
  1
15x60
 50
0.000000
 51
0.000000
  7
SX_FONT
 72
     5
 11
170.893417
 21
75.771828
  0
TEXT
  8
CSLAYER1
 62
     7
 10
85.576408
 20
62.241768
 40
5.000000
 41
0.612766
  1
カタログ Vol. 1  P76
 50
0.000000
 51
0.000000
  7
SX_FONT
 72
     5
 11
133.576408
 21
62.241768
  0
TEXT
  8
CSLAYER1
 62
     7
 10
85.445158
 20
54.019591
 40
4.960742
 41
0.729057
  1
ホ%%dケットカタロク゛ Vol. 1 P51
 50
0.000000
 51
0.000000
  7
SX_FONT
 72
     5
 11
160.189516
 21
54.019591
  0
ENDSEC
  0
EOF
