  0
SECTION
  2
HEADER
  9
$ACADVER
  1
AC1006
  9
$INSBASE
 10
30.382528
 20
91.471517
 30
0.0
  9
$EXTMIN
 10
30.382528
 20
91.471517
  9
$EXTMAX
 10
240.382528
 20
388.471517
  9
$LIMMIN
 10
30.382528
 20
91.471517
  9
$LIMMAX
 10
240.382528
 20
388.471517
  9
$VIEWCTR
 10
135.382528
 20
239.971517
  9
$VIEWSIZE
 40
297.000000
  9
$SNAPMODE
 70
     0
  9
$SNAPUNIT
 10
1.0
 20
1.0
  9
$SNAPBASE
 10
0.0
 20
0.0
  9
$SNAPANG
 50
0.0
  9
$SNAPSTYLE
 70
     0
  9
$SNAPISOPAIR
 70
     0
  9
$GRIDMODE
 70
     0
  9
$GRIDUNIT
 10
0.0
 20
0.0
  9
$ORTHOMODE
 70
     0
  9
$REGENMODE
 70
     1
  9
$FILLMODE
 70
     1
  9
$QTEXTMODE
 70
     0
  9
$DRAGMODE
 70
     2
  9
$LTSCALE
 40
15.000000
  9
$OSMODE
 70
     0
  9
$ATTMODE
 70
     1
  9
$TEXTSIZE
 40
0.2
  9
$TRACEWID
 40
0.05
  9
$TEXTSTYLE
  7
STANDARD
  9
$CLAYER
  8
CSLAYER3
  9
$CELTYPE
  6
BYLAYER
  9
$CECOLOR
 62
   256
  9
$DIMSCALE
 40
1.0
  9
$DIMASZ
 40
0.18
  9
$DIMEXO
 40
0.0625
  9
$DIMDLI
 40
0.38
  9
$DIMRND
 40
0.0
  9
$DIMDLE
 40
0.0
  9
$DIMEXE
 40
0.18
  9
$DIMTP
 40
0.0
  9
$DIMTM
 40
0.0
  9
$DIMTXT
 40
0.18
  9
$DIMCEN
 40
0.09
  9
$DIMTSZ
 40
0.0
  9
$DIMTOL
 70
     0
  9
$DIMLIM
 70
     0
  9
$DIMTIH
 70
     1
  9
$DIMTOH
 70
     1
  9
$DIMSE1
 70
     0
  9
$DIMSE2
 70
     0
  9
$DIMTAD
 70
     0
  9
$DIMZIN
 70
     0
  9
$DIMBLK
  1

  9
$LUNITS
 70
     2
  9
$LUPREC
 70
     4
  9
$AXISMODE
 70
     0
  9
$AXISUNIT
 10
0.0
 20
0.0
  9
$SKETCHINC
 40
0.1
  9
$FILLETRAD
 40
0.0
  9
$AUNITS
 70
     0
  9
$AUPREC
 70
     0
  9
$MENU
  1
ACAD
  9
$ELEVATION
 40
0.0
  9
$THICKNESS
 40
0.0
  9
$VIEWDIR
 10
0.0
 20
0.0
 30
1.0
  9
$LIMCHECK
 70
     0
  9
$BLIPMODE
 70
     1
  9
$CHAMFERA
 40
0.0
  9
$CHAMFERB
 40
0.0
  9
$FASTZOOM
 70
     1
  9
$SKPOLY
 70
     0
  9
$TDCREATE
 40
0.000000
  9
$TDUPDATE
 40
0.000000
  9
$TDINDWG
 40
0.0
  9
$TDUSRTIMER
 40
0.0
  9
$USRTIMER
 70
     1
  9
$ANGBASE
 50
0.0
  9
$ANGDIR
 70
     0
  9
$PDMODE
 70
     0
  9
$PDSIZE
 40
0.0
  9
$PLINEWID
 40
0.0
  9
$COORDS
 70
     0
  9
$USERI1
 70
     0
  9
$USERI2
 70
     0
  9
$USERI3
 70
     0
  9
$USERI4
 70
     0
  9
$USERI5
 70
     0
  9
$USERR1
 40
0.0
  9
$USERR2
 40
0.0
  9
$USERR3
 40
0.0
  9
$USERR4
 40
0.0
  9
$USERR5
 40
0.0
  0
ENDSEC
  0
SECTION
  2
TABLES
  0
TABLE
  2
LTYPE
 70
     9
  0
LTYPE
  2
CONTINUOUS
 70
    64
  3
Solid line
 72
    65
 73
     0
 40
0.0
  0
LTYPE
  2
DASHED
 70
    64
  3
__ __ __ __ __ __ __ __ __ __ __ __ __ __ __
 72
    65
 73
     2
 40
0.75
 49
0.5
 49
-0.25
  0
LTYPE
  2
HIDDEN
 70
    64
  3
_ _ _ _ _ _ _ _ _ _ _ _ _ _ _ _ _ _ _ _ _ _ _
 72
    65
 73
     2
 40
0.375
 49
0.25
 49
-0.125
  0
LTYPE
  2
DOT
 70
    64
  3
...............................................
 72
    65
 73
     2
 40
0.25
 49
0.0
 49
-0.25
  0
LTYPE
  2
DASHDOT
 70
    64
  3
__ . __ . __ . __ . __ . __ . __ . __ . __ . __
 72
    65
 73
     4
 40
1.0
 49
0.5
 49
-0.25
 49
0.0
 49
-0.25
  0
LTYPE
  2
DIVIDE
 70
    64
  3
__ . . __ . . __ . . __ . . __ . . __ . . __
 72
    65
 73
     6
 40
1.25
 49
0.5
 49
-0.25
 49
0.0
 49
-0.25
 49
0.0
 49
-0.25
  0
LTYPE
  2
CENTER
 70
    64
  3
____ _ ____ _ ____ _ ____ _ ____ _ ____ _ ____ 
 72
    65
 73
     4
 40
2.0
 49
1.25
 49
-0.25
 49
0.25
 49
-0.25
  0
LTYPE
  2
PHANTOM
 70
    64
  3
______  __  __  ______  __  __  ______  __  __ 
 72
    65
 73
     6
 40
2.5
 49
1.25
 49
-0.25
 49
0.25
 49
-0.25
 49
0.25
 49
-0.25
  0
LTYPE
  2
BORDER
 70
    64
  3
__ __ . __ __ . __ __ . __ __ . __ __ . __ __ .
 72
    65
 73
     6
 40
1.75
 49
0.5
 49
-0.25
 49
0.5
 49
-0.25
 49
0.0
 49
-0.25
  0
ENDTAB
  0
TABLE
  2
LAYER
 70
    16
  0
LAYER
  2
CSLAYER1
 70
    64
 62
     7
  6
CONTINUOUS
  0
LAYER
  2
CSLAYER2
 70
    64
 62
     7
  6
CONTINUOUS
  0
LAYER
  2
CSLAYER3
 70
    64
 62
     7
  6
CONTINUOUS
  0
LAYER
  2
CSLAYER4
 70
    64
 62
     7
  6
CONTINUOUS
  0
LAYER
  2
CSLAYER5
 70
    64
 62
     7
  6
CONTINUOUS
  0
LAYER
  2
CSLAYER6
 70
    64
 62
     7
  6
CONTINUOUS
  0
LAYER
  2
CSLAYER7
 70
    64
 62
     7
  6
CONTINUOUS
  0
LAYER
  2
CSLAYER8
 70
    64
 62
     7
  6
CONTINUOUS
  0
LAYER
  2
CSLAYER9
 70
    64
 62
     7
  6
CONTINUOUS
  0
LAYER
  2
CSLAYER10
 70
    64
 62
     7
  6
CONTINUOUS
  0
LAYER
  2
CSLAYER11
 70
    64
 62
     7
  6
CONTINUOUS
  0
LAYER
  2
CSLAYER12
 70
    64
 62
     7
  6
CONTINUOUS
  0
LAYER
  2
CSLAYER13
 70
    64
 62
     7
  6
CONTINUOUS
  0
LAYER
  2
CSLAYER14
 70
    64
 62
     7
  6
CONTINUOUS
  0
LAYER
  2
CSLAYER15
 70
    64
 62
     7
  6
CONTINUOUS
  0
LAYER
  2
CSLAYER16
 70
    64
 62
     7
  6
CONTINUOUS
  0
ENDTAB
  0
TABLE
  2
STYLE
 70
     1
  0
STYLE
  2
SX_FONT
 70
     0
 40
1.0
 41
1.0
 50
0.0
 71
     0
 42
1.0
  3
monotxt
  4
bigfont
  0
ENDTAB
  0
TABLE
  2
VIEW
 70
     0
  0
ENDTAB
  0
ENDSEC
  0
SECTION
  2
BLOCKS
  0
BLOCK
  8
CSLAYER1
  2
*D0000
 70
    65
 10
0.0
 20
0.0
 30
0.0
  0
LINE
  8
CSLAYER1
  6
CONTINUOUS
 62
     7
 10
51.225207
 20
238.400960
 11
51.225207
 21
244.400960
  0
LINE
  8
CSLAYER1
  6
CONTINUOUS
 62
     7
 10
176.262292
 20
238.400960
 11
176.262292
 21
244.400960
  0
LINE
  8
CSLAYER1
  6
CONTINUOUS
 62
     7
 10
51.225207
 20
243.400960
 11
176.262292
 21
243.400960
  0
LINE
  8
CSLAYER1
  6
CONTINUOUS
 62
     7
 10
51.225207
 20
243.400960
 11
55.088910
 21
244.436236
  0
LINE
  8
CSLAYER1
  6
CONTINUOUS
 62
     7
 10
51.225207
 20
243.400960
 11
55.088910
 21
242.365684
  0
LINE
  8
CSLAYER1
  6
CONTINUOUS
 62
     7
 10
176.262292
 20
243.400960
 11
172.398589
 21
244.436236
  0
LINE
  8
CSLAYER1
  6
CONTINUOUS
 62
     7
 10
176.262292
 20
243.400960
 11
172.398589
 21
242.365684
  0
TEXT
  8
CSLAYER1
 62
     7
 10
109.243752
 20
244.400955
 40
4.000000
 41
0.843750
  1
125
 50
0.000000
 51
0.000000
  7
SX_FONT
 72
     5
 11
118.243752
 21
244.400955
  0
ENDBLK
  8
0
  0
BLOCK
  8
CSLAYER1
  2
*D0001
 70
    65
 10
0.0
 20
0.0
 30
0.0
  0
LINE
  8
CSLAYER1
  6
CONTINUOUS
 62
     7
 10
45.611328
 20
108.004751
 11
39.611328
 21
108.004751
  0
LINE
  8
CSLAYER1
  6
CONTINUOUS
 62
     7
 10
45.611328
 20
232.965900
 11
39.611328
 21
232.965900
  0
LINE
  8
CSLAYER1
  6
CONTINUOUS
 62
     7
 10
40.611328
 20
108.004751
 11
40.611328
 21
232.965900
  0
LINE
  8
CSLAYER1
  6
CONTINUOUS
 62
     7
 10
40.611328
 20
108.004751
 11
39.576052
 21
111.868454
  0
LINE
  8
CSLAYER1
  6
CONTINUOUS
 62
     7
 10
40.611328
 20
108.004751
 11
41.646604
 21
111.868454
  0
LINE
  8
CSLAYER1
  6
CONTINUOUS
 62
     7
 10
40.611328
 20
232.965900
 11
39.576052
 21
229.102197
  0
LINE
  8
CSLAYER1
  6
CONTINUOUS
 62
     7
 10
40.611328
 20
232.965900
 11
41.646604
 21
229.102197
  0
TEXT
  8
CSLAYER1
 62
     7
 10
39.611328
 20
165.985321
 40
4.000000
 41
0.843750
  1
125
 50
90.000000
 51
0.000000
  7
SX_FONT
 72
     5
 11
39.611328
 21
174.985321
  0
ENDBLK
  8
0
  0
ENDSEC
  0
SECTION
  2
ENTITIES
  0
LINE
  8
CSLAYER1
  6
CONTINUOUS
 62
     7
 10
176.268941
 20
232.965900
 11
176.262292
 21
213.965901
  0
LINE
  8
CSLAYER1
  6
CONTINUOUS
 62
     7
 10
176.262292
 20
213.965901
 11
158.262293
 21
213.972200
  0
LINE
  8
CSLAYER1
  6
CONTINUOUS
 62
     7
 10
51.225207
 20
108.009650
 11
65.225206
 21
108.004751
  0
LINE
  8
CSLAYER1
  6
CONTINUOUS
 62
     7
 10
65.225206
 20
108.004751
 11
65.231155
 21
125.004750
  0
LINE
  8
CSLAYER1
  6
CONTINUOUS
 62
     7
 10
65.231155
 20
125.004750
 11
79.231154
 21
124.999851
  0
ARC
  8
CSLAYER1
  6
CONTINUOUS
 62
     7
 10
108.456338
 20
218.372969
 40
50.000000
 50
279.557631
 51
354.950557
  0
ARC
  8
CSLAYER1
  6
CONTINUOUS
 62
     7
 10
124.230098
 20
124.691655
 40
45.000000
 50
99.557631
 51
179.607591
  0
LINE
  8
CSLAYER1
  6
CONTINUOUS
 62
     7
 10
176.268941
 20
232.965900
 11
152.726613
 21
232.974138
  0
LINE
  8
CSLAYER1
  6
CONTINUOUS
 62
     7
 10
152.726613
 20
232.974138
 11
51.235044
 21
136.122143
  0
LINE
  8
CSLAYER1
  6
CONTINUOUS
 62
     7
 10
51.235044
 20
136.122143
 11
51.225207
 21
108.009650
  0
DIMENSION
  8
CSLAYER1
 62
     7
  2
*D0000
 10
176.262292
 20
243.400960
 11
113.743752
 21
244.400955
 13
51.225207
 23
237.400960
 14
176.262292
 24
237.400960
 70
1
  0
TEXT
  8
CSLAYER1
 62
     7
 10
50.070915
 20
63.982880
 40
12.000000
 41
0.700000
  1
FM-2210
 50
0.000000
 51
0.000000
  7
SX_FONT
 72
     5
 11
106.070915
 21
63.982880
  0
DIMENSION
  8
CSLAYER1
 62
     7
  2
*D0001
 10
40.611328
 20
232.965900
 11
39.611328
 21
170.485321
 13
46.611328
 23
108.004751
 14
46.611328
 24
232.965900
 50
90.000000
 70
1
  0
TEXT
  8
CSLAYER1
 62
     7
 10
51.139717
 20
50.068513
 40
5.547002
 41
0.589931
  1
カタログ Vol. 1  P75
 50
0.000000
 51
0.000000
  7
SX_FONT
 72
     5
 11
102.406502
 21
50.068513
  0
TEXT
  8
CSLAYER1
 62
     7
 10
115.337830
 20
63.316719
 40
12.000000
 41
0.700000
  1
125x125
 50
0.000000
 51
0.000000
  7
SX_FONT
 72
     5
 11
171.337830
 21
63.316719
  0
TEXT
  8
CSLAYER1
 62
     7
 10
51.354330
 20
38.595015
 40
4.960742
 41
0.729057
  1
ホ%%dケットカタロク゛ Vol. 1 P49
 50
0.000000
 51
0.000000
  7
SX_FONT
 72
     5
 11
126.098688
 21
38.595015
  0
ENDSEC
  0
EOF
