  0
SECTION
  2
HEADER
  9
$ACADVER
  1
AC1006
  9
$INSBASE
 10
50.271240
 20
219.250732
 30
0.0
  9
$EXTMIN
 10
50.271240
 20
219.250732
  9
$EXTMAX
 10
260.271240
 20
516.250732
  9
$LIMMIN
 10
50.271240
 20
219.250732
  9
$LIMMAX
 10
260.271240
 20
516.250732
  9
$VIEWCTR
 10
155.271240
 20
367.750732
  9
$VIEWSIZE
 40
297.000000
  9
$SNAPMODE
 70
     0
  9
$SNAPUNIT
 10
1.0
 20
1.0
  9
$SNAPBASE
 10
0.0
 20
0.0
  9
$SNAPANG
 50
0.0
  9
$SNAPSTYLE
 70
     0
  9
$SNAPISOPAIR
 70
     0
  9
$GRIDMODE
 70
     0
  9
$GRIDUNIT
 10
0.0
 20
0.0
  9
$ORTHOMODE
 70
     0
  9
$REGENMODE
 70
     1
  9
$FILLMODE
 70
     1
  9
$QTEXTMODE
 70
     0
  9
$DRAGMODE
 70
     2
  9
$LTSCALE
 40
15.000000
  9
$OSMODE
 70
     0
  9
$ATTMODE
 70
     1
  9
$TEXTSIZE
 40
0.2
  9
$TRACEWID
 40
0.05
  9
$TEXTSTYLE
  7
STANDARD
  9
$CLAYER
  8
CSLAYER3
  9
$CELTYPE
  6
BYLAYER
  9
$CECOLOR
 62
   256
  9
$DIMSCALE
 40
1.0
  9
$DIMASZ
 40
0.18
  9
$DIMEXO
 40
0.0625
  9
$DIMDLI
 40
0.38
  9
$DIMRND
 40
0.0
  9
$DIMDLE
 40
0.0
  9
$DIMEXE
 40
0.18
  9
$DIMTP
 40
0.0
  9
$DIMTM
 40
0.0
  9
$DIMTXT
 40
0.18
  9
$DIMCEN
 40
0.09
  9
$DIMTSZ
 40
0.0
  9
$DIMTOL
 70
     0
  9
$DIMLIM
 70
     0
  9
$DIMTIH
 70
     1
  9
$DIMTOH
 70
     1
  9
$DIMSE1
 70
     0
  9
$DIMSE2
 70
     0
  9
$DIMTAD
 70
     0
  9
$DIMZIN
 70
     0
  9
$DIMBLK
  1

  9
$LUNITS
 70
     2
  9
$LUPREC
 70
     4
  9
$AXISMODE
 70
     0
  9
$AXISUNIT
 10
0.0
 20
0.0
  9
$SKETCHINC
 40
0.1
  9
$FILLETRAD
 40
0.0
  9
$AUNITS
 70
     0
  9
$AUPREC
 70
     0
  9
$MENU
  1
ACAD
  9
$ELEVATION
 40
0.0
  9
$THICKNESS
 40
0.0
  9
$VIEWDIR
 10
0.0
 20
0.0
 30
1.0
  9
$LIMCHECK
 70
     0
  9
$BLIPMODE
 70
     1
  9
$CHAMFERA
 40
0.0
  9
$CHAMFERB
 40
0.0
  9
$FASTZOOM
 70
     1
  9
$SKPOLY
 70
     0
  9
$TDCREATE
 40
0.000000
  9
$TDUPDATE
 40
0.000000
  9
$TDINDWG
 40
0.0
  9
$TDUSRTIMER
 40
0.0
  9
$USRTIMER
 70
     1
  9
$ANGBASE
 50
0.0
  9
$ANGDIR
 70
     0
  9
$PDMODE
 70
     0
  9
$PDSIZE
 40
0.0
  9
$PLINEWID
 40
0.0
  9
$COORDS
 70
     0
  9
$USERI1
 70
     0
  9
$USERI2
 70
     0
  9
$USERI3
 70
     0
  9
$USERI4
 70
     0
  9
$USERI5
 70
     0
  9
$USERR1
 40
0.0
  9
$USERR2
 40
0.0
  9
$USERR3
 40
0.0
  9
$USERR4
 40
0.0
  9
$USERR5
 40
0.0
  0
ENDSEC
  0
SECTION
  2
TABLES
  0
TABLE
  2
LTYPE
 70
     9
  0
LTYPE
  2
CONTINUOUS
 70
    64
  3
Solid line
 72
    65
 73
     0
 40
0.0
  0
LTYPE
  2
DASHED
 70
    64
  3
__ __ __ __ __ __ __ __ __ __ __ __ __ __ __
 72
    65
 73
     2
 40
0.75
 49
0.5
 49
-0.25
  0
LTYPE
  2
HIDDEN
 70
    64
  3
_ _ _ _ _ _ _ _ _ _ _ _ _ _ _ _ _ _ _ _ _ _ _
 72
    65
 73
     2
 40
0.375
 49
0.25
 49
-0.125
  0
LTYPE
  2
DOT
 70
    64
  3
...............................................
 72
    65
 73
     2
 40
0.25
 49
0.0
 49
-0.25
  0
LTYPE
  2
DASHDOT
 70
    64
  3
__ . __ . __ . __ . __ . __ . __ . __ . __ . __
 72
    65
 73
     4
 40
1.0
 49
0.5
 49
-0.25
 49
0.0
 49
-0.25
  0
LTYPE
  2
DIVIDE
 70
    64
  3
__ . . __ . . __ . . __ . . __ . . __ . . __
 72
    65
 73
     6
 40
1.25
 49
0.5
 49
-0.25
 49
0.0
 49
-0.25
 49
0.0
 49
-0.25
  0
LTYPE
  2
CENTER
 70
    64
  3
____ _ ____ _ ____ _ ____ _ ____ _ ____ _ ____ 
 72
    65
 73
     4
 40
2.0
 49
1.25
 49
-0.25
 49
0.25
 49
-0.25
  0
LTYPE
  2
PHANTOM
 70
    64
  3
______  __  __  ______  __  __  ______  __  __ 
 72
    65
 73
     6
 40
2.5
 49
1.25
 49
-0.25
 49
0.25
 49
-0.25
 49
0.25
 49
-0.25
  0
LTYPE
  2
BORDER
 70
    64
  3
__ __ . __ __ . __ __ . __ __ . __ __ . __ __ .
 72
    65
 73
     6
 40
1.75
 49
0.5
 49
-0.25
 49
0.5
 49
-0.25
 49
0.0
 49
-0.25
  0
ENDTAB
  0
TABLE
  2
LAYER
 70
    16
  0
LAYER
  2
CSLAYER1
 70
    64
 62
     7
  6
CONTINUOUS
  0
LAYER
  2
CSLAYER2
 70
    64
 62
     7
  6
CONTINUOUS
  0
LAYER
  2
CSLAYER3
 70
    64
 62
     7
  6
CONTINUOUS
  0
LAYER
  2
CSLAYER4
 70
    64
 62
     7
  6
CONTINUOUS
  0
LAYER
  2
CSLAYER5
 70
    64
 62
     7
  6
CONTINUOUS
  0
LAYER
  2
CSLAYER6
 70
    64
 62
     7
  6
CONTINUOUS
  0
LAYER
  2
CSLAYER7
 70
    64
 62
     7
  6
CONTINUOUS
  0
LAYER
  2
CSLAYER8
 70
    64
 62
     7
  6
CONTINUOUS
  0
LAYER
  2
CSLAYER9
 70
    64
 62
     7
  6
CONTINUOUS
  0
LAYER
  2
CSLAYER10
 70
    64
 62
     7
  6
CONTINUOUS
  0
LAYER
  2
CSLAYER11
 70
    64
 62
     7
  6
CONTINUOUS
  0
LAYER
  2
CSLAYER12
 70
    64
 62
     7
  6
CONTINUOUS
  0
LAYER
  2
CSLAYER13
 70
    64
 62
     7
  6
CONTINUOUS
  0
LAYER
  2
CSLAYER14
 70
    64
 62
     7
  6
CONTINUOUS
  0
LAYER
  2
CSLAYER15
 70
    64
 62
     7
  6
CONTINUOUS
  0
LAYER
  2
CSLAYER16
 70
    64
 62
     7
  6
CONTINUOUS
  0
ENDTAB
  0
TABLE
  2
STYLE
 70
     1
  0
STYLE
  2
SX_FONT
 70
     0
 40
1.0
 41
1.0
 50
0.0
 71
     0
 42
1.0
  3
monotxt
  4
bigfont
  0
ENDTAB
  0
TABLE
  2
VIEW
 70
     0
  0
ENDTAB
  0
ENDSEC
  0
SECTION
  2
BLOCKS
  0
BLOCK
  8
CSLAYER1
  2
*D0000
 70
    65
 10
0.0
 20
0.0
 30
0.0
  0
LINE
  8
CSLAYER1
  6
CONTINUOUS
 62
     7
 10
58.532540
 20
221.133124
 11
58.532540
 21
226.165202
  0
LINE
  8
CSLAYER1
  6
CONTINUOUS
 62
     7
 10
158.577930
 20
221.133124
 11
158.577930
 21
226.165202
  0
LINE
  8
CSLAYER1
  6
CONTINUOUS
 62
     7
 10
58.532540
 20
225.165202
 11
158.577930
 21
225.165202
  0
LINE
  8
CSLAYER1
  6
CONTINUOUS
 62
     7
 10
58.532540
 20
225.165202
 11
62.396243
 21
226.200478
  0
LINE
  8
CSLAYER1
  6
CONTINUOUS
 62
     7
 10
58.532540
 20
225.165202
 11
62.396243
 21
224.129926
  0
LINE
  8
CSLAYER1
  6
CONTINUOUS
 62
     7
 10
158.577930
 20
225.165202
 11
154.714227
 21
226.200478
  0
LINE
  8
CSLAYER1
  6
CONTINUOUS
 62
     7
 10
158.577930
 20
225.165202
 11
154.714227
 21
224.129926
  0
TEXT
  8
CSLAYER1
 62
     7
 10
104.055237
 20
226.165207
 40
4.000000
 41
0.843750
  1
100
 50
0.000000
 51
0.000000
  7
SX_FONT
 72
     5
 11
113.055237
 21
226.165207
  0
ENDBLK
  8
0
  0
BLOCK
  8
CSLAYER1
  2
*D0001
 70
    65
 10
0.0
 20
0.0
 30
0.0
  0
LINE
  8
CSLAYER1
  6
CONTINUOUS
 62
     7
 10
52.532540
 20
93.160581
 11
46.564209
 21
93.160581
  0
LINE
  8
CSLAYER1
  6
CONTINUOUS
 62
     7
 10
52.532540
 20
215.133124
 11
46.564209
 21
215.133124
  0
LINE
  8
CSLAYER1
  6
CONTINUOUS
 62
     7
 10
47.564209
 20
93.160581
 11
47.564209
 21
215.133124
  0
LINE
  8
CSLAYER1
  6
CONTINUOUS
 62
     7
 10
47.564209
 20
93.160581
 11
46.528933
 21
97.024284
  0
LINE
  8
CSLAYER1
  6
CONTINUOUS
 62
     7
 10
47.564209
 20
93.160581
 11
48.599485
 21
97.024284
  0
LINE
  8
CSLAYER1
  6
CONTINUOUS
 62
     7
 10
47.564209
 20
215.133124
 11
46.528933
 21
211.269421
  0
LINE
  8
CSLAYER1
  6
CONTINUOUS
 62
     7
 10
47.564209
 20
215.133124
 11
48.599485
 21
211.269421
  0
TEXT
  8
CSLAYER1
 62
     7
 10
46.564209
 20
149.646851
 40
4.000000
 41
0.843750
  1
122
 50
90.000000
 51
0.000000
  7
SX_FONT
 72
     5
 11
46.564209
 21
158.646851
  0
ENDBLK
  8
0
  0
ENDSEC
  0
SECTION
  2
ENTITIES
  0
ARC
  8
CSLAYER2
  6
CONTINUOUS
 62
     7
 10
74.129920
 20
150.129316
 40
40.000000
 50
272.017270
 51
334.539136
  0
ARC
  8
CSLAYER2
  6
CONTINUOUS
 62
     7
 10
56.072337
 20
158.727205
 40
60.000000
 50
334.539136
 51
358.182293
  0
ARC
  8
CSLAYER2
  6
CONTINUOUS
 62
     7
 10
163.018496
 20
155.333203
 40
47.000000
 50
95.427460
 51
178.182293
  0
LINE
  8
CSLAYER2
  6
CONTINUOUS
 62
     7
 10
75.537949
 20
110.154105
 11
75.531475
 21
93.154107
  0
LINE
  8
CSLAYER2
  6
CONTINUOUS
 62
     7
 10
75.531475
 20
93.154107
 11
58.531476
 21
93.160581
  0
LINE
  8
CSLAYER2
  6
CONTINUOUS
 62
     7
 10
58.531476
 20
93.160581
 11
58.538102
 21
110.559569
  0
LINE
  8
CSLAYER2
  6
CONTINUOUS
 62
     7
 10
130.651631
 20
215.133124
 11
158.577930
 21
215.122489
  0
LINE
  8
CSLAYER2
  6
CONTINUOUS
 62
     7
 10
158.577930
 20
215.122489
 11
158.572980
 21
202.122490
  0
LINE
  8
CSLAYER1
  6
CONTINUOUS
 62
     7
 10
130.651631
 20
215.133124
 11
58.538102
 21
110.559569
  0
TEXT
  8
CSLAYER1
 62
     7
 10
59.114052
 20
55.718983
 40
12.000000
 41
0.700000
  1
FM-2208
 50
0.000000
 51
0.000000
  7
SX_FONT
 72
     5
 11
115.114052
 21
55.718983
  0
DIMENSION
  8
CSLAYER1
 62
     7
  2
*D0000
 10
158.577930
 20
225.165202
 11
108.555237
 21
226.165207
 13
58.532540
 23
220.133124
 14
158.577930
 24
220.133124
 70
1
  0
DIMENSION
  8
CSLAYER1
 62
     7
  2
*D0001
 10
47.564209
 20
215.133124
 11
46.564209
 21
154.146851
 13
53.532540
 23
93.160581
 14
53.532540
 24
215.133124
 50
90.000000
 70
1
  0
TEXT
  8
CSLAYER1
 62
     7
 10
60.162392
 20
41.850553
 40
5.547002
 41
0.589931
  1
カタログ Vol. 1  P74
 50
0.000000
 51
0.000000
  7
SX_FONT
 72
     5
 11
111.429176
 21
41.850553
  0
TEXT
  8
CSLAYER1
 62
     7
 10
124.666153
 20
55.769249
 40
12.000000
 41
0.700000
  1
100x122
 50
0.000000
 51
0.000000
  7
SX_FONT
 72
     5
 11
180.666153
 21
55.769249
  0
TEXT
  8
CSLAYER1
 62
     7
 10
60.485289
 20
30.761527
 40
4.960742
 41
0.729057
  1
ホ%%dケットカタロク゛ Vol. 1 P48
 50
0.000000
 51
0.000000
  7
SX_FONT
 72
     5
 11
135.229646
 21
30.761527
  0
ENDSEC
  0
EOF
