  0
SECTION
  2
HEADER
  9
$ACADVER
  1
AC1006
  9
$INSBASE
 10
43.530518
 20
216.731689
 30
0.0
  9
$EXTMIN
 10
43.530518
 20
216.731689
  9
$EXTMAX
 10
253.530518
 20
513.731689
  9
$LIMMIN
 10
43.530518
 20
216.731689
  9
$LIMMAX
 10
253.530518
 20
513.731689
  9
$VIEWCTR
 10
148.530518
 20
365.231689
  9
$VIEWSIZE
 40
297.000000
  9
$SNAPMODE
 70
     0
  9
$SNAPUNIT
 10
1.0
 20
1.0
  9
$SNAPBASE
 10
0.0
 20
0.0
  9
$SNAPANG
 50
0.0
  9
$SNAPSTYLE
 70
     0
  9
$SNAPISOPAIR
 70
     0
  9
$GRIDMODE
 70
     0
  9
$GRIDUNIT
 10
0.0
 20
0.0
  9
$ORTHOMODE
 70
     0
  9
$REGENMODE
 70
     1
  9
$FILLMODE
 70
     1
  9
$QTEXTMODE
 70
     0
  9
$DRAGMODE
 70
     2
  9
$LTSCALE
 40
15.000000
  9
$OSMODE
 70
     0
  9
$ATTMODE
 70
     1
  9
$TEXTSIZE
 40
0.2
  9
$TRACEWID
 40
0.05
  9
$TEXTSTYLE
  7
STANDARD
  9
$CLAYER
  8
CSLAYER3
  9
$CELTYPE
  6
BYLAYER
  9
$CECOLOR
 62
   256
  9
$DIMSCALE
 40
1.0
  9
$DIMASZ
 40
0.18
  9
$DIMEXO
 40
0.0625
  9
$DIMDLI
 40
0.38
  9
$DIMRND
 40
0.0
  9
$DIMDLE
 40
0.0
  9
$DIMEXE
 40
0.18
  9
$DIMTP
 40
0.0
  9
$DIMTM
 40
0.0
  9
$DIMTXT
 40
0.18
  9
$DIMCEN
 40
0.09
  9
$DIMTSZ
 40
0.0
  9
$DIMTOL
 70
     0
  9
$DIMLIM
 70
     0
  9
$DIMTIH
 70
     1
  9
$DIMTOH
 70
     1
  9
$DIMSE1
 70
     0
  9
$DIMSE2
 70
     0
  9
$DIMTAD
 70
     0
  9
$DIMZIN
 70
     0
  9
$DIMBLK
  1

  9
$LUNITS
 70
     2
  9
$LUPREC
 70
     4
  9
$AXISMODE
 70
     0
  9
$AXISUNIT
 10
0.0
 20
0.0
  9
$SKETCHINC
 40
0.1
  9
$FILLETRAD
 40
0.0
  9
$AUNITS
 70
     0
  9
$AUPREC
 70
     0
  9
$MENU
  1
ACAD
  9
$ELEVATION
 40
0.0
  9
$THICKNESS
 40
0.0
  9
$VIEWDIR
 10
0.0
 20
0.0
 30
1.0
  9
$LIMCHECK
 70
     0
  9
$BLIPMODE
 70
     1
  9
$CHAMFERA
 40
0.0
  9
$CHAMFERB
 40
0.0
  9
$FASTZOOM
 70
     1
  9
$SKPOLY
 70
     0
  9
$TDCREATE
 40
0.000000
  9
$TDUPDATE
 40
0.000000
  9
$TDINDWG
 40
0.0
  9
$TDUSRTIMER
 40
0.0
  9
$USRTIMER
 70
     1
  9
$ANGBASE
 50
0.0
  9
$ANGDIR
 70
     0
  9
$PDMODE
 70
     0
  9
$PDSIZE
 40
0.0
  9
$PLINEWID
 40
0.0
  9
$COORDS
 70
     0
  9
$USERI1
 70
     0
  9
$USERI2
 70
     0
  9
$USERI3
 70
     0
  9
$USERI4
 70
     0
  9
$USERI5
 70
     0
  9
$USERR1
 40
0.0
  9
$USERR2
 40
0.0
  9
$USERR3
 40
0.0
  9
$USERR4
 40
0.0
  9
$USERR5
 40
0.0
  0
ENDSEC
  0
SECTION
  2
TABLES
  0
TABLE
  2
LTYPE
 70
     9
  0
LTYPE
  2
CONTINUOUS
 70
    64
  3
Solid line
 72
    65
 73
     0
 40
0.0
  0
LTYPE
  2
DASHED
 70
    64
  3
__ __ __ __ __ __ __ __ __ __ __ __ __ __ __
 72
    65
 73
     2
 40
0.75
 49
0.5
 49
-0.25
  0
LTYPE
  2
HIDDEN
 70
    64
  3
_ _ _ _ _ _ _ _ _ _ _ _ _ _ _ _ _ _ _ _ _ _ _
 72
    65
 73
     2
 40
0.375
 49
0.25
 49
-0.125
  0
LTYPE
  2
DOT
 70
    64
  3
...............................................
 72
    65
 73
     2
 40
0.25
 49
0.0
 49
-0.25
  0
LTYPE
  2
DASHDOT
 70
    64
  3
__ . __ . __ . __ . __ . __ . __ . __ . __ . __
 72
    65
 73
     4
 40
1.0
 49
0.5
 49
-0.25
 49
0.0
 49
-0.25
  0
LTYPE
  2
DIVIDE
 70
    64
  3
__ . . __ . . __ . . __ . . __ . . __ . . __
 72
    65
 73
     6
 40
1.25
 49
0.5
 49
-0.25
 49
0.0
 49
-0.25
 49
0.0
 49
-0.25
  0
LTYPE
  2
CENTER
 70
    64
  3
____ _ ____ _ ____ _ ____ _ ____ _ ____ _ ____ 
 72
    65
 73
     4
 40
2.0
 49
1.25
 49
-0.25
 49
0.25
 49
-0.25
  0
LTYPE
  2
PHANTOM
 70
    64
  3
______  __  __  ______  __  __  ______  __  __ 
 72
    65
 73
     6
 40
2.5
 49
1.25
 49
-0.25
 49
0.25
 49
-0.25
 49
0.25
 49
-0.25
  0
LTYPE
  2
BORDER
 70
    64
  3
__ __ . __ __ . __ __ . __ __ . __ __ . __ __ .
 72
    65
 73
     6
 40
1.75
 49
0.5
 49
-0.25
 49
0.5
 49
-0.25
 49
0.0
 49
-0.25
  0
ENDTAB
  0
TABLE
  2
LAYER
 70
    16
  0
LAYER
  2
CSLAYER1
 70
    64
 62
     7
  6
CONTINUOUS
  0
LAYER
  2
CSLAYER2
 70
    64
 62
     7
  6
CONTINUOUS
  0
LAYER
  2
CSLAYER3
 70
    64
 62
     7
  6
CONTINUOUS
  0
LAYER
  2
CSLAYER4
 70
    64
 62
     7
  6
CONTINUOUS
  0
LAYER
  2
CSLAYER5
 70
    64
 62
     7
  6
CONTINUOUS
  0
LAYER
  2
CSLAYER6
 70
    64
 62
     7
  6
CONTINUOUS
  0
LAYER
  2
CSLAYER7
 70
    64
 62
     7
  6
CONTINUOUS
  0
LAYER
  2
CSLAYER8
 70
    64
 62
     7
  6
CONTINUOUS
  0
LAYER
  2
CSLAYER9
 70
    64
 62
     7
  6
CONTINUOUS
  0
LAYER
  2
CSLAYER10
 70
    64
 62
     7
  6
CONTINUOUS
  0
LAYER
  2
CSLAYER11
 70
    64
 62
     7
  6
CONTINUOUS
  0
LAYER
  2
CSLAYER12
 70
    64
 62
     7
  6
CONTINUOUS
  0
LAYER
  2
CSLAYER13
 70
    64
 62
     7
  6
CONTINUOUS
  0
LAYER
  2
CSLAYER14
 70
    64
 62
     7
  6
CONTINUOUS
  0
LAYER
  2
CSLAYER15
 70
    64
 62
     7
  6
CONTINUOUS
  0
LAYER
  2
CSLAYER16
 70
    64
 62
     7
  6
CONTINUOUS
  0
ENDTAB
  0
TABLE
  2
STYLE
 70
     1
  0
STYLE
  2
SX_FONT
 70
     0
 40
1.0
 41
1.0
 50
0.0
 71
     0
 42
1.0
  3
monotxt
  4
bigfont
  0
ENDTAB
  0
TABLE
  2
VIEW
 70
     0
  0
ENDTAB
  0
ENDSEC
  0
SECTION
  2
BLOCKS
  0
BLOCK
  8
CSLAYER1
  2
*D0000
 70
    65
 10
0.0
 20
0.0
 30
0.0
  0
LINE
  8
CSLAYER1
  6
CONTINUOUS
 62
     7
 10
59.719585
 20
211.428223
 11
59.719585
 21
217.428223
  0
LINE
  8
CSLAYER1
  6
CONTINUOUS
 62
     7
 10
167.719585
 20
211.428223
 11
167.719585
 21
217.428223
  0
LINE
  8
CSLAYER1
  6
CONTINUOUS
 62
     7
 10
59.719585
 20
216.428223
 11
167.719585
 21
216.428223
  0
LINE
  8
CSLAYER1
  6
CONTINUOUS
 62
     7
 10
59.719585
 20
216.428223
 11
63.583288
 21
217.463499
  0
LINE
  8
CSLAYER1
  6
CONTINUOUS
 62
     7
 10
59.719585
 20
216.428223
 11
63.583288
 21
215.392946
  0
LINE
  8
CSLAYER1
  6
CONTINUOUS
 62
     7
 10
167.719585
 20
216.428223
 11
163.855882
 21
217.463499
  0
LINE
  8
CSLAYER1
  6
CONTINUOUS
 62
     7
 10
167.719585
 20
216.428223
 11
163.855882
 21
215.392946
  0
TEXT
  8
CSLAYER1
 62
     7
 10
109.219582
 20
217.428223
 40
4.000000
 41
0.843750
  1
108
 50
0.000000
 51
0.000000
  7
SX_FONT
 72
     5
 11
118.219582
 21
217.428223
  0
ENDBLK
  8
0
  0
BLOCK
  8
CSLAYER1
  2
*D0001
 70
    65
 10
0.0
 20
0.0
 30
0.0
  0
LINE
  8
CSLAYER1
  6
CONTINUOUS
 62
     7
 10
54.453812
 20
98.222089
 11
48.453812
 21
98.222089
  0
LINE
  8
CSLAYER1
  6
CONTINUOUS
 62
     7
 10
54.453812
 20
206.222089
 11
48.453812
 21
206.222089
  0
LINE
  8
CSLAYER1
  6
CONTINUOUS
 62
     7
 10
49.453812
 20
98.222089
 11
49.453812
 21
206.222089
  0
LINE
  8
CSLAYER1
  6
CONTINUOUS
 62
     7
 10
49.453812
 20
98.222089
 11
48.418536
 21
102.085793
  0
LINE
  8
CSLAYER1
  6
CONTINUOUS
 62
     7
 10
49.453812
 20
98.222089
 11
50.489089
 21
102.085793
  0
LINE
  8
CSLAYER1
  6
CONTINUOUS
 62
     7
 10
49.453812
 20
206.222089
 11
48.418536
 21
202.358386
  0
LINE
  8
CSLAYER1
  6
CONTINUOUS
 62
     7
 10
49.453812
 20
206.222089
 11
50.489089
 21
202.358386
  0
TEXT
  8
CSLAYER1
 62
     7
 10
48.453812
 20
147.722092
 40
4.000000
 41
0.843750
  1
108
 50
90.000000
 51
0.000000
  7
SX_FONT
 72
     5
 11
48.453812
 21
156.722092
  0
ENDBLK
  8
0
  0
ENDSEC
  0
SECTION
  2
ENTITIES
  0
ARC
  8
CSLAYER2
  6
CONTINUOUS
 62
     7
 10
66.083546
 20
107.222089
 40
9.000000
 50
225.000000
 51
352.581225
  0
LINE
  8
CSLAYER2
  6
CONTINUOUS
 62
     7
 10
89.064516
 20
120.308615
 11
81.144920
 21
119.177244
  0
ARC
  8
CSLAYER2
  6
CONTINUOUS
 62
     7
 10
81.993449
 20
113.237547
 40
6.000000
 50
98.130102
 51
172.581225
  0
LINE
  8
CSLAYER2
  6
CONTINUOUS
 62
     7
 10
145.633059
 20
176.877158
 11
146.764430
 21
184.796754
  0
ARC
  8
CSLAYER2
  6
CONTINUOUS
 62
     7
 10
152.704127
 20
183.948226
 40
6.000000
 50
97.418775
 51
171.869898
  0
ARC
  8
CSLAYER2
  6
CONTINUOUS
 62
     7
 10
158.719585
 20
199.858128
 40
9.000000
 50
-82.581225
 51
45.000000
  0
ARC
  8
CSLAYER2
  6
CONTINUOUS
 62
     7
 10
140.683311
 20
177.584265
 40
5.000000
 50
315.000000
 51
351.869898
  0
ARC
  8
CSLAYER2
  6
CONTINUOUS
 62
     7
 10
88.357410
 20
125.258363
 40
5.000000
 50
278.130102
 51
315.000000
  0
ARC
  8
CSLAYER2
  6
CONTINUOUS
 62
     7
 10
88.357410
 20
125.258363
 40
5.000000
 50
315.000000
 51
358.863132
  0
ARC
  8
CSLAYER2
  6
CONTINUOUS
 62
     7
 10
95.074924
 20
129.854557
 40
5.000000
 50
249.897557
 51
315.000000
  0
ARC
  8
CSLAYER2
  6
CONTINUOUS
 62
     7
 10
140.683311
 20
177.584265
 40
5.000000
 50
271.136868
 51
315.000000
  0
ARC
  8
CSLAYER2
  6
CONTINUOUS
 62
     7
 10
136.087117
 20
170.866750
 40
5.000000
 50
-45.000000
 51
20.102443
  0
ARC
  8
CSLAYER2
  6
CONTINUOUS
 62
     7
 10
136.087117
 20
170.866750
 40
5.000000
 50
278.712543
 51
315.000000
  0
ARC
  8
CSLAYER2
  6
CONTINUOUS
 62
     7
 10
95.074924
 20
129.854557
 40
5.000000
 50
315.000000
 51
351.287457
  0
ARC
  8
CSLAYER2
  6
CONTINUOUS
 62
     7
 10
143.509501
 20
122.432173
 40
44.000000
 50
98.712543
 51
171.287457
  0
LINE
  8
CSLAYER2
  6
CONTINUOUS
 62
     7
 10
59.719585
 20
129.854557
 11
136.087117
 21
206.222089
  0
TEXT
  8
CSLAYER1
 62
     7
 10
58.363747
 20
54.853149
 40
12.000000
 41
0.700000
  1
FM-2207
 50
0.000000
 51
0.000000
  7
SX_FONT
 72
     5
 11
114.363747
 21
54.853149
  0
LINE
  8
CSLAYER1
  6
CONTINUOUS
 62
     7
 10
151.929403
 20
189.897999
 11
159.881670
 21
190.933468
  0
LINE
  8
CSLAYER1
  6
CONTINUOUS
 62
     7
 10
136.087117
 20
206.222089
 11
165.083546
 21
206.222089
  0
LINE
  8
CSLAYER1
  6
CONTINUOUS
 62
     7
 10
76.043675
 20
114.012271
 11
75.008206
 21
106.060004
  0
LINE
  8
CSLAYER1
  6
CONTINUOUS
 62
     7
 10
59.719585
 20
129.854557
 11
59.719585
 21
100.858128
  0
DIMENSION
  8
CSLAYER1
 62
     7
  2
*D0000
 10
167.719585
 20
216.428223
 11
113.719582
 21
217.428223
 13
59.719585
 23
210.428223
 14
167.719585
 24
210.428223
 70
1
  0
DIMENSION
  8
CSLAYER1
 62
     7
  2
*D0001
 10
49.453812
 20
206.222089
 11
48.453812
 21
152.222092
 13
55.453812
 23
98.222089
 14
55.453812
 24
206.222089
 50
90.000000
 70
1
  0
TEXT
  8
CSLAYER1
 62
     7
 10
59.456032
 20
40.591333
 40
5.547002
 41
0.589931
  1
カタログ Vol. 1  P73
 50
0.000000
 51
0.000000
  7
SX_FONT
 72
     5
 11
110.722816
 21
40.591333
  0
TEXT
  8
CSLAYER1
 62
     7
 10
123.844330
 20
54.670162
 40
12.000000
 41
0.700000
  1
108x108
 50
0.000000
 51
0.000000
  7
SX_FONT
 72
     5
 11
179.844330
 21
54.670162
  0
TEXT
  8
CSLAYER1
 62
     7
 10
59.924971
 20
28.104499
 40
4.960742
 41
0.729057
  1
ホ%%dケットカタロク゛ Vol. 1 P47
 50
0.000000
 51
0.000000
  7
SX_FONT
 72
     5
 11
134.669328
 21
28.104499
  0
ENDSEC
  0
EOF
