  0
SECTION
  2
HEADER
  9
$ACADVER
  1
AC1006
  9
$INSBASE
 10
57.354818
 20
141.317057
 30
0.0
  9
$EXTMIN
 10
57.354818
 20
141.317057
  9
$EXTMAX
 10
267.354818
 20
438.317057
  9
$LIMMIN
 10
57.354818
 20
141.317057
  9
$LIMMAX
 10
267.354818
 20
438.317057
  9
$VIEWCTR
 10
162.354818
 20
289.817057
  9
$VIEWSIZE
 40
297.000000
  9
$SNAPMODE
 70
     0
  9
$SNAPUNIT
 10
1.0
 20
1.0
  9
$SNAPBASE
 10
0.0
 20
0.0
  9
$SNAPANG
 50
0.0
  9
$SNAPSTYLE
 70
     0
  9
$SNAPISOPAIR
 70
     0
  9
$GRIDMODE
 70
     0
  9
$GRIDUNIT
 10
0.0
 20
0.0
  9
$ORTHOMODE
 70
     0
  9
$REGENMODE
 70
     1
  9
$FILLMODE
 70
     1
  9
$QTEXTMODE
 70
     0
  9
$DRAGMODE
 70
     2
  9
$LTSCALE
 40
15.000000
  9
$OSMODE
 70
     0
  9
$ATTMODE
 70
     1
  9
$TEXTSIZE
 40
0.2
  9
$TRACEWID
 40
0.05
  9
$TEXTSTYLE
  7
STANDARD
  9
$CLAYER
  8
CSLAYER3
  9
$CELTYPE
  6
BYLAYER
  9
$CECOLOR
 62
   256
  9
$DIMSCALE
 40
1.0
  9
$DIMASZ
 40
0.18
  9
$DIMEXO
 40
0.0625
  9
$DIMDLI
 40
0.38
  9
$DIMRND
 40
0.0
  9
$DIMDLE
 40
0.0
  9
$DIMEXE
 40
0.18
  9
$DIMTP
 40
0.0
  9
$DIMTM
 40
0.0
  9
$DIMTXT
 40
0.18
  9
$DIMCEN
 40
0.09
  9
$DIMTSZ
 40
0.0
  9
$DIMTOL
 70
     0
  9
$DIMLIM
 70
     0
  9
$DIMTIH
 70
     1
  9
$DIMTOH
 70
     1
  9
$DIMSE1
 70
     0
  9
$DIMSE2
 70
     0
  9
$DIMTAD
 70
     0
  9
$DIMZIN
 70
     0
  9
$DIMBLK
  1

  9
$LUNITS
 70
     2
  9
$LUPREC
 70
     4
  9
$AXISMODE
 70
     0
  9
$AXISUNIT
 10
0.0
 20
0.0
  9
$SKETCHINC
 40
0.1
  9
$FILLETRAD
 40
0.0
  9
$AUNITS
 70
     0
  9
$AUPREC
 70
     0
  9
$MENU
  1
ACAD
  9
$ELEVATION
 40
0.0
  9
$THICKNESS
 40
0.0
  9
$VIEWDIR
 10
0.0
 20
0.0
 30
1.0
  9
$LIMCHECK
 70
     0
  9
$BLIPMODE
 70
     1
  9
$CHAMFERA
 40
0.0
  9
$CHAMFERB
 40
0.0
  9
$FASTZOOM
 70
     1
  9
$SKPOLY
 70
     0
  9
$TDCREATE
 40
0.000000
  9
$TDUPDATE
 40
0.000000
  9
$TDINDWG
 40
0.0
  9
$TDUSRTIMER
 40
0.0
  9
$USRTIMER
 70
     1
  9
$ANGBASE
 50
0.0
  9
$ANGDIR
 70
     0
  9
$PDMODE
 70
     0
  9
$PDSIZE
 40
0.0
  9
$PLINEWID
 40
0.0
  9
$COORDS
 70
     0
  9
$USERI1
 70
     0
  9
$USERI2
 70
     0
  9
$USERI3
 70
     0
  9
$USERI4
 70
     0
  9
$USERI5
 70
     0
  9
$USERR1
 40
0.0
  9
$USERR2
 40
0.0
  9
$USERR3
 40
0.0
  9
$USERR4
 40
0.0
  9
$USERR5
 40
0.0
  0
ENDSEC
  0
SECTION
  2
TABLES
  0
TABLE
  2
LTYPE
 70
     9
  0
LTYPE
  2
CONTINUOUS
 70
    64
  3
Solid line
 72
    65
 73
     0
 40
0.0
  0
LTYPE
  2
DASHED
 70
    64
  3
__ __ __ __ __ __ __ __ __ __ __ __ __ __ __
 72
    65
 73
     2
 40
0.75
 49
0.5
 49
-0.25
  0
LTYPE
  2
HIDDEN
 70
    64
  3
_ _ _ _ _ _ _ _ _ _ _ _ _ _ _ _ _ _ _ _ _ _ _
 72
    65
 73
     2
 40
0.375
 49
0.25
 49
-0.125
  0
LTYPE
  2
DOT
 70
    64
  3
...............................................
 72
    65
 73
     2
 40
0.25
 49
0.0
 49
-0.25
  0
LTYPE
  2
DASHDOT
 70
    64
  3
__ . __ . __ . __ . __ . __ . __ . __ . __ . __
 72
    65
 73
     4
 40
1.0
 49
0.5
 49
-0.25
 49
0.0
 49
-0.25
  0
LTYPE
  2
DIVIDE
 70
    64
  3
__ . . __ . . __ . . __ . . __ . . __ . . __
 72
    65
 73
     6
 40
1.25
 49
0.5
 49
-0.25
 49
0.0
 49
-0.25
 49
0.0
 49
-0.25
  0
LTYPE
  2
CENTER
 70
    64
  3
____ _ ____ _ ____ _ ____ _ ____ _ ____ _ ____ 
 72
    65
 73
     4
 40
2.0
 49
1.25
 49
-0.25
 49
0.25
 49
-0.25
  0
LTYPE
  2
PHANTOM
 70
    64
  3
______  __  __  ______  __  __  ______  __  __ 
 72
    65
 73
     6
 40
2.5
 49
1.25
 49
-0.25
 49
0.25
 49
-0.25
 49
0.25
 49
-0.25
  0
LTYPE
  2
BORDER
 70
    64
  3
__ __ . __ __ . __ __ . __ __ . __ __ . __ __ .
 72
    65
 73
     6
 40
1.75
 49
0.5
 49
-0.25
 49
0.5
 49
-0.25
 49
0.0
 49
-0.25
  0
ENDTAB
  0
TABLE
  2
LAYER
 70
    16
  0
LAYER
  2
CSLAYER1
 70
    64
 62
     7
  6
CONTINUOUS
  0
LAYER
  2
CSLAYER2
 70
    64
 62
     7
  6
CONTINUOUS
  0
LAYER
  2
CSLAYER3
 70
    64
 62
     7
  6
CONTINUOUS
  0
LAYER
  2
CSLAYER4
 70
    64
 62
     7
  6
CONTINUOUS
  0
LAYER
  2
CSLAYER5
 70
    64
 62
     7
  6
CONTINUOUS
  0
LAYER
  2
CSLAYER6
 70
    64
 62
     7
  6
CONTINUOUS
  0
LAYER
  2
CSLAYER7
 70
    64
 62
     7
  6
CONTINUOUS
  0
LAYER
  2
CSLAYER8
 70
    64
 62
     7
  6
CONTINUOUS
  0
LAYER
  2
CSLAYER9
 70
    64
 62
     7
  6
CONTINUOUS
  0
LAYER
  2
CSLAYER10
 70
    64
 62
     7
  6
CONTINUOUS
  0
LAYER
  2
CSLAYER11
 70
    64
 62
     7
  6
CONTINUOUS
  0
LAYER
  2
CSLAYER12
 70
    64
 62
     7
  6
CONTINUOUS
  0
LAYER
  2
CSLAYER13
 70
    64
 62
     7
  6
CONTINUOUS
  0
LAYER
  2
CSLAYER14
 70
    64
 62
     7
  6
CONTINUOUS
  0
LAYER
  2
CSLAYER15
 70
    64
 62
     7
  6
CONTINUOUS
  0
LAYER
  2
CSLAYER16
 70
    64
 62
     7
  6
CONTINUOUS
  0
ENDTAB
  0
TABLE
  2
STYLE
 70
     1
  0
STYLE
  2
SX_FONT
 70
     0
 40
1.0
 41
1.0
 50
0.0
 71
     0
 42
1.0
  3
monotxt
  4
bigfont
  0
ENDTAB
  0
TABLE
  2
VIEW
 70
     0
  0
ENDTAB
  0
ENDSEC
  0
SECTION
  2
BLOCKS
  0
BLOCK
  8
CSLAYER1
  2
*D0000
 70
    65
 10
0.0
 20
0.0
 30
0.0
  0
LINE
  8
CSLAYER1
  6
CONTINUOUS
 62
     7
 10
68.710999
 20
213.920316
 11
68.710999
 21
219.920316
  0
LINE
  8
CSLAYER1
  6
CONTINUOUS
 62
     7
 10
159.220667
 20
213.920316
 11
159.220667
 21
219.920316
  0
LINE
  8
CSLAYER1
  6
CONTINUOUS
 62
     7
 10
68.710999
 20
218.920316
 11
159.220667
 21
218.920316
  0
LINE
  8
CSLAYER1
  6
CONTINUOUS
 62
     7
 10
68.710999
 20
218.920316
 11
72.574702
 21
219.955592
  0
LINE
  8
CSLAYER1
  6
CONTINUOUS
 62
     7
 10
68.710999
 20
218.920316
 11
72.574702
 21
217.885040
  0
LINE
  8
CSLAYER1
  6
CONTINUOUS
 62
     7
 10
159.220667
 20
218.920316
 11
155.356964
 21
219.955592
  0
LINE
  8
CSLAYER1
  6
CONTINUOUS
 62
     7
 10
159.220667
 20
218.920316
 11
155.356964
 21
217.885040
  0
TEXT
  8
CSLAYER1
 62
     7
 10
110.965836
 20
219.920319
 40
4.000000
 41
0.900000
  1
90
 50
0.000000
 51
0.000000
  7
SX_FONT
 72
     5
 11
116.965836
 21
219.920319
  0
ENDBLK
  8
0
  0
BLOCK
  8
CSLAYER1
  2
*D0001
 70
    65
 10
0.0
 20
0.0
 30
0.0
  0
LINE
  8
CSLAYER1
  6
CONTINUOUS
 62
     7
 10
63.110128
 20
118.069365
 11
57.110128
 21
118.069365
  0
LINE
  8
CSLAYER1
  6
CONTINUOUS
 62
     7
 10
63.110128
 20
208.579033
 11
57.110128
 21
208.579033
  0
LINE
  8
CSLAYER1
  6
CONTINUOUS
 62
     7
 10
58.110128
 20
118.069365
 11
58.110128
 21
208.579033
  0
LINE
  8
CSLAYER1
  6
CONTINUOUS
 62
     7
 10
58.110128
 20
118.069365
 11
57.074852
 21
121.933068
  0
LINE
  8
CSLAYER1
  6
CONTINUOUS
 62
     7
 10
58.110128
 20
118.069365
 11
59.145405
 21
121.933068
  0
LINE
  8
CSLAYER1
  6
CONTINUOUS
 62
     7
 10
58.110128
 20
208.579033
 11
57.074852
 21
204.715329
  0
LINE
  8
CSLAYER1
  6
CONTINUOUS
 62
     7
 10
58.110128
 20
208.579033
 11
59.145405
 21
204.715329
  0
TEXT
  8
CSLAYER1
 62
     7
 10
57.110126
 20
160.324203
 40
4.000000
 41
0.900000
  1
90
 50
90.000000
 51
0.000000
  7
SX_FONT
 72
     5
 11
57.110126
 21
166.324203
  0
ENDBLK
  8
0
  0
ENDSEC
  0
SECTION
  2
ENTITIES
  0
ARC
  8
CSLAYER2
  6
CONTINUOUS
 62
     7
 10
82.322804
 20
134.509597
 40
12.500000
 50
275.681298
 51
315.000000
  0
ARC
  8
CSLAYER2
  6
CONTINUOUS
 62
     7
 10
82.322804
 20
134.509597
 40
12.500000
 50
315.000000
 51
354.318702
  0
ARC
  8
CSLAYER2
  6
CONTINUOUS
 62
     7
 10
142.780434
 20
194.967227
 40
12.500000
 50
315.000000
 51
354.318702
  0
ARC
  8
CSLAYER2
  6
CONTINUOUS
 62
     7
 10
142.780434
 20
194.967227
 40
12.500000
 50
275.681298
 51
315.000000
  0
LINE
  8
CSLAYER2
  6
CONTINUOUS
 62
     7
 10
144.017871
 20
182.528628
 11
144.017871
 21
178.526995
  0
LINE
  8
CSLAYER2
  6
CONTINUOUS
 62
     7
 10
98.763037
 20
133.272161
 11
94.761404
 21
133.272161
  0
ARC
  8
CSLAYER2
  6
CONTINUOUS
 62
     7
 10
152.147567
 20
125.142465
 40
54.000000
 50
98.658797
 51
135.000000
  0
ARC
  8
CSLAYER2
  6
CONTINUOUS
 62
     7
 10
152.147567
 20
125.142465
 40
54.000000
 50
135.000000
 51
171.341203
  0
LINE
  8
CSLAYER2
  6
CONTINUOUS
 62
     7
 10
83.560241
 20
122.070998
 11
83.560241
 21
118.069365
  0
LINE
  8
CSLAYER2
  6
CONTINUOUS
 62
     7
 10
83.560241
 20
118.069365
 11
68.710999
 21
118.069365
  0
LINE
  8
CSLAYER2
  6
CONTINUOUS
 62
     7
 10
68.710999
 20
118.069365
 11
68.710999
 21
142.818102
  0
LINE
  8
CSLAYER2
  6
CONTINUOUS
 62
     7
 10
68.710999
 20
142.818102
 11
134.471930
 21
208.579033
  0
LINE
  8
CSLAYER2
  6
CONTINUOUS
 62
     7
 10
134.471930
 20
208.579033
 11
159.220667
 21
208.579033
  0
LINE
  8
CSLAYER2
  6
CONTINUOUS
 62
     7
 10
159.220667
 20
208.579033
 11
159.220667
 21
193.729790
  0
LINE
  8
CSLAYER2
  6
CONTINUOUS
 62
     7
 10
159.220667
 20
193.729790
 11
155.219033
 21
193.729790
  0
TEXT
  8
CSLAYER1
 62
     7
 10
66.547775
 20
65.177216
 40
12.000000
 41
0.700000
  1
FM-2205
 50
0.000000
 51
0.000000
  7
SX_FONT
 72
     5
 11
122.547775
 21
65.177216
  0
DIMENSION
  8
CSLAYER1
 62
     7
  2
*D0000
 10
159.220667
 20
218.920316
 11
113.965836
 21
219.920319
 13
68.710999
 23
212.920316
 14
159.220667
 24
212.920316
 70
1
  0
DIMENSION
  8
CSLAYER1
 62
     7
  2
*D0001
 10
58.110128
 20
208.579033
 11
57.110126
 21
163.324203
 13
64.110128
 23
118.069365
 14
64.110128
 24
208.579033
 50
90.000000
 70
1
  0
TEXT
  8
CSLAYER1
 62
     7
 10
66.717361
 20
50.578485
 40
5.547002
 41
0.589931
  1
カタログ Vol. 1  P72
 50
0.000000
 51
0.000000
  7
SX_FONT
 72
     5
 11
117.984146
 21
50.578485
  0
TEXT
  8
CSLAYER1
 62
     7
 10
139.290176
 20
65.589973
 40
12.000000
 41
0.714286
  1
90x90
 50
0.000000
 51
0.000000
  7
SX_FONT
 72
     5
 11
179.290176
 21
65.589973
  0
TEXT
  8
CSLAYER1
 62
     7
 10
66.898573
 20
38.449809
 40
4.960742
 41
0.729057
  1
ホ%%dケットカタロク゛ Vol. 1 P46
 50
0.000000
 51
0.000000
  7
SX_FONT
 72
     5
 11
141.642931
 21
38.449809
  0
ENDSEC
  0
EOF
