  0
SECTION
  2
HEADER
  9
$ACADVER
  1
AC1006
  9
$INSBASE
 10
75.528809
 20
201.859131
 30
0.0
  9
$EXTMIN
 10
75.528809
 20
201.859131
  9
$EXTMAX
 10
285.528809
 20
498.859131
  9
$LIMMIN
 10
75.528809
 20
201.859131
  9
$LIMMAX
 10
285.528809
 20
498.859131
  9
$VIEWCTR
 10
180.528809
 20
350.359131
  9
$VIEWSIZE
 40
297.000000
  9
$SNAPMODE
 70
     0
  9
$SNAPUNIT
 10
1.0
 20
1.0
  9
$SNAPBASE
 10
0.0
 20
0.0
  9
$SNAPANG
 50
0.0
  9
$SNAPSTYLE
 70
     0
  9
$SNAPISOPAIR
 70
     0
  9
$GRIDMODE
 70
     0
  9
$GRIDUNIT
 10
0.0
 20
0.0
  9
$ORTHOMODE
 70
     0
  9
$REGENMODE
 70
     1
  9
$FILLMODE
 70
     1
  9
$QTEXTMODE
 70
     0
  9
$DRAGMODE
 70
     2
  9
$LTSCALE
 40
15.000000
  9
$OSMODE
 70
     0
  9
$ATTMODE
 70
     1
  9
$TEXTSIZE
 40
0.2
  9
$TRACEWID
 40
0.05
  9
$TEXTSTYLE
  7
STANDARD
  9
$CLAYER
  8
CSLAYER3
  9
$CELTYPE
  6
BYLAYER
  9
$CECOLOR
 62
   256
  9
$DIMSCALE
 40
1.0
  9
$DIMASZ
 40
0.18
  9
$DIMEXO
 40
0.0625
  9
$DIMDLI
 40
0.38
  9
$DIMRND
 40
0.0
  9
$DIMDLE
 40
0.0
  9
$DIMEXE
 40
0.18
  9
$DIMTP
 40
0.0
  9
$DIMTM
 40
0.0
  9
$DIMTXT
 40
0.18
  9
$DIMCEN
 40
0.09
  9
$DIMTSZ
 40
0.0
  9
$DIMTOL
 70
     0
  9
$DIMLIM
 70
     0
  9
$DIMTIH
 70
     1
  9
$DIMTOH
 70
     1
  9
$DIMSE1
 70
     0
  9
$DIMSE2
 70
     0
  9
$DIMTAD
 70
     0
  9
$DIMZIN
 70
     0
  9
$DIMBLK
  1

  9
$LUNITS
 70
     2
  9
$LUPREC
 70
     4
  9
$AXISMODE
 70
     0
  9
$AXISUNIT
 10
0.0
 20
0.0
  9
$SKETCHINC
 40
0.1
  9
$FILLETRAD
 40
0.0
  9
$AUNITS
 70
     0
  9
$AUPREC
 70
     0
  9
$MENU
  1
ACAD
  9
$ELEVATION
 40
0.0
  9
$THICKNESS
 40
0.0
  9
$VIEWDIR
 10
0.0
 20
0.0
 30
1.0
  9
$LIMCHECK
 70
     0
  9
$BLIPMODE
 70
     1
  9
$CHAMFERA
 40
0.0
  9
$CHAMFERB
 40
0.0
  9
$FASTZOOM
 70
     1
  9
$SKPOLY
 70
     0
  9
$TDCREATE
 40
0.000000
  9
$TDUPDATE
 40
0.000000
  9
$TDINDWG
 40
0.0
  9
$TDUSRTIMER
 40
0.0
  9
$USRTIMER
 70
     1
  9
$ANGBASE
 50
0.0
  9
$ANGDIR
 70
     0
  9
$PDMODE
 70
     0
  9
$PDSIZE
 40
0.0
  9
$PLINEWID
 40
0.0
  9
$COORDS
 70
     0
  9
$USERI1
 70
     0
  9
$USERI2
 70
     0
  9
$USERI3
 70
     0
  9
$USERI4
 70
     0
  9
$USERI5
 70
     0
  9
$USERR1
 40
0.0
  9
$USERR2
 40
0.0
  9
$USERR3
 40
0.0
  9
$USERR4
 40
0.0
  9
$USERR5
 40
0.0
  0
ENDSEC
  0
SECTION
  2
TABLES
  0
TABLE
  2
LTYPE
 70
     9
  0
LTYPE
  2
CONTINUOUS
 70
    64
  3
Solid line
 72
    65
 73
     0
 40
0.0
  0
LTYPE
  2
DASHED
 70
    64
  3
__ __ __ __ __ __ __ __ __ __ __ __ __ __ __
 72
    65
 73
     2
 40
0.75
 49
0.5
 49
-0.25
  0
LTYPE
  2
HIDDEN
 70
    64
  3
_ _ _ _ _ _ _ _ _ _ _ _ _ _ _ _ _ _ _ _ _ _ _
 72
    65
 73
     2
 40
0.375
 49
0.25
 49
-0.125
  0
LTYPE
  2
DOT
 70
    64
  3
...............................................
 72
    65
 73
     2
 40
0.25
 49
0.0
 49
-0.25
  0
LTYPE
  2
DASHDOT
 70
    64
  3
__ . __ . __ . __ . __ . __ . __ . __ . __ . __
 72
    65
 73
     4
 40
1.0
 49
0.5
 49
-0.25
 49
0.0
 49
-0.25
  0
LTYPE
  2
DIVIDE
 70
    64
  3
__ . . __ . . __ . . __ . . __ . . __ . . __
 72
    65
 73
     6
 40
1.25
 49
0.5
 49
-0.25
 49
0.0
 49
-0.25
 49
0.0
 49
-0.25
  0
LTYPE
  2
CENTER
 70
    64
  3
____ _ ____ _ ____ _ ____ _ ____ _ ____ _ ____ 
 72
    65
 73
     4
 40
2.0
 49
1.25
 49
-0.25
 49
0.25
 49
-0.25
  0
LTYPE
  2
PHANTOM
 70
    64
  3
______  __  __  ______  __  __  ______  __  __ 
 72
    65
 73
     6
 40
2.5
 49
1.25
 49
-0.25
 49
0.25
 49
-0.25
 49
0.25
 49
-0.25
  0
LTYPE
  2
BORDER
 70
    64
  3
__ __ . __ __ . __ __ . __ __ . __ __ . __ __ .
 72
    65
 73
     6
 40
1.75
 49
0.5
 49
-0.25
 49
0.5
 49
-0.25
 49
0.0
 49
-0.25
  0
ENDTAB
  0
TABLE
  2
LAYER
 70
    16
  0
LAYER
  2
CSLAYER1
 70
    64
 62
     7
  6
CONTINUOUS
  0
LAYER
  2
CSLAYER2
 70
    64
 62
     7
  6
CONTINUOUS
  0
LAYER
  2
CSLAYER3
 70
    64
 62
     7
  6
CONTINUOUS
  0
LAYER
  2
CSLAYER4
 70
    64
 62
     7
  6
CONTINUOUS
  0
LAYER
  2
CSLAYER5
 70
    64
 62
     7
  6
CONTINUOUS
  0
LAYER
  2
CSLAYER6
 70
    64
 62
     7
  6
CONTINUOUS
  0
LAYER
  2
CSLAYER7
 70
    64
 62
     7
  6
CONTINUOUS
  0
LAYER
  2
CSLAYER8
 70
    64
 62
     7
  6
CONTINUOUS
  0
LAYER
  2
CSLAYER9
 70
    64
 62
     7
  6
CONTINUOUS
  0
LAYER
  2
CSLAYER10
 70
    64
 62
     7
  6
CONTINUOUS
  0
LAYER
  2
CSLAYER11
 70
    64
 62
     7
  6
CONTINUOUS
  0
LAYER
  2
CSLAYER12
 70
    64
 62
     7
  6
CONTINUOUS
  0
LAYER
  2
CSLAYER13
 70
    64
 62
     7
  6
CONTINUOUS
  0
LAYER
  2
CSLAYER14
 70
    64
 62
     7
  6
CONTINUOUS
  0
LAYER
  2
CSLAYER15
 70
    64
 62
     7
  6
CONTINUOUS
  0
LAYER
  2
CSLAYER16
 70
    64
 62
     7
  6
CONTINUOUS
  0
ENDTAB
  0
TABLE
  2
STYLE
 70
     1
  0
STYLE
  2
SX_FONT
 70
     0
 40
1.0
 41
1.0
 50
0.0
 71
     0
 42
1.0
  3
monotxt
  4
bigfont
  0
ENDTAB
  0
TABLE
  2
VIEW
 70
     0
  0
ENDTAB
  0
ENDSEC
  0
SECTION
  2
BLOCKS
  0
BLOCK
  8
CSLAYER1
  2
*D0000
 70
    65
 10
0.0
 20
0.0
 30
0.0
  0
LINE
  8
CSLAYER1
  6
CONTINUOUS
 62
     7
 10
82.149135
 20
194.581751
 11
82.149135
 21
200.581751
  0
LINE
  8
CSLAYER1
  6
CONTINUOUS
 62
     7
 10
145.788746
 20
194.581751
 11
145.788746
 21
200.581751
  0
LINE
  8
CSLAYER1
  6
CONTINUOUS
 62
     7
 10
82.149135
 20
199.581751
 11
145.788746
 21
199.581751
  0
LINE
  8
CSLAYER1
  6
CONTINUOUS
 62
     7
 10
82.149135
 20
199.581751
 11
86.012839
 21
200.617027
  0
LINE
  8
CSLAYER1
  6
CONTINUOUS
 62
     7
 10
82.149135
 20
199.581751
 11
86.012839
 21
198.546475
  0
LINE
  8
CSLAYER1
  6
CONTINUOUS
 62
     7
 10
145.788746
 20
199.581751
 11
141.925042
 21
200.617027
  0
LINE
  8
CSLAYER1
  6
CONTINUOUS
 62
     7
 10
145.788746
 20
199.581751
 11
141.925042
 21
198.546475
  0
TEXT
  8
CSLAYER1
 62
     7
 10
110.968941
 20
200.581757
 40
4.000000
 41
0.900000
  1
64
 50
0.000000
 51
0.000000
  7
SX_FONT
 72
     5
 11
116.968941
 21
200.581757
  0
ENDBLK
  8
0
  0
BLOCK
  8
CSLAYER1
  2
*D0001
 70
    65
 10
0.0
 20
0.0
 30
0.0
  0
LINE
  8
CSLAYER1
  6
CONTINUOUS
 62
     7
 10
76.773464
 20
125.929774
 11
70.773464
 21
125.929774
  0
LINE
  8
CSLAYER1
  6
CONTINUOUS
 62
     7
 10
76.773464
 20
189.569385
 11
70.773464
 21
189.569385
  0
LINE
  8
CSLAYER1
  6
CONTINUOUS
 62
     7
 10
71.773464
 20
125.929774
 11
71.773464
 21
189.569385
  0
LINE
  8
CSLAYER1
  6
CONTINUOUS
 62
     7
 10
71.773464
 20
125.929774
 11
70.738188
 21
129.793478
  0
LINE
  8
CSLAYER1
  6
CONTINUOUS
 62
     7
 10
71.773464
 20
125.929774
 11
72.808741
 21
129.793478
  0
LINE
  8
CSLAYER1
  6
CONTINUOUS
 62
     7
 10
71.773464
 20
189.569385
 11
70.738188
 21
185.705681
  0
LINE
  8
CSLAYER1
  6
CONTINUOUS
 62
     7
 10
71.773464
 20
189.569385
 11
72.808741
 21
185.705681
  0
TEXT
  8
CSLAYER1
 62
     7
 10
70.773460
 20
154.749588
 40
4.000000
 41
0.900000
  1
64
 50
90.000000
 51
0.000000
  7
SX_FONT
 72
     5
 11
70.773460
 21
160.749588
  0
ENDBLK
  8
0
  0
ENDSEC
  0
SECTION
  2
ENTITIES
  0
ARC
  8
CSLAYER2
  6
CONTINUOUS
 62
     7
 10
141.182994
 20
130.535526
 40
42.500000
 50
96.901063
 51
135.000000
  0
ARC
  8
CSLAYER2
  6
CONTINUOUS
 62
     7
 10
141.182994
 20
130.535526
 40
42.500000
 50
135.000000
 51
173.098937
  0
ARC
  8
CSLAYER2
  6
CONTINUOUS
 62
     7
 10
139.778338
 20
184.266084
 40
5.000000
 50
315.000000
 51
350.016574
  0
ARC
  8
CSLAYER2
  6
CONTINUOUS
 62
     7
 10
139.778338
 20
184.266084
 40
5.000000
 50
267.124506
 51
315.000000
  0
ARC
  8
CSLAYER2
  6
CONTINUOUS
 62
     7
 10
135.535697
 20
177.195016
 40
4.500000
 50
276.901063
 51
315.000000
  0
ARC
  8
CSLAYER2
  6
CONTINUOUS
 62
     7
 10
135.535697
 20
177.195016
 40
4.500000
 50
-45.000000
 51
27.492745
  0
ARC
  8
CSLAYER2
  6
CONTINUOUS
 62
     7
 10
94.523504
 20
136.182823
 40
4.500000
 50
242.507255
 51
315.000000
  0
ARC
  8
CSLAYER2
  6
CONTINUOUS
 62
     7
 10
94.523504
 20
136.182823
 40
4.500000
 50
315.000000
 51
353.098937
  0
ARC
  8
CSLAYER2
  6
CONTINUOUS
 62
     7
 10
87.452436
 20
131.940182
 40
5.000000
 50
279.983426
 51
315.000000
  0
ARC
  8
CSLAYER2
  6
CONTINUOUS
 62
     7
 10
87.452436
 20
131.940182
 40
5.000000
 50
-45.000000
 51
2.875494
  0
LINE
  8
CSLAYER2
  6
CONTINUOUS
 62
     7
 10
144.702628
 20
183.399267
 11
145.788746
 21
189.569385
  0
LINE
  8
CSLAYER2
  6
CONTINUOUS
 62
     7
 10
145.788746
 20
189.569385
 11
124.575542
 21
189.569385
  0
LINE
  8
CSLAYER2
  6
CONTINUOUS
 62
     7
 10
124.575542
 20
189.569385
 11
82.149135
 21
147.142978
  0
LINE
  8
CSLAYER2
  6
CONTINUOUS
 62
     7
 10
82.149135
 20
147.142978
 11
82.149135
 21
125.929774
  0
LINE
  8
CSLAYER2
  6
CONTINUOUS
 62
     7
 10
82.149135
 20
125.929774
 11
88.319253
 21
127.015892
  0
TEXT
  8
CSLAYER1
 62
     7
 10
82.415497
 20
65.768433
 40
10.000000
 41
0.630000
  1
FM-2202
 50
0.000000
 51
0.000000
  7
SX_FONT
 72
     5
 11
124.415497
 21
65.768433
  0
DIMENSION
  8
CSLAYER1
 62
     7
  2
*D0000
 10
145.788746
 20
199.581751
 11
113.968941
 21
200.581757
 13
82.149135
 23
193.581751
 14
145.788746
 24
193.581751
 70
1
  0
DIMENSION
  8
CSLAYER1
 62
     7
  2
*D0001
 10
71.773464
 20
189.569385
 11
70.773460
 21
157.749588
 13
77.773464
 23
125.929774
 14
77.773464
 24
189.569385
 50
90.000000
 70
1
  0
TEXT
  8
CSLAYER1
 62
     7
 10
138.858536
 20
67.148262
 40
10.000000
 41
0.642857
  1
64x64
 50
0.000000
 51
0.000000
  7
SX_FONT
 72
     5
 11
168.858536
 21
67.148262
  0
TEXT
  8
CSLAYER1
 62
     7
 10
83.378830
 20
55.571552
 40
5.000000
 41
0.612766
  1
カタログ Vol. 1  P71
 50
0.000000
 51
0.000000
  7
SX_FONT
 72
     5
 11
131.378830
 21
55.571552
  0
TEXT
  8
CSLAYER1
 62
     7
 10
83.594328
 20
45.254725
 40
4.960742
 41
0.729057
  1
ホ%%dケットカタロク゛ Vol. 1 P45
 50
0.000000
 51
0.000000
  7
SX_FONT
 72
     5
 11
158.338686
 21
45.254725
  0
ENDSEC
  0
EOF
