  0
SECTION
  2
HEADER
  9
$ACADVER
  1
AC1006
  9
$INSBASE
 10
72.218424
 20
145.070557
 30
0.0
  9
$EXTMIN
 10
72.218424
 20
145.070557
  9
$EXTMAX
 10
282.218424
 20
442.070557
  9
$LIMMIN
 10
72.218424
 20
145.070557
  9
$LIMMAX
 10
282.218424
 20
442.070557
  9
$VIEWCTR
 10
177.218424
 20
293.570557
  9
$VIEWSIZE
 40
297.000000
  9
$SNAPMODE
 70
     0
  9
$SNAPUNIT
 10
1.0
 20
1.0
  9
$SNAPBASE
 10
0.0
 20
0.0
  9
$SNAPANG
 50
0.0
  9
$SNAPSTYLE
 70
     0
  9
$SNAPISOPAIR
 70
     0
  9
$GRIDMODE
 70
     0
  9
$GRIDUNIT
 10
0.0
 20
0.0
  9
$ORTHOMODE
 70
     0
  9
$REGENMODE
 70
     1
  9
$FILLMODE
 70
     1
  9
$QTEXTMODE
 70
     0
  9
$DRAGMODE
 70
     2
  9
$LTSCALE
 40
15.000000
  9
$OSMODE
 70
     0
  9
$ATTMODE
 70
     1
  9
$TEXTSIZE
 40
0.2
  9
$TRACEWID
 40
0.05
  9
$TEXTSTYLE
  7
STANDARD
  9
$CLAYER
  8
CSLAYER3
  9
$CELTYPE
  6
BYLAYER
  9
$CECOLOR
 62
   256
  9
$DIMSCALE
 40
1.0
  9
$DIMASZ
 40
0.18
  9
$DIMEXO
 40
0.0625
  9
$DIMDLI
 40
0.38
  9
$DIMRND
 40
0.0
  9
$DIMDLE
 40
0.0
  9
$DIMEXE
 40
0.18
  9
$DIMTP
 40
0.0
  9
$DIMTM
 40
0.0
  9
$DIMTXT
 40
0.18
  9
$DIMCEN
 40
0.09
  9
$DIMTSZ
 40
0.0
  9
$DIMTOL
 70
     0
  9
$DIMLIM
 70
     0
  9
$DIMTIH
 70
     1
  9
$DIMTOH
 70
     1
  9
$DIMSE1
 70
     0
  9
$DIMSE2
 70
     0
  9
$DIMTAD
 70
     0
  9
$DIMZIN
 70
     0
  9
$DIMBLK
  1

  9
$LUNITS
 70
     2
  9
$LUPREC
 70
     4
  9
$AXISMODE
 70
     0
  9
$AXISUNIT
 10
0.0
 20
0.0
  9
$SKETCHINC
 40
0.1
  9
$FILLETRAD
 40
0.0
  9
$AUNITS
 70
     0
  9
$AUPREC
 70
     0
  9
$MENU
  1
ACAD
  9
$ELEVATION
 40
0.0
  9
$THICKNESS
 40
0.0
  9
$VIEWDIR
 10
0.0
 20
0.0
 30
1.0
  9
$LIMCHECK
 70
     0
  9
$BLIPMODE
 70
     1
  9
$CHAMFERA
 40
0.0
  9
$CHAMFERB
 40
0.0
  9
$FASTZOOM
 70
     1
  9
$SKPOLY
 70
     0
  9
$TDCREATE
 40
0.000000
  9
$TDUPDATE
 40
0.000000
  9
$TDINDWG
 40
0.0
  9
$TDUSRTIMER
 40
0.0
  9
$USRTIMER
 70
     1
  9
$ANGBASE
 50
0.0
  9
$ANGDIR
 70
     0
  9
$PDMODE
 70
     0
  9
$PDSIZE
 40
0.0
  9
$PLINEWID
 40
0.0
  9
$COORDS
 70
     0
  9
$USERI1
 70
     0
  9
$USERI2
 70
     0
  9
$USERI3
 70
     0
  9
$USERI4
 70
     0
  9
$USERI5
 70
     0
  9
$USERR1
 40
0.0
  9
$USERR2
 40
0.0
  9
$USERR3
 40
0.0
  9
$USERR4
 40
0.0
  9
$USERR5
 40
0.0
  0
ENDSEC
  0
SECTION
  2
TABLES
  0
TABLE
  2
LTYPE
 70
     9
  0
LTYPE
  2
CONTINUOUS
 70
    64
  3
Solid line
 72
    65
 73
     0
 40
0.0
  0
LTYPE
  2
DASHED
 70
    64
  3
__ __ __ __ __ __ __ __ __ __ __ __ __ __ __
 72
    65
 73
     2
 40
0.75
 49
0.5
 49
-0.25
  0
LTYPE
  2
HIDDEN
 70
    64
  3
_ _ _ _ _ _ _ _ _ _ _ _ _ _ _ _ _ _ _ _ _ _ _
 72
    65
 73
     2
 40
0.375
 49
0.25
 49
-0.125
  0
LTYPE
  2
DOT
 70
    64
  3
...............................................
 72
    65
 73
     2
 40
0.25
 49
0.0
 49
-0.25
  0
LTYPE
  2
DASHDOT
 70
    64
  3
__ . __ . __ . __ . __ . __ . __ . __ . __ . __
 72
    65
 73
     4
 40
1.0
 49
0.5
 49
-0.25
 49
0.0
 49
-0.25
  0
LTYPE
  2
DIVIDE
 70
    64
  3
__ . . __ . . __ . . __ . . __ . . __ . . __
 72
    65
 73
     6
 40
1.25
 49
0.5
 49
-0.25
 49
0.0
 49
-0.25
 49
0.0
 49
-0.25
  0
LTYPE
  2
CENTER
 70
    64
  3
____ _ ____ _ ____ _ ____ _ ____ _ ____ _ ____ 
 72
    65
 73
     4
 40
2.0
 49
1.25
 49
-0.25
 49
0.25
 49
-0.25
  0
LTYPE
  2
PHANTOM
 70
    64
  3
______  __  __  ______  __  __  ______  __  __ 
 72
    65
 73
     6
 40
2.5
 49
1.25
 49
-0.25
 49
0.25
 49
-0.25
 49
0.25
 49
-0.25
  0
LTYPE
  2
BORDER
 70
    64
  3
__ __ . __ __ . __ __ . __ __ . __ __ . __ __ .
 72
    65
 73
     6
 40
1.75
 49
0.5
 49
-0.25
 49
0.5
 49
-0.25
 49
0.0
 49
-0.25
  0
ENDTAB
  0
TABLE
  2
LAYER
 70
    16
  0
LAYER
  2
CSLAYER1
 70
    64
 62
     7
  6
CONTINUOUS
  0
LAYER
  2
CSLAYER2
 70
    64
 62
     7
  6
CONTINUOUS
  0
LAYER
  2
CSLAYER3
 70
    64
 62
     7
  6
CONTINUOUS
  0
LAYER
  2
CSLAYER4
 70
    64
 62
     7
  6
CONTINUOUS
  0
LAYER
  2
CSLAYER5
 70
    64
 62
     7
  6
CONTINUOUS
  0
LAYER
  2
CSLAYER6
 70
    64
 62
     7
  6
CONTINUOUS
  0
LAYER
  2
CSLAYER7
 70
    64
 62
     7
  6
CONTINUOUS
  0
LAYER
  2
CSLAYER8
 70
    64
 62
     7
  6
CONTINUOUS
  0
LAYER
  2
CSLAYER9
 70
    64
 62
     7
  6
CONTINUOUS
  0
LAYER
  2
CSLAYER10
 70
    64
 62
     7
  6
CONTINUOUS
  0
LAYER
  2
CSLAYER11
 70
    64
 62
     7
  6
CONTINUOUS
  0
LAYER
  2
CSLAYER12
 70
    64
 62
     7
  6
CONTINUOUS
  0
LAYER
  2
CSLAYER13
 70
    64
 62
     7
  6
CONTINUOUS
  0
LAYER
  2
CSLAYER14
 70
    64
 62
     7
  6
CONTINUOUS
  0
LAYER
  2
CSLAYER15
 70
    64
 62
     7
  6
CONTINUOUS
  0
LAYER
  2
CSLAYER16
 70
    64
 62
     7
  6
CONTINUOUS
  0
ENDTAB
  0
TABLE
  2
STYLE
 70
     1
  0
STYLE
  2
SX_FONT
 70
     0
 40
1.0
 41
1.0
 50
0.0
 71
     0
 42
1.0
  3
monotxt
  4
bigfont
  0
ENDTAB
  0
TABLE
  2
VIEW
 70
     0
  0
ENDTAB
  0
ENDSEC
  0
SECTION
  2
BLOCKS
  0
BLOCK
  8
CSLAYER1
  2
*D0000
 70
    65
 10
0.0
 20
0.0
 30
0.0
  0
LINE
  8
CSLAYER1
  6
CONTINUOUS
 62
     7
 10
83.821546
 20
184.645903
 11
83.821546
 21
190.645903
  0
LINE
  8
CSLAYER1
  6
CONTINUOUS
 62
     7
 10
143.925622
 20
184.645903
 11
143.925622
 21
190.645903
  0
LINE
  8
CSLAYER1
  6
CONTINUOUS
 62
     7
 10
83.821546
 20
189.645903
 11
143.925622
 21
189.645903
  0
LINE
  8
CSLAYER1
  6
CONTINUOUS
 62
     7
 10
83.821546
 20
189.645903
 11
87.685249
 21
190.681180
  0
LINE
  8
CSLAYER1
  6
CONTINUOUS
 62
     7
 10
83.821546
 20
189.645903
 11
87.685249
 21
188.610627
  0
LINE
  8
CSLAYER1
  6
CONTINUOUS
 62
     7
 10
143.925622
 20
189.645903
 11
140.061919
 21
190.681180
  0
LINE
  8
CSLAYER1
  6
CONTINUOUS
 62
     7
 10
143.925622
 20
189.645903
 11
140.061919
 21
188.610627
  0
TEXT
  8
CSLAYER1
 62
     7
 10
110.873589
 20
190.645905
 40
4.000000
 41
0.900000
  1
60
 50
0.000000
 51
0.000000
  7
SX_FONT
 72
     5
 11
116.873589
 21
190.645905
  0
ENDBLK
  8
0
  0
BLOCK
  8
CSLAYER1
  2
*D0001
 70
    65
 10
0.0
 20
0.0
 30
0.0
  0
LINE
  8
CSLAYER1
  6
CONTINUOUS
 62
     7
 10
78.123057
 20
119.574798
 11
72.123057
 21
119.574798
  0
LINE
  8
CSLAYER1
  6
CONTINUOUS
 62
     7
 10
78.123057
 20
179.678874
 11
72.123057
 21
179.678874
  0
LINE
  8
CSLAYER1
  6
CONTINUOUS
 62
     7
 10
73.123057
 20
119.574798
 11
73.123057
 21
179.678874
  0
LINE
  8
CSLAYER1
  6
CONTINUOUS
 62
     7
 10
73.123057
 20
119.574798
 11
72.087781
 21
123.438501
  0
LINE
  8
CSLAYER1
  6
CONTINUOUS
 62
     7
 10
73.123057
 20
119.574798
 11
74.158333
 21
123.438501
  0
LINE
  8
CSLAYER1
  6
CONTINUOUS
 62
     7
 10
73.123057
 20
179.678874
 11
72.087781
 21
175.815171
  0
LINE
  8
CSLAYER1
  6
CONTINUOUS
 62
     7
 10
73.123057
 20
179.678874
 11
74.158333
 21
175.815171
  0
TEXT
  8
CSLAYER1
 62
     7
 10
72.123055
 20
146.626831
 40
4.000000
 41
0.900000
  1
60
 50
90.000000
 51
0.000000
  7
SX_FONT
 72
     5
 11
72.123055
 21
152.626831
  0
ENDBLK
  8
0
  0
ENDSEC
  0
SECTION
  2
ENTITIES
  0
ARC
  8
CSLAYER2
  6
CONTINUOUS
 62
     7
 10
94.251371
 20
129.297516
 40
7.000000
 50
271.447091
 51
315.000000
  0
ARC
  8
CSLAYER2
  6
CONTINUOUS
 62
     7
 10
94.251371
 20
129.297516
 40
7.000000
 50
315.000000
 51
358.552909
  0
ARC
  8
CSLAYER2
  6
CONTINUOUS
 62
     7
 10
134.202904
 20
169.249049
 40
7.000000
 50
315.000000
 51
358.552909
  0
ARC
  8
CSLAYER2
  6
CONTINUOUS
 62
     7
 10
134.202904
 20
169.249049
 40
7.000000
 50
271.447091
 51
315.000000
  0
LINE
  8
CSLAYER2
  6
CONTINUOUS
 62
     7
 10
103.974089
 20
129.120739
 11
101.249139
 21
129.120739
  0
LINE
  8
CSLAYER2
  6
CONTINUOUS
 62
     7
 10
134.379681
 20
162.251281
 11
134.379681
 21
159.526331
  0
ARC
  8
CSLAYER2
  6
CONTINUOUS
 62
     7
 10
138.255669
 20
125.244751
 40
34.500000
 50
96.450656
 51
135.000000
  0
ARC
  8
CSLAYER2
  6
CONTINUOUS
 62
     7
 10
138.255669
 20
125.244751
 40
34.500000
 50
135.000000
 51
173.549344
  0
LINE
  8
CSLAYER2
  6
CONTINUOUS
 62
     7
 10
94.428148
 20
122.299748
 11
94.428148
 21
119.574798
  0
LINE
  8
CSLAYER2
  6
CONTINUOUS
 62
     7
 10
94.428148
 20
119.574798
 11
83.821546
 21
119.574798
  0
LINE
  8
CSLAYER2
  6
CONTINUOUS
 62
     7
 10
83.821546
 20
119.574798
 11
83.821546
 21
144.323535
  0
LINE
  8
CSLAYER2
  6
CONTINUOUS
 62
     7
 10
83.821546
 20
144.323535
 11
119.176885
 21
179.678874
  0
LINE
  8
CSLAYER2
  6
CONTINUOUS
 62
     7
 10
119.176885
 20
179.678874
 11
143.925622
 21
179.678874
  0
LINE
  8
CSLAYER2
  6
CONTINUOUS
 62
     7
 10
143.925622
 20
179.678874
 11
143.925622
 21
169.072272
  0
LINE
  8
CSLAYER2
  6
CONTINUOUS
 62
     7
 10
143.925622
 20
169.072272
 11
141.200672
 21
169.072272
  0
TEXT
  8
CSLAYER1
 62
     7
 10
83.825859
 20
59.472321
 40
10.000000
 41
0.630000
  1
FM-2201
 50
0.000000
 51
0.000000
  7
SX_FONT
 72
     5
 11
125.825859
 21
59.472321
  0
DIMENSION
  8
CSLAYER1
 62
     7
  2
*D0000
 10
143.925622
 20
189.645903
 11
113.873589
 21
190.645905
 13
83.821546
 23
183.645903
 14
143.925622
 24
183.645903
 70
1
  0
DIMENSION
  8
CSLAYER1
 62
     7
  2
*D0001
 10
73.123057
 20
179.678874
 11
72.123055
 21
149.626831
 13
79.123057
 23
119.574798
 14
79.123057
 24
179.678874
 50
90.000000
 70
1
  0
TEXT
  8
CSLAYER1
 62
     7
 10
140.854416
 20
59.588242
 40
10.000000
 41
0.642857
  1
60x60
 50
0.000000
 51
0.000000
  7
SX_FONT
 72
     5
 11
170.854416
 21
59.588242
  0
TEXT
  8
CSLAYER1
 62
     7
 10
84.759773
 20
48.068462
 40
5.000000
 41
0.612766
  1
カタログ Vol. 1  P71
 50
0.000000
 51
0.000000
  7
SX_FONT
 72
     5
 11
132.759773
 21
48.068462
  0
TEXT
  8
CSLAYER1
 62
     7
 10
84.690123
 20
37.239428
 40
4.960742
 41
0.729057
  1
ホ%%dケットカタロク゛ Vol. 1 P44
 50
0.000000
 51
0.000000
  7
SX_FONT
 72
     5
 11
159.434480
 21
37.239428
  0
ENDSEC
  0
EOF
