  0
SECTION
  2
HEADER
  9
$ACADVER
  1
AC1006
  9
$INSBASE
 10
73.804688
 20
188.718750
 30
0.0
  9
$EXTMIN
 10
73.804688
 20
188.718750
  9
$EXTMAX
 10
283.804688
 20
485.718750
  9
$LIMMIN
 10
73.804688
 20
188.718750
  9
$LIMMAX
 10
283.804688
 20
485.718750
  9
$VIEWCTR
 10
178.804688
 20
337.218750
  9
$VIEWSIZE
 40
297.000000
  9
$SNAPMODE
 70
     0
  9
$SNAPUNIT
 10
1.0
 20
1.0
  9
$SNAPBASE
 10
0.0
 20
0.0
  9
$SNAPANG
 50
0.0
  9
$SNAPSTYLE
 70
     0
  9
$SNAPISOPAIR
 70
     0
  9
$GRIDMODE
 70
     0
  9
$GRIDUNIT
 10
0.0
 20
0.0
  9
$ORTHOMODE
 70
     0
  9
$REGENMODE
 70
     1
  9
$FILLMODE
 70
     1
  9
$QTEXTMODE
 70
     0
  9
$DRAGMODE
 70
     2
  9
$LTSCALE
 40
15.000000
  9
$OSMODE
 70
     0
  9
$ATTMODE
 70
     1
  9
$TEXTSIZE
 40
0.2
  9
$TRACEWID
 40
0.05
  9
$TEXTSTYLE
  7
STANDARD
  9
$CLAYER
  8
CSLAYER3
  9
$CELTYPE
  6
BYLAYER
  9
$CECOLOR
 62
   256
  9
$DIMSCALE
 40
1.0
  9
$DIMASZ
 40
0.18
  9
$DIMEXO
 40
0.0625
  9
$DIMDLI
 40
0.38
  9
$DIMRND
 40
0.0
  9
$DIMDLE
 40
0.0
  9
$DIMEXE
 40
0.18
  9
$DIMTP
 40
0.0
  9
$DIMTM
 40
0.0
  9
$DIMTXT
 40
0.18
  9
$DIMCEN
 40
0.09
  9
$DIMTSZ
 40
0.0
  9
$DIMTOL
 70
     0
  9
$DIMLIM
 70
     0
  9
$DIMTIH
 70
     1
  9
$DIMTOH
 70
     1
  9
$DIMSE1
 70
     0
  9
$DIMSE2
 70
     0
  9
$DIMTAD
 70
     0
  9
$DIMZIN
 70
     0
  9
$DIMBLK
  1

  9
$LUNITS
 70
     2
  9
$LUPREC
 70
     4
  9
$AXISMODE
 70
     0
  9
$AXISUNIT
 10
0.0
 20
0.0
  9
$SKETCHINC
 40
0.1
  9
$FILLETRAD
 40
0.0
  9
$AUNITS
 70
     0
  9
$AUPREC
 70
     0
  9
$MENU
  1
ACAD
  9
$ELEVATION
 40
0.0
  9
$THICKNESS
 40
0.0
  9
$VIEWDIR
 10
0.0
 20
0.0
 30
1.0
  9
$LIMCHECK
 70
     0
  9
$BLIPMODE
 70
     1
  9
$CHAMFERA
 40
0.0
  9
$CHAMFERB
 40
0.0
  9
$FASTZOOM
 70
     1
  9
$SKPOLY
 70
     0
  9
$TDCREATE
 40
0.000000
  9
$TDUPDATE
 40
0.000000
  9
$TDINDWG
 40
0.0
  9
$TDUSRTIMER
 40
0.0
  9
$USRTIMER
 70
     1
  9
$ANGBASE
 50
0.0
  9
$ANGDIR
 70
     0
  9
$PDMODE
 70
     0
  9
$PDSIZE
 40
0.0
  9
$PLINEWID
 40
0.0
  9
$COORDS
 70
     0
  9
$USERI1
 70
     0
  9
$USERI2
 70
     0
  9
$USERI3
 70
     0
  9
$USERI4
 70
     0
  9
$USERI5
 70
     0
  9
$USERR1
 40
0.0
  9
$USERR2
 40
0.0
  9
$USERR3
 40
0.0
  9
$USERR4
 40
0.0
  9
$USERR5
 40
0.0
  0
ENDSEC
  0
SECTION
  2
TABLES
  0
TABLE
  2
LTYPE
 70
     9
  0
LTYPE
  2
CONTINUOUS
 70
    64
  3
Solid line
 72
    65
 73
     0
 40
0.0
  0
LTYPE
  2
DASHED
 70
    64
  3
__ __ __ __ __ __ __ __ __ __ __ __ __ __ __
 72
    65
 73
     2
 40
0.75
 49
0.5
 49
-0.25
  0
LTYPE
  2
HIDDEN
 70
    64
  3
_ _ _ _ _ _ _ _ _ _ _ _ _ _ _ _ _ _ _ _ _ _ _
 72
    65
 73
     2
 40
0.375
 49
0.25
 49
-0.125
  0
LTYPE
  2
DOT
 70
    64
  3
...............................................
 72
    65
 73
     2
 40
0.25
 49
0.0
 49
-0.25
  0
LTYPE
  2
DASHDOT
 70
    64
  3
__ . __ . __ . __ . __ . __ . __ . __ . __ . __
 72
    65
 73
     4
 40
1.0
 49
0.5
 49
-0.25
 49
0.0
 49
-0.25
  0
LTYPE
  2
DIVIDE
 70
    64
  3
__ . . __ . . __ . . __ . . __ . . __ . . __
 72
    65
 73
     6
 40
1.25
 49
0.5
 49
-0.25
 49
0.0
 49
-0.25
 49
0.0
 49
-0.25
  0
LTYPE
  2
CENTER
 70
    64
  3
____ _ ____ _ ____ _ ____ _ ____ _ ____ _ ____ 
 72
    65
 73
     4
 40
2.0
 49
1.25
 49
-0.25
 49
0.25
 49
-0.25
  0
LTYPE
  2
PHANTOM
 70
    64
  3
______  __  __  ______  __  __  ______  __  __ 
 72
    65
 73
     6
 40
2.5
 49
1.25
 49
-0.25
 49
0.25
 49
-0.25
 49
0.25
 49
-0.25
  0
LTYPE
  2
BORDER
 70
    64
  3
__ __ . __ __ . __ __ . __ __ . __ __ . __ __ .
 72
    65
 73
     6
 40
1.75
 49
0.5
 49
-0.25
 49
0.5
 49
-0.25
 49
0.0
 49
-0.25
  0
ENDTAB
  0
TABLE
  2
LAYER
 70
    16
  0
LAYER
  2
CSLAYER1
 70
    64
 62
     7
  6
CONTINUOUS
  0
LAYER
  2
CSLAYER2
 70
    64
 62
     7
  6
CONTINUOUS
  0
LAYER
  2
CSLAYER3
 70
    64
 62
     7
  6
CONTINUOUS
  0
LAYER
  2
CSLAYER4
 70
    64
 62
     7
  6
CONTINUOUS
  0
LAYER
  2
CSLAYER5
 70
    64
 62
     7
  6
CONTINUOUS
  0
LAYER
  2
CSLAYER6
 70
    64
 62
     7
  6
CONTINUOUS
  0
LAYER
  2
CSLAYER7
 70
    64
 62
     7
  6
CONTINUOUS
  0
LAYER
  2
CSLAYER8
 70
    64
 62
     7
  6
CONTINUOUS
  0
LAYER
  2
CSLAYER9
 70
    64
 62
     7
  6
CONTINUOUS
  0
LAYER
  2
CSLAYER10
 70
    64
 62
     7
  6
CONTINUOUS
  0
LAYER
  2
CSLAYER11
 70
    64
 62
     7
  6
CONTINUOUS
  0
LAYER
  2
CSLAYER12
 70
    64
 62
     7
  6
CONTINUOUS
  0
LAYER
  2
CSLAYER13
 70
    64
 62
     7
  6
CONTINUOUS
  0
LAYER
  2
CSLAYER14
 70
    64
 62
     7
  6
CONTINUOUS
  0
LAYER
  2
CSLAYER15
 70
    64
 62
     7
  6
CONTINUOUS
  0
LAYER
  2
CSLAYER16
 70
    64
 62
     7
  6
CONTINUOUS
  0
ENDTAB
  0
TABLE
  2
STYLE
 70
     1
  0
STYLE
  2
SX_FONT
 70
     0
 40
1.0
 41
1.0
 50
0.0
 71
     0
 42
1.0
  3
monotxt
  4
bigfont
  0
ENDTAB
  0
TABLE
  2
VIEW
 70
     0
  0
ENDTAB
  0
ENDSEC
  0
SECTION
  2
BLOCKS
  0
BLOCK
  8
CSLAYER1
  2
*D0000
 70
    65
 10
0.0
 20
0.0
 30
0.0
  0
LINE
  8
CSLAYER1
  6
CONTINUOUS
 62
     7
 10
73.823118
 20
196.479932
 11
73.823118
 21
201.677490
  0
LINE
  8
CSLAYER1
  6
CONTINUOUS
 62
     7
 10
130.822138
 20
196.479932
 11
130.822138
 21
201.677490
  0
LINE
  8
CSLAYER1
  6
CONTINUOUS
 62
     7
 10
73.823118
 20
200.677490
 11
130.822138
 21
200.677490
  0
LINE
  8
CSLAYER1
  6
CONTINUOUS
 62
     7
 10
73.823118
 20
200.677490
 11
77.686821
 21
201.712766
  0
LINE
  8
CSLAYER1
  6
CONTINUOUS
 62
     7
 10
73.823118
 20
200.677490
 11
77.686821
 21
199.642214
  0
LINE
  8
CSLAYER1
  6
CONTINUOUS
 62
     7
 10
130.822138
 20
200.677490
 11
126.958435
 21
201.712766
  0
LINE
  8
CSLAYER1
  6
CONTINUOUS
 62
     7
 10
130.822138
 20
200.677490
 11
126.958435
 21
199.642214
  0
TEXT
  8
CSLAYER1
 62
     7
 10
99.322624
 20
201.677490
 40
4.000000
 41
0.900000
  1
57
 50
0.000000
 51
0.000000
  7
SX_FONT
 72
     5
 11
105.322624
 21
201.677490
  0
ENDBLK
  8
0
  0
BLOCK
  8
CSLAYER1
  2
*D0001
 70
    65
 10
0.0
 20
0.0
 30
0.0
  0
LINE
  8
CSLAYER1
  6
CONTINUOUS
 62
     7
 10
67.823118
 20
132.478952
 11
62.799683
 21
132.478952
  0
LINE
  8
CSLAYER1
  6
CONTINUOUS
 62
     7
 10
67.823118
 20
190.479932
 11
62.799683
 21
190.479932
  0
LINE
  8
CSLAYER1
  6
CONTINUOUS
 62
     7
 10
63.799683
 20
132.478952
 11
63.799683
 21
190.479932
  0
LINE
  8
CSLAYER1
  6
CONTINUOUS
 62
     7
 10
63.799683
 20
132.478952
 11
62.764406
 21
136.342655
  0
LINE
  8
CSLAYER1
  6
CONTINUOUS
 62
     7
 10
63.799683
 20
132.478952
 11
64.834959
 21
136.342655
  0
LINE
  8
CSLAYER1
  6
CONTINUOUS
 62
     7
 10
63.799683
 20
190.479932
 11
62.764406
 21
186.616229
  0
LINE
  8
CSLAYER1
  6
CONTINUOUS
 62
     7
 10
63.799683
 20
190.479932
 11
64.834959
 21
186.616229
  0
TEXT
  8
CSLAYER1
 62
     7
 10
62.799683
 20
158.479446
 40
4.000000
 41
0.900000
  1
58
 50
90.000000
 51
0.000000
  7
SX_FONT
 72
     5
 11
62.799683
 21
164.479446
  0
ENDBLK
  8
0
  0
ENDSEC
  0
SECTION
  2
ENTITIES
  0
LINE
  8
CSLAYER2
  6
CONTINUOUS
 62
     7
 10
73.823768
 20
132.478952
 11
73.823118
 21
155.607948
  0
LINE
  8
CSLAYER2
  6
CONTINUOUS
 62
     7
 10
73.823768
 20
132.478952
 11
80.383197
 21
132.479136
  0
LINE
  8
CSLAYER4
  6
CONTINUOUS
 62
     7
 10
108.695107
 20
190.479932
 11
73.823118
 21
155.607948
  0
ARC
  8
CSLAYER2
  6
CONTINUOUS
 62
     7
 10
125.260789
 20
185.212273
 40
5.561497
 50
-89.998390
 51
0.001610
  0
LINE
  8
CSLAYER2
  6
CONTINUOUS
 62
     7
 10
125.260945
 20
179.650776
 11
122.480196
 21
179.650697
  0
ARC
  8
CSLAYER2
  6
CONTINUOUS
 62
     7
 10
93.242311
 20
171.781888
 40
18.074574
 50
-75.052582
 51
1.436670
  0
LINE
  8
CSLAYER2
  6
CONTINUOUS
 62
     7
 10
116.918907
 20
172.235211
 11
111.311203
 21
172.235054
  0
LINE
  8
CSLAYER2
  6
CONTINUOUS
 62
     7
 10
120.162971
 20
177.333342
 11
120.163023
 21
175.479509
  0
ARC
  8
CSLAYER2
  6
CONTINUOUS
 62
     7
 10
122.480262
 20
177.333407
 40
2.317291
 50
90.001610
 51
180.001610
  0
ARC
  8
CSLAYER2
  6
CONTINUOUS
 62
     7
 10
116.918816
 20
175.479418
 40
3.244207
 50
-89.998390
 51
0.001610
  0
LINE
  8
CSLAYER2
  6
CONTINUOUS
 62
     7
 10
108.695107
 20
190.479932
 11
130.822138
 21
190.480554
  0
LINE
  8
CSLAYER2
  6
CONTINUOUS
 62
     7
 10
130.822286
 20
185.212429
 11
130.822138
 21
190.480554
  0
ARC
  8
CSLAYER2
  6
CONTINUOUS
 62
     7
 10
103.258827
 20
138.842917
 40
16.376105
 50
109.084975
 51
170.719397
  0
ARC
  8
CSLAYER2
  6
CONTINUOUS
 62
     7
 10
80.309469
 20
142.986174
 40
6.951872
 50
270.606839
 51
347.520038
  0
LINE
  8
CSLAYER2
  6
CONTINUOUS
 62
     7
 10
80.383097
 20
136.034692
 11
80.383197
 21
132.479136
  0
TEXT
  8
CSLAYER1
 62
     7
 10
73.945313
 20
71.312500
 40
10.000000
 41
0.630000
  1
FM-2200
 50
0.000000
 51
0.000000
  7
SX_FONT
 72
     5
 11
115.945313
 21
71.312500
  0
DIMENSION
  8
CSLAYER1
 62
     7
  2
*D0000
 10
130.822138
 20
200.677490
 11
102.322624
 21
201.677490
 13
73.823118
 23
195.479932
 14
130.822138
 24
195.479932
 70
1
  0
DIMENSION
  8
CSLAYER1
 62
     7
  2
*D0001
 10
63.799683
 20
190.479932
 11
62.799683
 21
161.479446
 13
68.823118
 23
132.478952
 14
68.823118
 24
190.479932
 50
90.000000
 70
1
  0
TEXT
  8
CSLAYER1
 62
     7
 10
131.157089
 20
70.934601
 40
10.000000
 41
0.642857
  1
57x58
 50
0.000000
 51
0.000000
  7
SX_FONT
 72
     5
 11
161.157089
 21
70.934601
  0
TEXT
  8
CSLAYER1
 62
     7
 10
74.966179
 20
59.230068
 40
5.000000
 41
0.612766
  1
カタログ Vol. 1  P71
 50
0.000000
 51
0.000000
  7
SX_FONT
 72
     5
 11
122.966179
 21
59.230068
  0
TEXT
  8
CSLAYER1
 62
     7
 10
75.050513
 20
48.100016
 40
4.960742
 41
0.729057
  1
ホ%%dケットカタロク゛ Vol. 1 P44
 50
0.000000
 51
0.000000
  7
SX_FONT
 72
     5
 11
149.794870
 21
48.100016
  0
ENDSEC
  0
EOF
