  0
SECTION
  2
HEADER
  9
$ACADVER
  1
AC1006
  9
$INSBASE
 10
81.435221
 20
133.768880
 30
0.0
  9
$EXTMIN
 10
81.435221
 20
133.768880
  9
$EXTMAX
 10
291.435221
 20
430.768880
  9
$LIMMIN
 10
81.435221
 20
133.768880
  9
$LIMMAX
 10
291.435221
 20
430.768880
  9
$VIEWCTR
 10
186.435221
 20
282.268880
  9
$VIEWSIZE
 40
297.000000
  9
$SNAPMODE
 70
     0
  9
$SNAPUNIT
 10
1.0
 20
1.0
  9
$SNAPBASE
 10
0.0
 20
0.0
  9
$SNAPANG
 50
0.0
  9
$SNAPSTYLE
 70
     0
  9
$SNAPISOPAIR
 70
     0
  9
$GRIDMODE
 70
     0
  9
$GRIDUNIT
 10
0.0
 20
0.0
  9
$ORTHOMODE
 70
     0
  9
$REGENMODE
 70
     1
  9
$FILLMODE
 70
     1
  9
$QTEXTMODE
 70
     0
  9
$DRAGMODE
 70
     2
  9
$LTSCALE
 40
15.000000
  9
$OSMODE
 70
     0
  9
$ATTMODE
 70
     1
  9
$TEXTSIZE
 40
0.2
  9
$TRACEWID
 40
0.05
  9
$TEXTSTYLE
  7
STANDARD
  9
$CLAYER
  8
CSLAYER3
  9
$CELTYPE
  6
BYLAYER
  9
$CECOLOR
 62
   256
  9
$DIMSCALE
 40
1.0
  9
$DIMASZ
 40
0.18
  9
$DIMEXO
 40
0.0625
  9
$DIMDLI
 40
0.38
  9
$DIMRND
 40
0.0
  9
$DIMDLE
 40
0.0
  9
$DIMEXE
 40
0.18
  9
$DIMTP
 40
0.0
  9
$DIMTM
 40
0.0
  9
$DIMTXT
 40
0.18
  9
$DIMCEN
 40
0.09
  9
$DIMTSZ
 40
0.0
  9
$DIMTOL
 70
     0
  9
$DIMLIM
 70
     0
  9
$DIMTIH
 70
     1
  9
$DIMTOH
 70
     1
  9
$DIMSE1
 70
     0
  9
$DIMSE2
 70
     0
  9
$DIMTAD
 70
     0
  9
$DIMZIN
 70
     0
  9
$DIMBLK
  1

  9
$LUNITS
 70
     2
  9
$LUPREC
 70
     4
  9
$AXISMODE
 70
     0
  9
$AXISUNIT
 10
0.0
 20
0.0
  9
$SKETCHINC
 40
0.1
  9
$FILLETRAD
 40
0.0
  9
$AUNITS
 70
     0
  9
$AUPREC
 70
     0
  9
$MENU
  1
ACAD
  9
$ELEVATION
 40
0.0
  9
$THICKNESS
 40
0.0
  9
$VIEWDIR
 10
0.0
 20
0.0
 30
1.0
  9
$LIMCHECK
 70
     0
  9
$BLIPMODE
 70
     1
  9
$CHAMFERA
 40
0.0
  9
$CHAMFERB
 40
0.0
  9
$FASTZOOM
 70
     1
  9
$SKPOLY
 70
     0
  9
$TDCREATE
 40
0.000000
  9
$TDUPDATE
 40
0.000000
  9
$TDINDWG
 40
0.0
  9
$TDUSRTIMER
 40
0.0
  9
$USRTIMER
 70
     1
  9
$ANGBASE
 50
0.0
  9
$ANGDIR
 70
     0
  9
$PDMODE
 70
     0
  9
$PDSIZE
 40
0.0
  9
$PLINEWID
 40
0.0
  9
$COORDS
 70
     0
  9
$USERI1
 70
     0
  9
$USERI2
 70
     0
  9
$USERI3
 70
     0
  9
$USERI4
 70
     0
  9
$USERI5
 70
     0
  9
$USERR1
 40
0.0
  9
$USERR2
 40
0.0
  9
$USERR3
 40
0.0
  9
$USERR4
 40
0.0
  9
$USERR5
 40
0.0
  0
ENDSEC
  0
SECTION
  2
TABLES
  0
TABLE
  2
LTYPE
 70
     9
  0
LTYPE
  2
CONTINUOUS
 70
    64
  3
Solid line
 72
    65
 73
     0
 40
0.0
  0
LTYPE
  2
DASHED
 70
    64
  3
__ __ __ __ __ __ __ __ __ __ __ __ __ __ __
 72
    65
 73
     2
 40
0.75
 49
0.5
 49
-0.25
  0
LTYPE
  2
HIDDEN
 70
    64
  3
_ _ _ _ _ _ _ _ _ _ _ _ _ _ _ _ _ _ _ _ _ _ _
 72
    65
 73
     2
 40
0.375
 49
0.25
 49
-0.125
  0
LTYPE
  2
DOT
 70
    64
  3
...............................................
 72
    65
 73
     2
 40
0.25
 49
0.0
 49
-0.25
  0
LTYPE
  2
DASHDOT
 70
    64
  3
__ . __ . __ . __ . __ . __ . __ . __ . __ . __
 72
    65
 73
     4
 40
1.0
 49
0.5
 49
-0.25
 49
0.0
 49
-0.25
  0
LTYPE
  2
DIVIDE
 70
    64
  3
__ . . __ . . __ . . __ . . __ . . __ . . __
 72
    65
 73
     6
 40
1.25
 49
0.5
 49
-0.25
 49
0.0
 49
-0.25
 49
0.0
 49
-0.25
  0
LTYPE
  2
CENTER
 70
    64
  3
____ _ ____ _ ____ _ ____ _ ____ _ ____ _ ____ 
 72
    65
 73
     4
 40
2.0
 49
1.25
 49
-0.25
 49
0.25
 49
-0.25
  0
LTYPE
  2
PHANTOM
 70
    64
  3
______  __  __  ______  __  __  ______  __  __ 
 72
    65
 73
     6
 40
2.5
 49
1.25
 49
-0.25
 49
0.25
 49
-0.25
 49
0.25
 49
-0.25
  0
LTYPE
  2
BORDER
 70
    64
  3
__ __ . __ __ . __ __ . __ __ . __ __ . __ __ .
 72
    65
 73
     6
 40
1.75
 49
0.5
 49
-0.25
 49
0.5
 49
-0.25
 49
0.0
 49
-0.25
  0
ENDTAB
  0
TABLE
  2
LAYER
 70
    16
  0
LAYER
  2
CSLAYER1
 70
    64
 62
     7
  6
CONTINUOUS
  0
LAYER
  2
CSLAYER2
 70
    64
 62
     7
  6
CONTINUOUS
  0
LAYER
  2
CSLAYER3
 70
    64
 62
     7
  6
CONTINUOUS
  0
LAYER
  2
CSLAYER4
 70
    64
 62
     7
  6
CONTINUOUS
  0
LAYER
  2
CSLAYER5
 70
    64
 62
     7
  6
CONTINUOUS
  0
LAYER
  2
CSLAYER6
 70
    64
 62
     7
  6
CONTINUOUS
  0
LAYER
  2
CSLAYER7
 70
    64
 62
     7
  6
CONTINUOUS
  0
LAYER
  2
CSLAYER8
 70
    64
 62
     7
  6
CONTINUOUS
  0
LAYER
  2
CSLAYER9
 70
    64
 62
     7
  6
CONTINUOUS
  0
LAYER
  2
CSLAYER10
 70
    64
 62
     7
  6
CONTINUOUS
  0
LAYER
  2
CSLAYER11
 70
    64
 62
     7
  6
CONTINUOUS
  0
LAYER
  2
CSLAYER12
 70
    64
 62
     7
  6
CONTINUOUS
  0
LAYER
  2
CSLAYER13
 70
    64
 62
     7
  6
CONTINUOUS
  0
LAYER
  2
CSLAYER14
 70
    64
 62
     7
  6
CONTINUOUS
  0
LAYER
  2
CSLAYER15
 70
    64
 62
     7
  6
CONTINUOUS
  0
LAYER
  2
CSLAYER16
 70
    64
 62
     7
  6
CONTINUOUS
  0
ENDTAB
  0
TABLE
  2
STYLE
 70
     1
  0
STYLE
  2
SX_FONT
 70
     0
 40
1.0
 41
1.0
 50
0.0
 71
     0
 42
1.0
  3
monotxt
  4
bigfont
  0
ENDTAB
  0
TABLE
  2
VIEW
 70
     0
  0
ENDTAB
  0
ENDSEC
  0
SECTION
  2
BLOCKS
  0
BLOCK
  8
CSLAYER1
  2
*D0000
 70
    65
 10
0.0
 20
0.0
 30
0.0
  0
LINE
  8
CSLAYER1
  6
CONTINUOUS
 62
     7
 10
80.697985
 20
172.677252
 11
80.698068
 21
178.677899
  0
LINE
  8
CSLAYER1
  6
CONTINUOUS
 62
     7
 10
127.699550
 20
172.677252
 11
127.699632
 21
178.677252
  0
LINE
  8
CSLAYER1
  6
CONTINUOUS
 62
     7
 10
80.698054
 20
177.677899
 11
127.699618
 21
177.677252
  0
LINE
  8
CSLAYER1
  6
CONTINUOUS
 62
     7
 10
80.698054
 20
177.677899
 11
84.561772
 21
178.713122
  0
LINE
  8
CSLAYER1
  6
CONTINUOUS
 62
     7
 10
80.698054
 20
177.677899
 11
84.561743
 21
176.642569
  0
LINE
  8
CSLAYER1
  6
CONTINUOUS
 62
     7
 10
127.699618
 20
177.677252
 11
123.835901
 21
176.642029
  0
LINE
  8
CSLAYER1
  6
CONTINUOUS
 62
     7
 10
127.699618
 20
177.677252
 11
123.835929
 21
178.712581
  0
TEXT
  8
CSLAYER1
 62
     7
 10
101.198853
 20
178.677623
 40
4.000000
 41
0.900000
  1
47
 50
359.999207
 51
0.000000
  7
SX_FONT
 72
     5
 11
107.198853
 21
178.677540
  0
ENDBLK
  8
0
  0
BLOCK
  8
CSLAYER1
  2
*D0001
 70
    65
 10
0.0
 20
0.0
 30
0.0
  0
LINE
  8
CSLAYER1
  6
CONTINUOUS
 62
     7
 10
75.357536
 20
119.766836
 11
69.357536
 21
119.766836
  0
LINE
  8
CSLAYER1
  6
CONTINUOUS
 62
     7
 10
75.357536
 20
167.765313
 11
69.357536
 21
167.765313
  0
LINE
  8
CSLAYER1
  6
CONTINUOUS
 62
     7
 10
70.357536
 20
119.766836
 11
70.357536
 21
167.765313
  0
LINE
  8
CSLAYER1
  6
CONTINUOUS
 62
     7
 10
70.357536
 20
119.766836
 11
69.322260
 21
123.630539
  0
LINE
  8
CSLAYER1
  6
CONTINUOUS
 62
     7
 10
70.357536
 20
119.766836
 11
71.392813
 21
123.630539
  0
LINE
  8
CSLAYER1
  6
CONTINUOUS
 62
     7
 10
70.357536
 20
167.765313
 11
69.322260
 21
163.901610
  0
LINE
  8
CSLAYER1
  6
CONTINUOUS
 62
     7
 10
70.357536
 20
167.765313
 11
71.392813
 21
163.901610
  0
TEXT
  8
CSLAYER1
 62
     7
 10
69.357536
 20
140.766068
 40
4.000000
 41
0.900000
  1
48
 50
90.000000
 51
0.000000
  7
SX_FONT
 72
     5
 11
69.357536
 21
146.766068
  0
ENDBLK
  8
0
  0
ENDSEC
  0
SECTION
  2
ENTITIES
  0
ARC
  8
CSLAYER2
  6
CONTINUOUS
 62
     7
 10
91.198689
 20
138.266836
 40
13.000000
 50
269.997610
 51
350.945093
  0
ARC
  8
CSLAYER2
  6
CONTINUOUS
 62
     7
 10
128.725132
 20
132.286361
 40
25.000000
 50
92.351278
 51
170.945093
  0
LINE
  8
CSLAYER2
  6
CONTINUOUS
 62
     7
 10
91.198147
 20
125.266836
 11
91.197918
 21
119.766836
  0
LINE
  8
CSLAYER2
  6
CONTINUOUS
 62
     7
 10
91.197918
 20
119.766836
 11
80.697918
 21
119.767274
  0
LINE
  8
CSLAYER2
  6
CONTINUOUS
 62
     7
 10
80.697918
 20
119.767274
 11
80.698523
 21
134.267274
  0
LINE
  8
CSLAYER2
  6
CONTINUOUS
 62
     7
 10
80.698523
 20
134.267274
 11
112.199920
 21
167.765960
  0
LINE
  8
CSLAYER2
  6
CONTINUOUS
 62
     7
 10
112.199920
 20
167.765960
 11
127.699920
 21
167.765313
  0
LINE
  8
CSLAYER2
  6
CONTINUOUS
 62
     7
 10
127.699920
 20
167.765313
 11
127.699482
 21
157.265313
  0
TEXT
  8
CSLAYER1
 62
     7
 10
80.820976
 20
59.790504
 40
10.000000
 41
0.630000
  1
FM-2199
 50
0.000000
 51
0.000000
  7
SX_FONT
 72
     5
 11
122.820976
 21
59.790504
  0
DIMENSION
  8
CSLAYER1
 62
     7
  2
*D0000
 10
127.699618
 20
177.677252
 11
104.198853
 21
178.677582
 13
80.697972
 23
171.677252
 14
127.699536
 24
171.677252
 50
359.999212
 52
-270.000000
 70
1
  0
DIMENSION
  8
CSLAYER1
 62
     7
  2
*D0001
 10
70.357536
 20
167.765313
 11
69.357536
 21
143.766068
 13
76.357536
 23
119.766836
 14
76.357536
 24
167.765313
 50
90.000000
 70
1
  0
TEXT
  8
CSLAYER1
 62
     7
 10
137.771591
 20
60.459274
 40
10.000000
 41
0.642857
  1
47x48
 50
0.000000
 51
0.000000
  7
SX_FONT
 72
     5
 11
167.771591
 21
60.459274
  0
TEXT
  8
CSLAYER1
 62
     7
 10
81.722267
 20
49.102673
 40
5.000000
 41
0.612766
  1
カタログ Vol. 1  P71
 50
0.000000
 51
0.000000
  7
SX_FONT
 72
     5
 11
129.722267
 21
49.102673
  0
TEXT
  8
CSLAYER1
 62
     7
 10
81.715750
 20
39.557883
 40
4.960742
 41
0.729057
  1
ホ%%dケットカタロク゛ Vol. 1 P44
 50
0.000000
 51
0.000000
  7
SX_FONT
 72
     5
 11
156.460108
 21
39.557883
  0
ENDSEC
  0
EOF
