  0
SECTION
  2
HEADER
  9
$ACADVER
  1
AC1006
  9
$INSBASE
 10
81.333171
 20
149.855306
 30
0.0
  9
$EXTMIN
 10
81.333171
 20
149.855306
  9
$EXTMAX
 10
291.333171
 20
446.855306
  9
$LIMMIN
 10
81.333171
 20
149.855306
  9
$LIMMAX
 10
291.333171
 20
446.855306
  9
$VIEWCTR
 10
186.333171
 20
298.355306
  9
$VIEWSIZE
 40
297.000000
  9
$SNAPMODE
 70
     0
  9
$SNAPUNIT
 10
1.0
 20
1.0
  9
$SNAPBASE
 10
0.0
 20
0.0
  9
$SNAPANG
 50
0.0
  9
$SNAPSTYLE
 70
     0
  9
$SNAPISOPAIR
 70
     0
  9
$GRIDMODE
 70
     0
  9
$GRIDUNIT
 10
0.0
 20
0.0
  9
$ORTHOMODE
 70
     0
  9
$REGENMODE
 70
     1
  9
$FILLMODE
 70
     1
  9
$QTEXTMODE
 70
     0
  9
$DRAGMODE
 70
     2
  9
$LTSCALE
 40
15.000000
  9
$OSMODE
 70
     0
  9
$ATTMODE
 70
     1
  9
$TEXTSIZE
 40
0.2
  9
$TRACEWID
 40
0.05
  9
$TEXTSTYLE
  7
STANDARD
  9
$CLAYER
  8
CSLAYER3
  9
$CELTYPE
  6
BYLAYER
  9
$CECOLOR
 62
   256
  9
$DIMSCALE
 40
1.0
  9
$DIMASZ
 40
0.18
  9
$DIMEXO
 40
0.0625
  9
$DIMDLI
 40
0.38
  9
$DIMRND
 40
0.0
  9
$DIMDLE
 40
0.0
  9
$DIMEXE
 40
0.18
  9
$DIMTP
 40
0.0
  9
$DIMTM
 40
0.0
  9
$DIMTXT
 40
0.18
  9
$DIMCEN
 40
0.09
  9
$DIMTSZ
 40
0.0
  9
$DIMTOL
 70
     0
  9
$DIMLIM
 70
     0
  9
$DIMTIH
 70
     1
  9
$DIMTOH
 70
     1
  9
$DIMSE1
 70
     0
  9
$DIMSE2
 70
     0
  9
$DIMTAD
 70
     0
  9
$DIMZIN
 70
     0
  9
$DIMBLK
  1

  9
$LUNITS
 70
     2
  9
$LUPREC
 70
     4
  9
$AXISMODE
 70
     0
  9
$AXISUNIT
 10
0.0
 20
0.0
  9
$SKETCHINC
 40
0.1
  9
$FILLETRAD
 40
0.0
  9
$AUNITS
 70
     0
  9
$AUPREC
 70
     0
  9
$MENU
  1
ACAD
  9
$ELEVATION
 40
0.0
  9
$THICKNESS
 40
0.0
  9
$VIEWDIR
 10
0.0
 20
0.0
 30
1.0
  9
$LIMCHECK
 70
     0
  9
$BLIPMODE
 70
     1
  9
$CHAMFERA
 40
0.0
  9
$CHAMFERB
 40
0.0
  9
$FASTZOOM
 70
     1
  9
$SKPOLY
 70
     0
  9
$TDCREATE
 40
0.000000
  9
$TDUPDATE
 40
0.000000
  9
$TDINDWG
 40
0.0
  9
$TDUSRTIMER
 40
0.0
  9
$USRTIMER
 70
     1
  9
$ANGBASE
 50
0.0
  9
$ANGDIR
 70
     0
  9
$PDMODE
 70
     0
  9
$PDSIZE
 40
0.0
  9
$PLINEWID
 40
0.0
  9
$COORDS
 70
     0
  9
$USERI1
 70
     0
  9
$USERI2
 70
     0
  9
$USERI3
 70
     0
  9
$USERI4
 70
     0
  9
$USERI5
 70
     0
  9
$USERR1
 40
0.0
  9
$USERR2
 40
0.0
  9
$USERR3
 40
0.0
  9
$USERR4
 40
0.0
  9
$USERR5
 40
0.0
  0
ENDSEC
  0
SECTION
  2
TABLES
  0
TABLE
  2
LTYPE
 70
     9
  0
LTYPE
  2
CONTINUOUS
 70
    64
  3
Solid line
 72
    65
 73
     0
 40
0.0
  0
LTYPE
  2
DASHED
 70
    64
  3
__ __ __ __ __ __ __ __ __ __ __ __ __ __ __
 72
    65
 73
     2
 40
0.75
 49
0.5
 49
-0.25
  0
LTYPE
  2
HIDDEN
 70
    64
  3
_ _ _ _ _ _ _ _ _ _ _ _ _ _ _ _ _ _ _ _ _ _ _
 72
    65
 73
     2
 40
0.375
 49
0.25
 49
-0.125
  0
LTYPE
  2
DOT
 70
    64
  3
...............................................
 72
    65
 73
     2
 40
0.25
 49
0.0
 49
-0.25
  0
LTYPE
  2
DASHDOT
 70
    64
  3
__ . __ . __ . __ . __ . __ . __ . __ . __ . __
 72
    65
 73
     4
 40
1.0
 49
0.5
 49
-0.25
 49
0.0
 49
-0.25
  0
LTYPE
  2
DIVIDE
 70
    64
  3
__ . . __ . . __ . . __ . . __ . . __ . . __
 72
    65
 73
     6
 40
1.25
 49
0.5
 49
-0.25
 49
0.0
 49
-0.25
 49
0.0
 49
-0.25
  0
LTYPE
  2
CENTER
 70
    64
  3
____ _ ____ _ ____ _ ____ _ ____ _ ____ _ ____ 
 72
    65
 73
     4
 40
2.0
 49
1.25
 49
-0.25
 49
0.25
 49
-0.25
  0
LTYPE
  2
PHANTOM
 70
    64
  3
______  __  __  ______  __  __  ______  __  __ 
 72
    65
 73
     6
 40
2.5
 49
1.25
 49
-0.25
 49
0.25
 49
-0.25
 49
0.25
 49
-0.25
  0
LTYPE
  2
BORDER
 70
    64
  3
__ __ . __ __ . __ __ . __ __ . __ __ . __ __ .
 72
    65
 73
     6
 40
1.75
 49
0.5
 49
-0.25
 49
0.5
 49
-0.25
 49
0.0
 49
-0.25
  0
ENDTAB
  0
TABLE
  2
LAYER
 70
    16
  0
LAYER
  2
CSLAYER1
 70
    64
 62
     7
  6
CONTINUOUS
  0
LAYER
  2
CSLAYER2
 70
    64
 62
     7
  6
CONTINUOUS
  0
LAYER
  2
CSLAYER3
 70
    64
 62
     7
  6
CONTINUOUS
  0
LAYER
  2
CSLAYER4
 70
    64
 62
     7
  6
CONTINUOUS
  0
LAYER
  2
CSLAYER5
 70
    64
 62
     7
  6
CONTINUOUS
  0
LAYER
  2
CSLAYER6
 70
    64
 62
     7
  6
CONTINUOUS
  0
LAYER
  2
CSLAYER7
 70
    64
 62
     7
  6
CONTINUOUS
  0
LAYER
  2
CSLAYER8
 70
    64
 62
     7
  6
CONTINUOUS
  0
LAYER
  2
CSLAYER9
 70
    64
 62
     7
  6
CONTINUOUS
  0
LAYER
  2
CSLAYER10
 70
    64
 62
     7
  6
CONTINUOUS
  0
LAYER
  2
CSLAYER11
 70
    64
 62
     7
  6
CONTINUOUS
  0
LAYER
  2
CSLAYER12
 70
    64
 62
     7
  6
CONTINUOUS
  0
LAYER
  2
CSLAYER13
 70
    64
 62
     7
  6
CONTINUOUS
  0
LAYER
  2
CSLAYER14
 70
    64
 62
     7
  6
CONTINUOUS
  0
LAYER
  2
CSLAYER15
 70
    64
 62
     7
  6
CONTINUOUS
  0
LAYER
  2
CSLAYER16
 70
    64
 62
     7
  6
CONTINUOUS
  0
ENDTAB
  0
TABLE
  2
STYLE
 70
     1
  0
STYLE
  2
SX_FONT
 70
     0
 40
1.0
 41
1.0
 50
0.0
 71
     0
 42
1.0
  3
monotxt
  4
bigfont
  0
ENDTAB
  0
TABLE
  2
VIEW
 70
     0
  0
ENDTAB
  0
ENDSEC
  0
SECTION
  2
BLOCKS
  0
BLOCK
  8
CSLAYER1
  2
*D0000
 70
    65
 10
0.0
 20
0.0
 30
0.0
  0
LINE
  8
CSLAYER1
  6
CONTINUOUS
 62
     7
 10
81.445346
 20
177.154225
 11
81.445388
 21
183.154541
  0
LINE
  8
CSLAYER1
  6
CONTINUOUS
 62
     7
 10
126.700180
 20
177.154225
 11
126.700222
 21
183.154225
  0
LINE
  8
CSLAYER1
  6
CONTINUOUS
 62
     7
 10
81.445381
 20
182.154541
 11
126.700215
 21
182.154225
  0
LINE
  8
CSLAYER1
  6
CONTINUOUS
 62
     7
 10
81.445381
 20
182.154541
 11
85.309091
 21
183.189790
  0
LINE
  8
CSLAYER1
  6
CONTINUOUS
 62
     7
 10
81.445381
 20
182.154541
 11
85.309077
 21
181.119238
  0
LINE
  8
CSLAYER1
  6
CONTINUOUS
 62
     7
 10
126.700215
 20
182.154225
 11
122.836504
 21
181.118976
  0
LINE
  8
CSLAYER1
  6
CONTINUOUS
 62
     7
 10
126.700215
 20
182.154225
 11
122.836519
 21
183.189528
  0
TEXT
  8
CSLAYER1
 62
     7
 10
101.072807
 20
183.154409
 40
4.000000
 41
0.900000
  1
45
 50
359.999603
 51
0.000000
  7
SX_FONT
 72
     5
 11
107.072807
 21
183.154368
  0
ENDBLK
  8
0
  0
BLOCK
  8
CSLAYER1
  2
*D0001
 70
    65
 10
0.0
 20
0.0
 30
0.0
  0
LINE
  8
CSLAYER1
  6
CONTINUOUS
 62
     7
 10
76.120043
 20
127.093750
 11
70.120043
 21
127.093750
  0
LINE
  8
CSLAYER1
  6
CONTINUOUS
 62
     7
 10
76.120043
 20
172.348584
 11
70.120043
 21
172.348584
  0
LINE
  8
CSLAYER1
  6
CONTINUOUS
 62
     7
 10
71.120043
 20
127.093750
 11
71.120043
 21
172.348584
  0
LINE
  8
CSLAYER1
  6
CONTINUOUS
 62
     7
 10
71.120043
 20
127.093750
 11
70.084767
 21
130.957453
  0
LINE
  8
CSLAYER1
  6
CONTINUOUS
 62
     7
 10
71.120043
 20
127.093750
 11
72.155319
 21
130.957453
  0
LINE
  8
CSLAYER1
  6
CONTINUOUS
 62
     7
 10
71.120043
 20
172.348584
 11
70.084767
 21
168.484881
  0
LINE
  8
CSLAYER1
  6
CONTINUOUS
 62
     7
 10
71.120043
 20
172.348584
 11
72.155319
 21
168.484881
  0
TEXT
  8
CSLAYER1
 62
     7
 10
70.120041
 20
146.721161
 40
4.000000
 41
0.900000
  1
45
 50
90.000000
 51
0.000000
  7
SX_FONT
 72
     5
 11
70.120041
 21
152.721161
  0
ENDBLK
  8
0
  0
ENDSEC
  0
SECTION
  2
ENTITIES
  0
LINE
  8
CSLAYER2
  6
CONTINUOUS
 62
     7
 10
96.294555
 20
133.457711
 11
94.677843
 21
133.457711
  0
ARC
  8
CSLAYER2
  6
CONTINUOUS
 62
     7
 10
89.223487
 20
134.164818
 40
5.500000
 50
277.386669
 51
315.000000
  0
ARC
  8
CSLAYER2
  6
CONTINUOUS
 62
     7
 10
89.223487
 20
134.164818
 40
5.500000
 50
315.000000
 51
352.613331
  0
LINE
  8
CSLAYER2
  6
CONTINUOUS
 62
     7
 10
120.336185
 20
157.499342
 11
120.336185
 21
159.116053
  0
ARC
  8
CSLAYER2
  6
CONTINUOUS
 62
     7
 10
119.629079
 20
164.570409
 40
5.500000
 50
315.000000
 51
352.613331
  0
ARC
  8
CSLAYER2
  6
CONTINUOUS
 62
     7
 10
119.629079
 20
164.570409
 40
5.500000
 50
277.386669
 51
315.000000
  0
ARC
  8
CSLAYER2
  6
CONTINUOUS
 62
     7
 10
123.147767
 20
130.646129
 40
27.000000
 50
95.977197
 51
174.022803
  0
LINE
  8
CSLAYER2
  6
CONTINUOUS
 62
     7
 10
89.930594
 20
128.710462
 11
89.930594
 21
127.093750
  0
LINE
  8
CSLAYER2
  6
CONTINUOUS
 62
     7
 10
89.930594
 20
127.093750
 11
81.445313
 21
127.093750
  0
LINE
  8
CSLAYER2
  6
CONTINUOUS
 62
     7
 10
81.445313
 20
127.093750
 11
81.445312
 21
151.135381
  0
LINE
  8
CSLAYER2
  6
CONTINUOUS
 62
     7
 10
81.445312
 20
151.135381
 11
102.658516
 21
172.348584
  0
LINE
  8
CSLAYER2
  6
CONTINUOUS
 62
     7
 10
102.658516
 20
172.348584
 11
126.700146
 21
172.348584
  0
LINE
  8
CSLAYER2
  6
CONTINUOUS
 62
     7
 10
126.700146
 20
172.348584
 11
126.700146
 21
163.863303
  0
LINE
  8
CSLAYER2
  6
CONTINUOUS
 62
     7
 10
126.700146
 20
163.863303
 11
125.083435
 21
163.863303
  0
TEXT
  8
CSLAYER1
 62
     7
 10
81.864410
 20
67.008522
 40
10.000000
 41
0.630000
  1
FM-2197
 50
0.000000
 51
0.000000
  7
SX_FONT
 72
     5
 11
123.864410
 21
67.008522
  0
DIMENSION
  8
CSLAYER1
 62
     7
  2
*D0000
 10
126.700215
 20
182.154225
 11
104.072807
 21
183.154388
 13
81.445339
 23
176.154225
 14
126.700173
 24
176.154225
 50
359.999600
 52
-270.000000
 70
1
  0
DIMENSION
  8
CSLAYER1
 62
     7
  2
*D0001
 10
71.120043
 20
172.348584
 11
70.120041
 21
149.721161
 13
77.120043
 23
127.093750
 14
77.120043
 24
172.348584
 50
90.000000
 70
1
  0
TEXT
  8
CSLAYER1
 62
     7
 10
138.982224
 20
67.508606
 40
10.000000
 41
0.642857
  1
45x45
 50
0.000000
 51
0.000000
  7
SX_FONT
 72
     5
 11
168.982224
 21
67.508606
  0
TEXT
  8
CSLAYER1
 62
     7
 10
82.819534
 20
55.859234
 40
5.000000
 41
0.612766
  1
カタログ Vol. 1  P71
 50
0.000000
 51
0.000000
  7
SX_FONT
 72
     5
 11
130.819534
 21
55.859234
  0
TEXT
  8
CSLAYER1
 62
     7
 10
82.823401
 20
45.846831
 40
4.960742
 41
0.729057
  1
ホ%%dケットカタロク゛ Vol. 1 P44
 50
0.000000
 51
0.000000
  7
SX_FONT
 72
     5
 11
157.567758
 21
45.846831
  0
ENDSEC
  0
EOF
