  0
SECTION
  2
HEADER
  9
$ACADVER
  1
AC1006
  9
$INSBASE
 10
86.834961
 20
235.769531
 30
0.0
  9
$EXTMIN
 10
86.834961
 20
235.769531
  9
$EXTMAX
 10
296.834961
 20
532.769531
  9
$LIMMIN
 10
86.834961
 20
235.769531
  9
$LIMMAX
 10
296.834961
 20
532.769531
  9
$VIEWCTR
 10
191.834961
 20
384.269531
  9
$VIEWSIZE
 40
297.000000
  9
$SNAPMODE
 70
     0
  9
$SNAPUNIT
 10
1.0
 20
1.0
  9
$SNAPBASE
 10
0.0
 20
0.0
  9
$SNAPANG
 50
0.0
  9
$SNAPSTYLE
 70
     0
  9
$SNAPISOPAIR
 70
     0
  9
$GRIDMODE
 70
     0
  9
$GRIDUNIT
 10
0.0
 20
0.0
  9
$ORTHOMODE
 70
     0
  9
$REGENMODE
 70
     1
  9
$FILLMODE
 70
     1
  9
$QTEXTMODE
 70
     0
  9
$DRAGMODE
 70
     2
  9
$LTSCALE
 40
15.000000
  9
$OSMODE
 70
     0
  9
$ATTMODE
 70
     1
  9
$TEXTSIZE
 40
0.2
  9
$TRACEWID
 40
0.05
  9
$TEXTSTYLE
  7
STANDARD
  9
$CLAYER
  8
CSLAYER3
  9
$CELTYPE
  6
BYLAYER
  9
$CECOLOR
 62
   256
  9
$DIMSCALE
 40
1.0
  9
$DIMASZ
 40
0.18
  9
$DIMEXO
 40
0.0625
  9
$DIMDLI
 40
0.38
  9
$DIMRND
 40
0.0
  9
$DIMDLE
 40
0.0
  9
$DIMEXE
 40
0.18
  9
$DIMTP
 40
0.0
  9
$DIMTM
 40
0.0
  9
$DIMTXT
 40
0.18
  9
$DIMCEN
 40
0.09
  9
$DIMTSZ
 40
0.0
  9
$DIMTOL
 70
     0
  9
$DIMLIM
 70
     0
  9
$DIMTIH
 70
     1
  9
$DIMTOH
 70
     1
  9
$DIMSE1
 70
     0
  9
$DIMSE2
 70
     0
  9
$DIMTAD
 70
     0
  9
$DIMZIN
 70
     0
  9
$DIMBLK
  1

  9
$LUNITS
 70
     2
  9
$LUPREC
 70
     4
  9
$AXISMODE
 70
     0
  9
$AXISUNIT
 10
0.0
 20
0.0
  9
$SKETCHINC
 40
0.1
  9
$FILLETRAD
 40
0.0
  9
$AUNITS
 70
     0
  9
$AUPREC
 70
     0
  9
$MENU
  1
ACAD
  9
$ELEVATION
 40
0.0
  9
$THICKNESS
 40
0.0
  9
$VIEWDIR
 10
0.0
 20
0.0
 30
1.0
  9
$LIMCHECK
 70
     0
  9
$BLIPMODE
 70
     1
  9
$CHAMFERA
 40
0.0
  9
$CHAMFERB
 40
0.0
  9
$FASTZOOM
 70
     1
  9
$SKPOLY
 70
     0
  9
$TDCREATE
 40
0.000000
  9
$TDUPDATE
 40
0.000000
  9
$TDINDWG
 40
0.0
  9
$TDUSRTIMER
 40
0.0
  9
$USRTIMER
 70
     1
  9
$ANGBASE
 50
0.0
  9
$ANGDIR
 70
     0
  9
$PDMODE
 70
     0
  9
$PDSIZE
 40
0.0
  9
$PLINEWID
 40
0.0
  9
$COORDS
 70
     0
  9
$USERI1
 70
     0
  9
$USERI2
 70
     0
  9
$USERI3
 70
     0
  9
$USERI4
 70
     0
  9
$USERI5
 70
     0
  9
$USERR1
 40
0.0
  9
$USERR2
 40
0.0
  9
$USERR3
 40
0.0
  9
$USERR4
 40
0.0
  9
$USERR5
 40
0.0
  0
ENDSEC
  0
SECTION
  2
TABLES
  0
TABLE
  2
LTYPE
 70
     9
  0
LTYPE
  2
CONTINUOUS
 70
    64
  3
Solid line
 72
    65
 73
     0
 40
0.0
  0
LTYPE
  2
DASHED
 70
    64
  3
__ __ __ __ __ __ __ __ __ __ __ __ __ __ __
 72
    65
 73
     2
 40
0.75
 49
0.5
 49
-0.25
  0
LTYPE
  2
HIDDEN
 70
    64
  3
_ _ _ _ _ _ _ _ _ _ _ _ _ _ _ _ _ _ _ _ _ _ _
 72
    65
 73
     2
 40
0.375
 49
0.25
 49
-0.125
  0
LTYPE
  2
DOT
 70
    64
  3
...............................................
 72
    65
 73
     2
 40
0.25
 49
0.0
 49
-0.25
  0
LTYPE
  2
DASHDOT
 70
    64
  3
__ . __ . __ . __ . __ . __ . __ . __ . __ . __
 72
    65
 73
     4
 40
1.0
 49
0.5
 49
-0.25
 49
0.0
 49
-0.25
  0
LTYPE
  2
DIVIDE
 70
    64
  3
__ . . __ . . __ . . __ . . __ . . __ . . __
 72
    65
 73
     6
 40
1.25
 49
0.5
 49
-0.25
 49
0.0
 49
-0.25
 49
0.0
 49
-0.25
  0
LTYPE
  2
CENTER
 70
    64
  3
____ _ ____ _ ____ _ ____ _ ____ _ ____ _ ____ 
 72
    65
 73
     4
 40
2.0
 49
1.25
 49
-0.25
 49
0.25
 49
-0.25
  0
LTYPE
  2
PHANTOM
 70
    64
  3
______  __  __  ______  __  __  ______  __  __ 
 72
    65
 73
     6
 40
2.5
 49
1.25
 49
-0.25
 49
0.25
 49
-0.25
 49
0.25
 49
-0.25
  0
LTYPE
  2
BORDER
 70
    64
  3
__ __ . __ __ . __ __ . __ __ . __ __ . __ __ .
 72
    65
 73
     6
 40
1.75
 49
0.5
 49
-0.25
 49
0.5
 49
-0.25
 49
0.0
 49
-0.25
  0
ENDTAB
  0
TABLE
  2
LAYER
 70
    16
  0
LAYER
  2
CSLAYER1
 70
    64
 62
     7
  6
CONTINUOUS
  0
LAYER
  2
CSLAYER2
 70
    64
 62
     7
  6
CONTINUOUS
  0
LAYER
  2
CSLAYER3
 70
    64
 62
     7
  6
CONTINUOUS
  0
LAYER
  2
CSLAYER4
 70
    64
 62
     7
  6
CONTINUOUS
  0
LAYER
  2
CSLAYER5
 70
    64
 62
     7
  6
CONTINUOUS
  0
LAYER
  2
CSLAYER6
 70
    64
 62
     7
  6
CONTINUOUS
  0
LAYER
  2
CSLAYER7
 70
    64
 62
     7
  6
CONTINUOUS
  0
LAYER
  2
CSLAYER8
 70
    64
 62
     7
  6
CONTINUOUS
  0
LAYER
  2
CSLAYER9
 70
    64
 62
     7
  6
CONTINUOUS
  0
LAYER
  2
CSLAYER10
 70
    64
 62
     7
  6
CONTINUOUS
  0
LAYER
  2
CSLAYER11
 70
    64
 62
     7
  6
CONTINUOUS
  0
LAYER
  2
CSLAYER12
 70
    64
 62
     7
  6
CONTINUOUS
  0
LAYER
  2
CSLAYER13
 70
    64
 62
     7
  6
CONTINUOUS
  0
LAYER
  2
CSLAYER14
 70
    64
 62
     7
  6
CONTINUOUS
  0
LAYER
  2
CSLAYER15
 70
    64
 62
     7
  6
CONTINUOUS
  0
LAYER
  2
CSLAYER16
 70
    64
 62
     7
  6
CONTINUOUS
  0
ENDTAB
  0
TABLE
  2
STYLE
 70
     1
  0
STYLE
  2
SX_FONT
 70
     0
 40
1.0
 41
1.0
 50
0.0
 71
     0
 42
1.0
  3
monotxt
  4
bigfont
  0
ENDTAB
  0
TABLE
  2
VIEW
 70
     0
  0
ENDTAB
  0
ENDSEC
  0
SECTION
  2
BLOCKS
  0
BLOCK
  8
CSLAYER1
  2
*D0000
 70
    65
 10
0.0
 20
0.0
 30
0.0
  0
LINE
  8
CSLAYER1
  6
CONTINUOUS
 62
     7
 10
123.804688
 20
248.156250
 11
123.804688
 21
254.156250
  0
LINE
  8
CSLAYER1
  6
CONTINUOUS
 62
     7
 10
73.804688
 20
248.156250
 11
73.804688
 21
254.156250
  0
LINE
  8
CSLAYER1
  6
CONTINUOUS
 62
     7
 10
123.804688
 20
253.156250
 11
73.804688
 21
253.156250
  0
LINE
  8
CSLAYER1
  6
CONTINUOUS
 62
     7
 10
123.804688
 20
253.156250
 11
119.940984
 21
254.191526
  0
LINE
  8
CSLAYER1
  6
CONTINUOUS
 62
     7
 10
123.804688
 20
253.156250
 11
119.940984
 21
252.120974
  0
LINE
  8
CSLAYER1
  6
CONTINUOUS
 62
     7
 10
73.804688
 20
253.156250
 11
77.668391
 21
254.191526
  0
LINE
  8
CSLAYER1
  6
CONTINUOUS
 62
     7
 10
73.804688
 20
253.156250
 11
77.668391
 21
252.120974
  0
TEXT
  8
CSLAYER1
 62
     7
 10
95.804688
 20
254.156250
 40
4.000000
 41
0.900000
  1
50
 50
0.000000
 51
0.000000
  7
SX_FONT
 72
     5
 11
101.804688
 21
254.156250
  0
ENDBLK
  8
0
  0
BLOCK
  8
CSLAYER1
  2
*D0001
 70
    65
 10
0.0
 20
0.0
 30
0.0
  0
LINE
  8
CSLAYER1
  6
CONTINUOUS
 62
     7
 10
128.828491
 20
87.671875
 11
134.828491
 21
87.671875
  0
LINE
  8
CSLAYER1
  6
CONTINUOUS
 62
     7
 10
128.828491
 20
242.671875
 11
134.828491
 21
242.671875
  0
LINE
  8
CSLAYER1
  6
CONTINUOUS
 62
     7
 10
133.828491
 20
87.671875
 11
133.828491
 21
242.671875
  0
LINE
  8
CSLAYER1
  6
CONTINUOUS
 62
     7
 10
133.828491
 20
87.671875
 11
132.793215
 21
91.535578
  0
LINE
  8
CSLAYER1
  6
CONTINUOUS
 62
     7
 10
133.828491
 20
87.671875
 11
134.863767
 21
91.535578
  0
LINE
  8
CSLAYER1
  6
CONTINUOUS
 62
     7
 10
133.828491
 20
242.671875
 11
132.793215
 21
238.808172
  0
LINE
  8
CSLAYER1
  6
CONTINUOUS
 62
     7
 10
133.828491
 20
242.671875
 11
134.863767
 21
238.808172
  0
TEXT
  8
CSLAYER1
 62
     7
 10
139.367249
 20
160.703827
 40
4.000000
 41
0.843750
  1
155
 50
90.000000
 51
0.000000
  7
SX_FONT
 72
     5
 11
139.367249
 21
169.703827
  0
ENDBLK
  8
0
  0
ENDSEC
  0
SECTION
  2
ENTITIES
  0
ARC
  8
CSLAYER2
  6
CONTINUOUS
 62
     7
 10
86.304688
 20
226.671875
 40
7.000000
 50
90.000000
 51
180.000000
  0
ARC
  8
CSLAYER2
  6
CONTINUOUS
 62
     7
 10
109.304688
 20
237.921875
 40
4.750000
 50
0.000000
 51
90.000000
  0
ARC
  8
CSLAYER2
  6
CONTINUOUS
 62
     7
 10
109.304688
 20
237.921875
 40
4.750000
 50
90.000000
 51
180.000000
  0
LINE
  8
CSLAYER2
  6
CONTINUOUS
 62
     7
 10
102.554688
 20
237.921875
 11
104.554688
 21
237.921875
  0
LINE
  8
CSLAYER2
  6
CONTINUOUS
 62
     7
 10
88.232370
 20
233.401217
 11
94.264696
 21
231.673201
  0
ARC
  8
CSLAYER2
  6
CONTINUOUS
 62
     7
 10
96.054687
 20
237.921875
 40
6.500000
 50
254.015146
 51
270.000000
  0
ARC
  8
CSLAYER2
  6
CONTINUOUS
 62
     7
 10
96.054688
 20
237.921875
 40
6.500000
 50
-90.000000
 51
0.000000
  0
ARC
  8
CSLAYER2
  6
CONTINUOUS
 62
     7
 10
86.304688
 20
226.671875
 40
7.000000
 50
74.015146
 51
90.000000
  0
ARC
  8
CSLAYER2
  6
CONTINUOUS
 62
     7
 10
111.242490
 20
223.274907
 40
14.000000
 50
40.503508
 51
69.895810
  0
ARC
  8
CSLAYER2
  6
CONTINUOUS
 62
     7
 10
115.804687
 20
227.171875
 40
8.000000
 50
0.000000
 51
40.503508
  0
ARC
  8
CSLAYER2
  6
CONTINUOUS
 62
     7
 10
115.804688
 20
227.171875
 40
8.000000
 50
-40.503508
 51
0.000000
  0
ARC
  8
CSLAYER2
  6
CONTINUOUS
 62
     7
 10
118.304688
 20
193.171875
 40
5.000000
 50
0.000000
 51
58.870077
  0
ARC
  8
CSLAYER2
  6
CONTINUOUS
 62
     7
 10
117.304688
 20
200.171875
 40
4.500000
 50
-37.189098
 51
0.000000
  0
LINE
  8
CSLAYER2
  6
CONTINUOUS
 62
     7
 10
114.981623
 20
208.838095
 11
120.480635
 21
203.359877
  0
ARC
  8
CSLAYER2
  6
CONTINUOUS
 62
     7
 10
111.242490
 20
231.068843
 40
14.000000
 50
317.164695
 51
319.496492
  0
LINE
  8
CSLAYER2
  6
CONTINUOUS
 62
     7
 10
121.508845
 20
221.550337
 11
114.871443
 21
214.391448
  0
ARC
  8
CSLAYER2
  6
CONTINUOUS
 62
     7
 10
117.804688
 20
211.671875
 40
4.000000
 50
137.164695
 51
180.000000
  0
ARC
  8
CSLAYER2
  6
CONTINUOUS
 62
     7
 10
117.804688
 20
211.671875
 40
4.000000
 50
180.000000
 51
225.108533
  0
ARC
  8
CSLAYER2
  6
CONTINUOUS
 62
     7
 10
117.304688
 20
200.171875
 40
4.500000
 50
0.000000
 51
45.108533
  0
ARC
  8
CSLAYER2
  6
CONTINUOUS
 62
     7
 10
115.804688
 20
95.671875
 40
8.000000
 50
0.000000
 51
40.503508
  0
ARC
  8
CSLAYER2
  6
CONTINUOUS
 62
     7
 10
118.304688
 20
129.671875
 40
5.000000
 50
-58.870077
 51
0.000000
  0
ARC
  8
CSLAYER2
  6
CONTINUOUS
 62
     7
 10
117.304688
 20
122.671875
 40
4.500000
 50
0.000000
 51
37.189098
  0
LINE
  8
CSLAYER2
  6
CONTINUOUS
 62
     7
 10
114.981623
 20
114.005655
 11
120.480635
 21
119.483873
  0
ARC
  8
CSLAYER2
  6
CONTINUOUS
 62
     7
 10
111.242490
 20
91.774907
 40
14.000000
 50
40.503508
 51
42.835305
  0
LINE
  8
CSLAYER2
  6
CONTINUOUS
 62
     7
 10
121.508845
 20
101.293413
 11
114.871443
 21
108.452302
  0
ARC
  8
CSLAYER2
  6
CONTINUOUS
 62
     7
 10
117.804687
 20
111.171875
 40
4.000000
 50
180.000000
 51
222.835305
  0
ARC
  8
CSLAYER2
  6
CONTINUOUS
 62
     7
 10
117.804688
 20
111.171875
 40
4.000000
 50
134.891467
 51
180.000000
  0
ARC
  8
CSLAYER2
  6
CONTINUOUS
 62
     7
 10
117.304688
 20
122.671875
 40
4.500000
 50
-45.108533
 51
0.000000
  0
LINE
  8
CSLAYER2
  6
CONTINUOUS
 62
     7
 10
118.804688
 20
87.671875
 11
121.064961
 21
89.644478
  0
ARC
  8
CSLAYER2
  6
CONTINUOUS
 62
     7
 10
115.804688
 20
95.671875
 40
8.000000
 50
-48.887910
 51
0.000000
  0
ARC
  8
CSLAYER2
  6
CONTINUOUS
 62
     7
 10
118.304688
 20
193.171875
 40
5.000000
 50
-39.897349
 51
0.000000
  0
ARC
  8
CSLAYER2
  6
CONTINUOUS
 62
     7
 10
118.304688
 20
129.671875
 40
5.000000
 50
0.000000
 51
39.897349
  0
ARC
  8
CSLAYER2
  6
CONTINUOUS
 62
     7
 10
156.280831
 20
161.421875
 40
44.500000
 50
180.000000
 51
219.897349
  0
ARC
  8
CSLAYER2
  6
CONTINUOUS
 62
     7
 10
156.280831
 20
161.421875
 40
44.500000
 50
140.102651
 51
180.000000
  0
LINE
  8
CSLAYER2
  6
CONTINUOUS
 62
     7
 10
114.054688
 20
237.921875
 11
116.054688
 21
237.921875
  0
LINE
  8
CSLAYER2
  6
CONTINUOUS
 62
     7
 10
116.054688
 20
237.921875
 11
116.054688
 21
236.421875
  0
LINE
  8
CSLAYER2
  6
CONTINUOUS
 62
     7
 10
118.804688
 20
87.671875
 11
92.804688
 21
87.671875
  0
LINE
  8
CSLAYER2
  6
CONTINUOUS
 62
     7
 10
92.804688
 20
87.671875
 11
92.804688
 21
219.671875
  0
LINE
  8
CSLAYER2
  6
CONTINUOUS
 62
     7
 10
92.804688
 20
219.671875
 11
73.804688
 21
219.671875
  0
LINE
  8
CSLAYER2
  6
CONTINUOUS
 62
     7
 10
73.804688
 20
219.671875
 11
73.804688
 21
226.671875
  0
LINE
  8
CSLAYER2
  6
CONTINUOUS
 62
     7
 10
73.804688
 20
226.671875
 11
79.304688
 21
226.671875
  0
TEXT
  8
CSLAYER1
 62
     7
 10
75.759041
 20
54.161777
 40
10.000000
 41
0.630000
  1
FM-2192
 50
360.000000
 51
0.000000
  7
SX_FONT
 72
     5
 11
117.759041
 21
54.161777
  0
DIMENSION
  8
CSLAYER1
 62
     7
  2
*D0000
 10
73.804688
 20
253.156250
 11
98.804688
 21
254.156250
 13
123.804688
 23
247.156250
 14
73.804688
 24
247.156250
 50
180.000000
 70
1
  0
DIMENSION
  8
CSLAYER1
 62
     7
  2
*D0001
 10
133.828491
 20
242.671875
 11
139.367249
 21
165.203827
 13
127.828491
 23
87.671875
 14
127.828491
 24
242.671875
 50
90.000000
 70
1
  0
TEXT
  8
CSLAYER1
 62
     7
 10
130.206573
 20
53.995384
 40
10.000000
 41
0.635294
  1
50x155
 50
0.000000
 51
0.000000
  7
SX_FONT
 72
     5
 11
166.206573
 21
53.995384
  0
TEXT
  8
CSLAYER1
 62
     7
 10
76.462067
 20
42.467960
 40
5.000000
 41
0.612766
  1
カタログ Vol. 1  P69
 50
0.000000
 51
0.000000
  7
SX_FONT
 72
     5
 11
124.462067
 21
42.467960
  0
TEXT
  8
CSLAYER1
 62
     7
 10
76.425398
 20
31.251185
 40
4.960742
 41
0.729057
  1
ホ%%dケットカタロク゛ Vol. 1 P42
 50
0.000000
 51
0.000000
  7
SX_FONT
 72
     5
 11
151.169756
 21
31.251185
  0
ENDSEC
  0
EOF
