  0
SECTION
  2
HEADER
  9
$ACADVER
  1
AC1006
  9
$INSBASE
 10
88.087769
 20
200.811768
 30
0.0
  9
$EXTMIN
 10
88.087769
 20
200.811768
  9
$EXTMAX
 10
298.087769
 20
497.811768
  9
$LIMMIN
 10
88.087769
 20
200.811768
  9
$LIMMAX
 10
298.087769
 20
497.811768
  9
$VIEWCTR
 10
193.087769
 20
349.311768
  9
$VIEWSIZE
 40
297.000000
  9
$SNAPMODE
 70
     0
  9
$SNAPUNIT
 10
1.0
 20
1.0
  9
$SNAPBASE
 10
0.0
 20
0.0
  9
$SNAPANG
 50
0.0
  9
$SNAPSTYLE
 70
     0
  9
$SNAPISOPAIR
 70
     0
  9
$GRIDMODE
 70
     0
  9
$GRIDUNIT
 10
0.0
 20
0.0
  9
$ORTHOMODE
 70
     0
  9
$REGENMODE
 70
     1
  9
$FILLMODE
 70
     1
  9
$QTEXTMODE
 70
     0
  9
$DRAGMODE
 70
     2
  9
$LTSCALE
 40
15.000000
  9
$OSMODE
 70
     0
  9
$ATTMODE
 70
     1
  9
$TEXTSIZE
 40
0.2
  9
$TRACEWID
 40
0.05
  9
$TEXTSTYLE
  7
STANDARD
  9
$CLAYER
  8
CSLAYER3
  9
$CELTYPE
  6
BYLAYER
  9
$CECOLOR
 62
   256
  9
$DIMSCALE
 40
1.0
  9
$DIMASZ
 40
0.18
  9
$DIMEXO
 40
0.0625
  9
$DIMDLI
 40
0.38
  9
$DIMRND
 40
0.0
  9
$DIMDLE
 40
0.0
  9
$DIMEXE
 40
0.18
  9
$DIMTP
 40
0.0
  9
$DIMTM
 40
0.0
  9
$DIMTXT
 40
0.18
  9
$DIMCEN
 40
0.09
  9
$DIMTSZ
 40
0.0
  9
$DIMTOL
 70
     0
  9
$DIMLIM
 70
     0
  9
$DIMTIH
 70
     1
  9
$DIMTOH
 70
     1
  9
$DIMSE1
 70
     0
  9
$DIMSE2
 70
     0
  9
$DIMTAD
 70
     0
  9
$DIMZIN
 70
     0
  9
$DIMBLK
  1

  9
$LUNITS
 70
     2
  9
$LUPREC
 70
     4
  9
$AXISMODE
 70
     0
  9
$AXISUNIT
 10
0.0
 20
0.0
  9
$SKETCHINC
 40
0.1
  9
$FILLETRAD
 40
0.0
  9
$AUNITS
 70
     0
  9
$AUPREC
 70
     0
  9
$MENU
  1
ACAD
  9
$ELEVATION
 40
0.0
  9
$THICKNESS
 40
0.0
  9
$VIEWDIR
 10
0.0
 20
0.0
 30
1.0
  9
$LIMCHECK
 70
     0
  9
$BLIPMODE
 70
     1
  9
$CHAMFERA
 40
0.0
  9
$CHAMFERB
 40
0.0
  9
$FASTZOOM
 70
     1
  9
$SKPOLY
 70
     0
  9
$TDCREATE
 40
0.000000
  9
$TDUPDATE
 40
0.000000
  9
$TDINDWG
 40
0.0
  9
$TDUSRTIMER
 40
0.0
  9
$USRTIMER
 70
     1
  9
$ANGBASE
 50
0.0
  9
$ANGDIR
 70
     0
  9
$PDMODE
 70
     0
  9
$PDSIZE
 40
0.0
  9
$PLINEWID
 40
0.0
  9
$COORDS
 70
     0
  9
$USERI1
 70
     0
  9
$USERI2
 70
     0
  9
$USERI3
 70
     0
  9
$USERI4
 70
     0
  9
$USERI5
 70
     0
  9
$USERR1
 40
0.0
  9
$USERR2
 40
0.0
  9
$USERR3
 40
0.0
  9
$USERR4
 40
0.0
  9
$USERR5
 40
0.0
  0
ENDSEC
  0
SECTION
  2
TABLES
  0
TABLE
  2
LTYPE
 70
     9
  0
LTYPE
  2
CONTINUOUS
 70
    64
  3
Solid line
 72
    65
 73
     0
 40
0.0
  0
LTYPE
  2
DASHED
 70
    64
  3
__ __ __ __ __ __ __ __ __ __ __ __ __ __ __
 72
    65
 73
     2
 40
0.75
 49
0.5
 49
-0.25
  0
LTYPE
  2
HIDDEN
 70
    64
  3
_ _ _ _ _ _ _ _ _ _ _ _ _ _ _ _ _ _ _ _ _ _ _
 72
    65
 73
     2
 40
0.375
 49
0.25
 49
-0.125
  0
LTYPE
  2
DOT
 70
    64
  3
...............................................
 72
    65
 73
     2
 40
0.25
 49
0.0
 49
-0.25
  0
LTYPE
  2
DASHDOT
 70
    64
  3
__ . __ . __ . __ . __ . __ . __ . __ . __ . __
 72
    65
 73
     4
 40
1.0
 49
0.5
 49
-0.25
 49
0.0
 49
-0.25
  0
LTYPE
  2
DIVIDE
 70
    64
  3
__ . . __ . . __ . . __ . . __ . . __ . . __
 72
    65
 73
     6
 40
1.25
 49
0.5
 49
-0.25
 49
0.0
 49
-0.25
 49
0.0
 49
-0.25
  0
LTYPE
  2
CENTER
 70
    64
  3
____ _ ____ _ ____ _ ____ _ ____ _ ____ _ ____ 
 72
    65
 73
     4
 40
2.0
 49
1.25
 49
-0.25
 49
0.25
 49
-0.25
  0
LTYPE
  2
PHANTOM
 70
    64
  3
______  __  __  ______  __  __  ______  __  __ 
 72
    65
 73
     6
 40
2.5
 49
1.25
 49
-0.25
 49
0.25
 49
-0.25
 49
0.25
 49
-0.25
  0
LTYPE
  2
BORDER
 70
    64
  3
__ __ . __ __ . __ __ . __ __ . __ __ . __ __ .
 72
    65
 73
     6
 40
1.75
 49
0.5
 49
-0.25
 49
0.5
 49
-0.25
 49
0.0
 49
-0.25
  0
ENDTAB
  0
TABLE
  2
LAYER
 70
    16
  0
LAYER
  2
CSLAYER1
 70
    64
 62
     7
  6
CONTINUOUS
  0
LAYER
  2
CSLAYER2
 70
    64
 62
     7
  6
CONTINUOUS
  0
LAYER
  2
CSLAYER3
 70
    64
 62
     7
  6
CONTINUOUS
  0
LAYER
  2
CSLAYER4
 70
    64
 62
     7
  6
CONTINUOUS
  0
LAYER
  2
CSLAYER5
 70
    64
 62
     7
  6
CONTINUOUS
  0
LAYER
  2
CSLAYER6
 70
    64
 62
     7
  6
CONTINUOUS
  0
LAYER
  2
CSLAYER7
 70
    64
 62
     7
  6
CONTINUOUS
  0
LAYER
  2
CSLAYER8
 70
    64
 62
     7
  6
CONTINUOUS
  0
LAYER
  2
CSLAYER9
 70
    64
 62
     7
  6
CONTINUOUS
  0
LAYER
  2
CSLAYER10
 70
    64
 62
     7
  6
CONTINUOUS
  0
LAYER
  2
CSLAYER11
 70
    64
 62
     7
  6
CONTINUOUS
  0
LAYER
  2
CSLAYER12
 70
    64
 62
     7
  6
CONTINUOUS
  0
LAYER
  2
CSLAYER13
 70
    64
 62
     7
  6
CONTINUOUS
  0
LAYER
  2
CSLAYER14
 70
    64
 62
     7
  6
CONTINUOUS
  0
LAYER
  2
CSLAYER15
 70
    64
 62
     7
  6
CONTINUOUS
  0
LAYER
  2
CSLAYER16
 70
    64
 62
     7
  6
CONTINUOUS
  0
ENDTAB
  0
TABLE
  2
STYLE
 70
     1
  0
STYLE
  2
SX_FONT
 70
     0
 40
1.0
 41
1.0
 50
0.0
 71
     0
 42
1.0
  3
monotxt
  4
bigfont
  0
ENDTAB
  0
TABLE
  2
VIEW
 70
     0
  0
ENDTAB
  0
ENDSEC
  0
SECTION
  2
BLOCKS
  0
BLOCK
  8
CSLAYER1
  2
*D0000
 70
    65
 10
0.0
 20
0.0
 30
0.0
  0
LINE
  8
CSLAYER1
  6
CONTINUOUS
 62
     7
 10
131.992188
 20
210.160645
 11
131.992188
 21
216.160645
  0
LINE
  8
CSLAYER1
  6
CONTINUOUS
 62
     7
 10
71.992188
 20
210.160645
 11
71.992188
 21
216.160645
  0
LINE
  8
CSLAYER1
  6
CONTINUOUS
 62
     7
 10
131.992188
 20
215.160645
 11
71.992188
 21
215.160645
  0
LINE
  8
CSLAYER1
  6
CONTINUOUS
 62
     7
 10
131.992188
 20
215.160645
 11
128.128484
 21
216.195921
  0
LINE
  8
CSLAYER1
  6
CONTINUOUS
 62
     7
 10
131.992188
 20
215.160645
 11
128.128484
 21
214.125368
  0
LINE
  8
CSLAYER1
  6
CONTINUOUS
 62
     7
 10
71.992188
 20
215.160645
 11
75.855891
 21
216.195921
  0
LINE
  8
CSLAYER1
  6
CONTINUOUS
 62
     7
 10
71.992188
 20
215.160645
 11
75.855891
 21
214.125368
  0
TEXT
  8
CSLAYER1
 62
     7
 10
98.992188
 20
216.160645
 40
4.000000
 41
0.900000
  1
60
 50
0.000000
 51
0.000000
  7
SX_FONT
 72
     5
 11
104.992188
 21
216.160645
  0
ENDBLK
  8
0
  0
BLOCK
  8
CSLAYER1
  2
*D0001
 70
    65
 10
0.0
 20
0.0
 30
0.0
  0
LINE
  8
CSLAYER1
  6
CONTINUOUS
 62
     7
 10
137.492920
 20
114.843750
 11
143.492920
 21
114.843750
  0
LINE
  8
CSLAYER1
  6
CONTINUOUS
 62
     7
 10
137.492920
 20
204.843750
 11
143.492920
 21
204.843750
  0
LINE
  8
CSLAYER1
  6
CONTINUOUS
 62
     7
 10
142.492920
 20
114.843750
 11
142.492920
 21
204.843750
  0
LINE
  8
CSLAYER1
  6
CONTINUOUS
 62
     7
 10
142.492920
 20
114.843750
 11
141.457644
 21
118.707453
  0
LINE
  8
CSLAYER1
  6
CONTINUOUS
 62
     7
 10
142.492920
 20
114.843750
 11
143.528196
 21
118.707453
  0
LINE
  8
CSLAYER1
  6
CONTINUOUS
 62
     7
 10
142.492920
 20
204.843750
 11
141.457644
 21
200.980047
  0
LINE
  8
CSLAYER1
  6
CONTINUOUS
 62
     7
 10
142.492920
 20
204.843750
 11
143.528196
 21
200.980047
  0
TEXT
  8
CSLAYER1
 62
     7
 10
147.998291
 20
156.317383
 40
4.000000
 41
0.900000
  1
90
 50
90.000000
 51
0.000000
  7
SX_FONT
 72
     5
 11
147.998291
 21
162.317383
  0
ENDBLK
  8
0
  0
ENDSEC
  0
SECTION
  2
ENTITIES
  0
DIMENSION
  8
CSLAYER1
 62
     7
  2
*D0000
 10
71.992188
 20
215.160645
 11
101.992188
 21
216.160645
 13
131.992188
 23
209.160645
 14
71.992188
 24
209.160645
 50
180.000000
 70
1
  0
TEXT
  8
CSLAYER1
 62
     7
 10
72.311607
 20
54.853680
 40
10.000000
 41
0.630000
  1
FM-2191
 50
0.000000
 51
0.000000
  7
SX_FONT
 72
     5
 11
114.311607
 21
54.853680
  0
DIMENSION
  8
CSLAYER1
 62
     7
  2
*D0001
 10
142.492920
 20
204.843750
 11
147.998291
 21
159.317383
 13
136.492920
 23
114.843750
 14
136.492920
 24
204.843750
 50
90.000000
 70
1
  0
TEXT
  8
CSLAYER1
 62
     7
 10
128.929688
 20
54.812500
 40
10.000000
 41
0.642857
  1
60x90
 50
0.000000
 51
0.000000
  7
SX_FONT
 72
     5
 11
158.929688
 21
54.812500
  0
TEXT
  8
CSLAYER1
 62
     7
 10
72.722916
 20
43.092979
 40
5.000000
 41
0.612766
  1
カタログ Vol. 1  P69
 50
0.000000
 51
0.000000
  7
SX_FONT
 72
     5
 11
120.722916
 21
43.092979
  0
TEXT
  8
CSLAYER1
 62
     7
 10
72.597639
 20
32.691336
 40
4.960742
 41
0.729057
  1
ホ%%dケットカタロク゛ Vol. 1 P42
 50
0.000000
 51
0.000000
  7
SX_FONT
 72
     5
 11
147.341997
 21
32.691336
  0
ARC
  8
CSLAYER2
  6
CONTINUOUS
 62
     7
 10
123.992188
 20
122.843750
 40
8.000000
 50
-90.000000
 51
39.008110
  0
ARC
  8
CSLAYER2
  6
CONTINUOUS
 62
     7
 10
124.992188
 20
130.843750
 40
6.000000
 50
-29.609947
 51
50.522310
  0
ARC
  8
CSLAYER2
  6
CONTINUOUS
 62
     7
 10
155.509517
 20
167.893616
 40
42.000000
 50
158.039881
 51
230.522310
  0
LINE
  8
CSLAYER2
  6
CONTINUOUS
 62
     7
 10
88.992187
 20
114.843750
 11
88.992187
 21
182.843750
  0
LINE
  8
CSLAYER2
  6
CONTINUOUS
 62
     7
 10
123.992188
 20
114.843750
 11
88.992187
 21
114.843750
  0
ARC
  8
CSLAYER2
  6
CONTINUOUS
 62
     7
 10
88.993245
 20
200.965418
 40
7.000000
 50
240.909260
 51
359.004086
  0
ARC
  8
CSLAYER2
  6
CONTINUOUS
 62
     7
 10
105.992187
 20
192.843750
 40
8.000000
 50
-12.285707
 51
90.000000
  0
ARC
  8
CSLAYER2
  6
CONTINUOUS
 62
     7
 10
81.992187
 20
188.843750
 40
7.000000
 50
59.072241
 51
180.000000
  0
ARC
  8
CSLAYER2
  6
CONTINUOUS
 62
     7
 10
110.992188
 20
185.843750
 40
6.000000
 50
-21.960119
 51
62.000432
  0
LINE
  8
CSLAYER2
  6
CONTINUOUS
 62
     7
 10
71.992187
 20
182.843750
 11
88.992187
 21
182.843750
  0
LINE
  8
CSLAYER2
  6
CONTINUOUS
 62
     7
 10
71.992187
 20
182.843750
 11
71.992187
 21
188.843750
  0
LINE
  8
CSLAYER2
  6
CONTINUOUS
 62
     7
 10
71.992187
 20
188.843750
 11
74.992187
 21
188.843750
  0
ARC
  8
CSLAYER2
  6
CONTINUOUS
 62
     7
 10
101.992187
 20
200.843750
 40
4.000000
 50
0.000000
 51
180.000000
  0
LINE
  8
CSLAYER2
  6
CONTINUOUS
 62
     7
 10
97.992187
 20
200.843750
 11
95.992187
 21
200.843750
  0
ENDSEC
  0
EOF
