  0
SECTION
  2
HEADER
  9
$ACADVER
  1
AC1006
  9
$INSBASE
 10
89.273438
 20
249.562500
 30
0.0
  9
$EXTMIN
 10
89.273438
 20
249.562500
  9
$EXTMAX
 10
299.273438
 20
546.562500
  9
$LIMMIN
 10
89.273438
 20
249.562500
  9
$LIMMAX
 10
299.273438
 20
546.562500
  9
$VIEWCTR
 10
194.273438
 20
398.062500
  9
$VIEWSIZE
 40
297.000000
  9
$SNAPMODE
 70
     0
  9
$SNAPUNIT
 10
1.0
 20
1.0
  9
$SNAPBASE
 10
0.0
 20
0.0
  9
$SNAPANG
 50
0.0
  9
$SNAPSTYLE
 70
     0
  9
$SNAPISOPAIR
 70
     0
  9
$GRIDMODE
 70
     0
  9
$GRIDUNIT
 10
0.0
 20
0.0
  9
$ORTHOMODE
 70
     0
  9
$REGENMODE
 70
     1
  9
$FILLMODE
 70
     1
  9
$QTEXTMODE
 70
     0
  9
$DRAGMODE
 70
     2
  9
$LTSCALE
 40
15.000000
  9
$OSMODE
 70
     0
  9
$ATTMODE
 70
     1
  9
$TEXTSIZE
 40
0.2
  9
$TRACEWID
 40
0.05
  9
$TEXTSTYLE
  7
STANDARD
  9
$CLAYER
  8
CSLAYER3
  9
$CELTYPE
  6
BYLAYER
  9
$CECOLOR
 62
   256
  9
$DIMSCALE
 40
1.0
  9
$DIMASZ
 40
0.18
  9
$DIMEXO
 40
0.0625
  9
$DIMDLI
 40
0.38
  9
$DIMRND
 40
0.0
  9
$DIMDLE
 40
0.0
  9
$DIMEXE
 40
0.18
  9
$DIMTP
 40
0.0
  9
$DIMTM
 40
0.0
  9
$DIMTXT
 40
0.18
  9
$DIMCEN
 40
0.09
  9
$DIMTSZ
 40
0.0
  9
$DIMTOL
 70
     0
  9
$DIMLIM
 70
     0
  9
$DIMTIH
 70
     1
  9
$DIMTOH
 70
     1
  9
$DIMSE1
 70
     0
  9
$DIMSE2
 70
     0
  9
$DIMTAD
 70
     0
  9
$DIMZIN
 70
     0
  9
$DIMBLK
  1

  9
$LUNITS
 70
     2
  9
$LUPREC
 70
     4
  9
$AXISMODE
 70
     0
  9
$AXISUNIT
 10
0.0
 20
0.0
  9
$SKETCHINC
 40
0.1
  9
$FILLETRAD
 40
0.0
  9
$AUNITS
 70
     0
  9
$AUPREC
 70
     0
  9
$MENU
  1
ACAD
  9
$ELEVATION
 40
0.0
  9
$THICKNESS
 40
0.0
  9
$VIEWDIR
 10
0.0
 20
0.0
 30
1.0
  9
$LIMCHECK
 70
     0
  9
$BLIPMODE
 70
     1
  9
$CHAMFERA
 40
0.0
  9
$CHAMFERB
 40
0.0
  9
$FASTZOOM
 70
     1
  9
$SKPOLY
 70
     0
  9
$TDCREATE
 40
0.000000
  9
$TDUPDATE
 40
0.000000
  9
$TDINDWG
 40
0.0
  9
$TDUSRTIMER
 40
0.0
  9
$USRTIMER
 70
     1
  9
$ANGBASE
 50
0.0
  9
$ANGDIR
 70
     0
  9
$PDMODE
 70
     0
  9
$PDSIZE
 40
0.0
  9
$PLINEWID
 40
0.0
  9
$COORDS
 70
     0
  9
$USERI1
 70
     0
  9
$USERI2
 70
     0
  9
$USERI3
 70
     0
  9
$USERI4
 70
     0
  9
$USERI5
 70
     0
  9
$USERR1
 40
0.0
  9
$USERR2
 40
0.0
  9
$USERR3
 40
0.0
  9
$USERR4
 40
0.0
  9
$USERR5
 40
0.0
  0
ENDSEC
  0
SECTION
  2
TABLES
  0
TABLE
  2
LTYPE
 70
     9
  0
LTYPE
  2
CONTINUOUS
 70
    64
  3
Solid line
 72
    65
 73
     0
 40
0.0
  0
LTYPE
  2
DASHED
 70
    64
  3
__ __ __ __ __ __ __ __ __ __ __ __ __ __ __
 72
    65
 73
     2
 40
0.75
 49
0.5
 49
-0.25
  0
LTYPE
  2
HIDDEN
 70
    64
  3
_ _ _ _ _ _ _ _ _ _ _ _ _ _ _ _ _ _ _ _ _ _ _
 72
    65
 73
     2
 40
0.375
 49
0.25
 49
-0.125
  0
LTYPE
  2
DOT
 70
    64
  3
...............................................
 72
    65
 73
     2
 40
0.25
 49
0.0
 49
-0.25
  0
LTYPE
  2
DASHDOT
 70
    64
  3
__ . __ . __ . __ . __ . __ . __ . __ . __ . __
 72
    65
 73
     4
 40
1.0
 49
0.5
 49
-0.25
 49
0.0
 49
-0.25
  0
LTYPE
  2
DIVIDE
 70
    64
  3
__ . . __ . . __ . . __ . . __ . . __ . . __
 72
    65
 73
     6
 40
1.25
 49
0.5
 49
-0.25
 49
0.0
 49
-0.25
 49
0.0
 49
-0.25
  0
LTYPE
  2
CENTER
 70
    64
  3
____ _ ____ _ ____ _ ____ _ ____ _ ____ _ ____ 
 72
    65
 73
     4
 40
2.0
 49
1.25
 49
-0.25
 49
0.25
 49
-0.25
  0
LTYPE
  2
PHANTOM
 70
    64
  3
______  __  __  ______  __  __  ______  __  __ 
 72
    65
 73
     6
 40
2.5
 49
1.25
 49
-0.25
 49
0.25
 49
-0.25
 49
0.25
 49
-0.25
  0
LTYPE
  2
BORDER
 70
    64
  3
__ __ . __ __ . __ __ . __ __ . __ __ . __ __ .
 72
    65
 73
     6
 40
1.75
 49
0.5
 49
-0.25
 49
0.5
 49
-0.25
 49
0.0
 49
-0.25
  0
ENDTAB
  0
TABLE
  2
LAYER
 70
    16
  0
LAYER
  2
CSLAYER1
 70
    64
 62
     7
  6
CONTINUOUS
  0
LAYER
  2
CSLAYER2
 70
    64
 62
     7
  6
CONTINUOUS
  0
LAYER
  2
CSLAYER3
 70
    64
 62
     7
  6
CONTINUOUS
  0
LAYER
  2
CSLAYER4
 70
    64
 62
     7
  6
CONTINUOUS
  0
LAYER
  2
CSLAYER5
 70
    64
 62
     7
  6
CONTINUOUS
  0
LAYER
  2
CSLAYER6
 70
    64
 62
     7
  6
CONTINUOUS
  0
LAYER
  2
CSLAYER7
 70
    64
 62
     7
  6
CONTINUOUS
  0
LAYER
  2
CSLAYER8
 70
    64
 62
     7
  6
CONTINUOUS
  0
LAYER
  2
CSLAYER9
 70
    64
 62
     7
  6
CONTINUOUS
  0
LAYER
  2
CSLAYER10
 70
    64
 62
     7
  6
CONTINUOUS
  0
LAYER
  2
CSLAYER11
 70
    64
 62
     7
  6
CONTINUOUS
  0
LAYER
  2
CSLAYER12
 70
    64
 62
     7
  6
CONTINUOUS
  0
LAYER
  2
CSLAYER13
 70
    64
 62
     7
  6
CONTINUOUS
  0
LAYER
  2
CSLAYER14
 70
    64
 62
     7
  6
CONTINUOUS
  0
LAYER
  2
CSLAYER15
 70
    64
 62
     7
  6
CONTINUOUS
  0
LAYER
  2
CSLAYER16
 70
    64
 62
     7
  6
CONTINUOUS
  0
ENDTAB
  0
TABLE
  2
STYLE
 70
     1
  0
STYLE
  2
SX_FONT
 70
     0
 40
1.0
 41
1.0
 50
0.0
 71
     0
 42
1.0
  3
monotxt
  4
bigfont
  0
ENDTAB
  0
TABLE
  2
VIEW
 70
     0
  0
ENDTAB
  0
ENDSEC
  0
SECTION
  2
BLOCKS
  0
BLOCK
  8
CSLAYER1
  2
*D0000
 70
    65
 10
0.0
 20
0.0
 30
0.0
  0
LINE
  8
CSLAYER1
  6
CONTINUOUS
 62
     7
 10
59.634957
 20
195.470528
 11
59.634957
 21
200.686523
  0
LINE
  8
CSLAYER1
  6
CONTINUOUS
 62
     7
 10
87.634957
 20
195.470528
 11
87.634957
 21
200.686523
  0
LINE
  8
CSLAYER1
  6
CONTINUOUS
 62
     7
 10
59.634957
 20
199.686523
 11
87.634957
 21
199.686523
  0
LINE
  8
CSLAYER1
  6
CONTINUOUS
 62
     7
 10
59.634957
 20
199.686523
 11
63.498660
 21
200.721800
  0
LINE
  8
CSLAYER1
  6
CONTINUOUS
 62
     7
 10
59.634957
 20
199.686523
 11
63.498660
 21
198.651247
  0
LINE
  8
CSLAYER1
  6
CONTINUOUS
 62
     7
 10
87.634957
 20
199.686523
 11
83.771254
 21
200.721800
  0
LINE
  8
CSLAYER1
  6
CONTINUOUS
 62
     7
 10
87.634957
 20
199.686523
 11
83.771254
 21
198.651247
  0
TEXT
  8
CSLAYER1
 62
     7
 10
70.634956
 20
200.686523
 40
4.000000
 41
0.900000
  1
28
 50
0.000000
 51
0.000000
  7
SX_FONT
 72
     5
 11
76.634956
 21
200.686523
  0
ENDBLK
  8
0
  0
BLOCK
  8
CSLAYER1
  2
*D0001
 70
    65
 10
0.0
 20
0.0
 30
0.0
  0
LINE
  8
CSLAYER1
  6
CONTINUOUS
 62
     7
 10
93.634957
 20
161.470528
 11
98.561035
 21
161.470528
  0
LINE
  8
CSLAYER1
  6
CONTINUOUS
 62
     7
 10
93.634957
 20
189.470528
 11
98.561035
 21
189.470528
  0
LINE
  8
CSLAYER1
  6
CONTINUOUS
 62
     7
 10
97.561035
 20
161.470528
 11
97.561035
 21
189.470528
  0
LINE
  8
CSLAYER1
  6
CONTINUOUS
 62
     7
 10
97.561035
 20
161.470528
 11
96.525759
 21
165.334231
  0
LINE
  8
CSLAYER1
  6
CONTINUOUS
 62
     7
 10
97.561035
 20
161.470528
 11
98.596311
 21
165.334231
  0
LINE
  8
CSLAYER1
  6
CONTINUOUS
 62
     7
 10
97.561035
 20
189.470528
 11
96.525759
 21
185.606825
  0
LINE
  8
CSLAYER1
  6
CONTINUOUS
 62
     7
 10
97.561035
 20
189.470528
 11
98.596311
 21
185.606825
  0
TEXT
  8
CSLAYER1
 62
     7
 10
102.674316
 20
172.215820
 40
4.000000
 41
0.900000
  1
28
 50
90.000000
 51
0.000000
  7
SX_FONT
 72
     5
 11
102.674316
 21
178.215820
  0
ENDBLK
  8
0
  0
ENDSEC
  0
SECTION
  2
ENTITIES
  0
LINE
  8
CSLAYER2
  6
CONTINUOUS
 62
     7
 10
87.634957
 20
165.470528
 11
87.634957
 21
182.470528
  0
LINE
  8
CSLAYER2
  6
CONTINUOUS
 62
     7
 10
82.634957
 20
176.470528
 11
82.634957
 21
180.470528
  0
LINE
  8
CSLAYER2
  6
CONTINUOUS
 62
     7
 10
79.634957
 20
173.470528
 11
82.634957
 21
176.470528
  0
LINE
  8
CSLAYER2
  6
CONTINUOUS
 62
     7
 10
83.634957
 20
161.470528
 11
79.634957
 21
161.470528
  0
LINE
  8
CSLAYER2
  6
CONTINUOUS
 62
     7
 10
83.634957
 20
161.470528
 11
87.634957
 21
165.470528
  0
LINE
  8
CSLAYER2
  6
CONTINUOUS
 62
     7
 10
79.634957
 20
161.470528
 11
79.634957
 21
173.470528
  0
LINE
  8
CSLAYER2
  6
CONTINUOUS
 62
     7
 10
74.634957
 20
184.470528
 11
78.634957
 21
184.470528
  0
LINE
  8
CSLAYER2
  6
CONTINUOUS
 62
     7
 10
80.634957
 20
189.470528
 11
63.634957
 21
189.470528
  0
LINE
  8
CSLAYER2
  6
CONTINUOUS
 62
     7
 10
87.634957
 20
182.470528
 11
80.634957
 21
189.470528
  0
ARC
  8
CSLAYER2
  6
CONTINUOUS
 62
     7
 10
78.634957
 20
180.470528
 40
4.000000
 50
0.000000
 51
90.000000
  0
LINE
  8
CSLAYER2
  6
CONTINUOUS
 62
     7
 10
59.634957
 20
185.470528
 11
59.634957
 21
181.470528
  0
LINE
  8
CSLAYER2
  6
CONTINUOUS
 62
     7
 10
59.634957
 20
181.470528
 11
71.634957
 21
181.470528
  0
LINE
  8
CSLAYER2
  6
CONTINUOUS
 62
     7
 10
71.634957
 20
181.470528
 11
74.634957
 21
184.470528
  0
LINE
  8
CSLAYER2
  6
CONTINUOUS
 62
     7
 10
59.634957
 20
185.470528
 11
63.634957
 21
189.470528
  0
DIMENSION
  8
CSLAYER1
 62
     7
  2
*D0000
 10
87.634957
 20
199.686523
 11
73.634956
 21
200.686523
 13
59.634957
 23
194.470528
 14
87.634957
 24
194.470528
 70
1
  0
DIMENSION
  8
CSLAYER1
 62
     7
  2
*D0001
 10
97.561035
 20
189.470528
 11
102.674316
 21
175.215820
 13
92.634957
 23
161.470528
 14
92.634957
 24
189.470528
 50
90.000000
 70
1
  0
TEXT
  8
CSLAYER1
 62
     7
 10
60.242188
 20
98.671875
 40
12.000000
 41
0.700000
  1
FM-2188
 50
0.000000
 51
0.000000
  7
SX_FONT
 72
     5
 11
116.242188
 21
98.671875
  0
TEXT
  8
CSLAYER1
 62
     7
 10
60.449814
 20
83.618871
 40
5.547002
 41
0.589931
  1
カタログ Vol. 1  P69
 50
0.000000
 51
0.000000
  7
SX_FONT
 72
     5
 11
111.716599
 21
83.618871
  0
TEXT
  8
CSLAYER1
 62
     7
 10
133.726563
 20
98.671875
 40
12.000000
 41
0.714286
  1
28x28
 50
0.000000
 51
0.000000
  7
SX_FONT
 72
     5
 11
173.726563
 21
98.671875
  0
TEXT
  8
CSLAYER1
 62
     7
 10
60.410780
 20
71.817061
 40
4.960742
 41
0.729057
  1
ホ%%dケットカタロク゛ Vol. 1 P42
 50
0.000000
 51
0.000000
  7
SX_FONT
 72
     5
 11
135.155138
 21
71.817061
  0
ENDSEC
  0
EOF
