  0
SECTION
  2
HEADER
  9
$ACADVER
  1
AC1006
  9
$INSBASE
 10
81.023438
 20
187.171875
 30
0.0
  9
$EXTMIN
 10
81.023438
 20
187.171875
  9
$EXTMAX
 10
291.023438
 20
484.171875
  9
$LIMMIN
 10
81.023438
 20
187.171875
  9
$LIMMAX
 10
291.023438
 20
484.171875
  9
$VIEWCTR
 10
186.023438
 20
335.671875
  9
$VIEWSIZE
 40
297.000000
  9
$SNAPMODE
 70
     0
  9
$SNAPUNIT
 10
1.0
 20
1.0
  9
$SNAPBASE
 10
0.0
 20
0.0
  9
$SNAPANG
 50
0.0
  9
$SNAPSTYLE
 70
     0
  9
$SNAPISOPAIR
 70
     0
  9
$GRIDMODE
 70
     0
  9
$GRIDUNIT
 10
0.0
 20
0.0
  9
$ORTHOMODE
 70
     0
  9
$REGENMODE
 70
     1
  9
$FILLMODE
 70
     1
  9
$QTEXTMODE
 70
     0
  9
$DRAGMODE
 70
     2
  9
$LTSCALE
 40
15.000000
  9
$OSMODE
 70
     0
  9
$ATTMODE
 70
     1
  9
$TEXTSIZE
 40
0.2
  9
$TRACEWID
 40
0.05
  9
$TEXTSTYLE
  7
STANDARD
  9
$CLAYER
  8
CSLAYER3
  9
$CELTYPE
  6
BYLAYER
  9
$CECOLOR
 62
   256
  9
$DIMSCALE
 40
1.0
  9
$DIMASZ
 40
0.18
  9
$DIMEXO
 40
0.0625
  9
$DIMDLI
 40
0.38
  9
$DIMRND
 40
0.0
  9
$DIMDLE
 40
0.0
  9
$DIMEXE
 40
0.18
  9
$DIMTP
 40
0.0
  9
$DIMTM
 40
0.0
  9
$DIMTXT
 40
0.18
  9
$DIMCEN
 40
0.09
  9
$DIMTSZ
 40
0.0
  9
$DIMTOL
 70
     0
  9
$DIMLIM
 70
     0
  9
$DIMTIH
 70
     1
  9
$DIMTOH
 70
     1
  9
$DIMSE1
 70
     0
  9
$DIMSE2
 70
     0
  9
$DIMTAD
 70
     0
  9
$DIMZIN
 70
     0
  9
$DIMBLK
  1

  9
$LUNITS
 70
     2
  9
$LUPREC
 70
     4
  9
$AXISMODE
 70
     0
  9
$AXISUNIT
 10
0.0
 20
0.0
  9
$SKETCHINC
 40
0.1
  9
$FILLETRAD
 40
0.0
  9
$AUNITS
 70
     0
  9
$AUPREC
 70
     0
  9
$MENU
  1
ACAD
  9
$ELEVATION
 40
0.0
  9
$THICKNESS
 40
0.0
  9
$VIEWDIR
 10
0.0
 20
0.0
 30
1.0
  9
$LIMCHECK
 70
     0
  9
$BLIPMODE
 70
     1
  9
$CHAMFERA
 40
0.0
  9
$CHAMFERB
 40
0.0
  9
$FASTZOOM
 70
     1
  9
$SKPOLY
 70
     0
  9
$TDCREATE
 40
0.000000
  9
$TDUPDATE
 40
0.000000
  9
$TDINDWG
 40
0.0
  9
$TDUSRTIMER
 40
0.0
  9
$USRTIMER
 70
     1
  9
$ANGBASE
 50
0.0
  9
$ANGDIR
 70
     0
  9
$PDMODE
 70
     0
  9
$PDSIZE
 40
0.0
  9
$PLINEWID
 40
0.0
  9
$COORDS
 70
     0
  9
$USERI1
 70
     0
  9
$USERI2
 70
     0
  9
$USERI3
 70
     0
  9
$USERI4
 70
     0
  9
$USERI5
 70
     0
  9
$USERR1
 40
0.0
  9
$USERR2
 40
0.0
  9
$USERR3
 40
0.0
  9
$USERR4
 40
0.0
  9
$USERR5
 40
0.0
  0
ENDSEC
  0
SECTION
  2
TABLES
  0
TABLE
  2
LTYPE
 70
     9
  0
LTYPE
  2
CONTINUOUS
 70
    64
  3
Solid line
 72
    65
 73
     0
 40
0.0
  0
LTYPE
  2
DASHED
 70
    64
  3
__ __ __ __ __ __ __ __ __ __ __ __ __ __ __
 72
    65
 73
     2
 40
0.75
 49
0.5
 49
-0.25
  0
LTYPE
  2
HIDDEN
 70
    64
  3
_ _ _ _ _ _ _ _ _ _ _ _ _ _ _ _ _ _ _ _ _ _ _
 72
    65
 73
     2
 40
0.375
 49
0.25
 49
-0.125
  0
LTYPE
  2
DOT
 70
    64
  3
...............................................
 72
    65
 73
     2
 40
0.25
 49
0.0
 49
-0.25
  0
LTYPE
  2
DASHDOT
 70
    64
  3
__ . __ . __ . __ . __ . __ . __ . __ . __ . __
 72
    65
 73
     4
 40
1.0
 49
0.5
 49
-0.25
 49
0.0
 49
-0.25
  0
LTYPE
  2
DIVIDE
 70
    64
  3
__ . . __ . . __ . . __ . . __ . . __ . . __
 72
    65
 73
     6
 40
1.25
 49
0.5
 49
-0.25
 49
0.0
 49
-0.25
 49
0.0
 49
-0.25
  0
LTYPE
  2
CENTER
 70
    64
  3
____ _ ____ _ ____ _ ____ _ ____ _ ____ _ ____ 
 72
    65
 73
     4
 40
2.0
 49
1.25
 49
-0.25
 49
0.25
 49
-0.25
  0
LTYPE
  2
PHANTOM
 70
    64
  3
______  __  __  ______  __  __  ______  __  __ 
 72
    65
 73
     6
 40
2.5
 49
1.25
 49
-0.25
 49
0.25
 49
-0.25
 49
0.25
 49
-0.25
  0
LTYPE
  2
BORDER
 70
    64
  3
__ __ . __ __ . __ __ . __ __ . __ __ . __ __ .
 72
    65
 73
     6
 40
1.75
 49
0.5
 49
-0.25
 49
0.5
 49
-0.25
 49
0.0
 49
-0.25
  0
ENDTAB
  0
TABLE
  2
LAYER
 70
    16
  0
LAYER
  2
CSLAYER1
 70
    64
 62
     7
  6
CONTINUOUS
  0
LAYER
  2
CSLAYER2
 70
    64
 62
     7
  6
CONTINUOUS
  0
LAYER
  2
CSLAYER3
 70
    64
 62
     7
  6
CONTINUOUS
  0
LAYER
  2
CSLAYER4
 70
    64
 62
     7
  6
CONTINUOUS
  0
LAYER
  2
CSLAYER5
 70
    64
 62
     7
  6
CONTINUOUS
  0
LAYER
  2
CSLAYER6
 70
    64
 62
     7
  6
CONTINUOUS
  0
LAYER
  2
CSLAYER7
 70
    64
 62
     7
  6
CONTINUOUS
  0
LAYER
  2
CSLAYER8
 70
    64
 62
     7
  6
CONTINUOUS
  0
LAYER
  2
CSLAYER9
 70
    64
 62
     7
  6
CONTINUOUS
  0
LAYER
  2
CSLAYER10
 70
    64
 62
     7
  6
CONTINUOUS
  0
LAYER
  2
CSLAYER11
 70
    64
 62
     7
  6
CONTINUOUS
  0
LAYER
  2
CSLAYER12
 70
    64
 62
     7
  6
CONTINUOUS
  0
LAYER
  2
CSLAYER13
 70
    64
 62
     7
  6
CONTINUOUS
  0
LAYER
  2
CSLAYER14
 70
    64
 62
     7
  6
CONTINUOUS
  0
LAYER
  2
CSLAYER15
 70
    64
 62
     7
  6
CONTINUOUS
  0
LAYER
  2
CSLAYER16
 70
    64
 62
     7
  6
CONTINUOUS
  0
ENDTAB
  0
TABLE
  2
STYLE
 70
     1
  0
STYLE
  2
SX_FONT
 70
     0
 40
1.0
 41
1.0
 50
0.0
 71
     0
 42
1.0
  3
monotxt
  4
bigfont
  0
ENDTAB
  0
TABLE
  2
VIEW
 70
     0
  0
ENDTAB
  0
ENDSEC
  0
SECTION
  2
BLOCKS
  0
BLOCK
  8
CSLAYER1
  2
*D0000
 70
    65
 10
0.0
 20
0.0
 30
0.0
  0
LINE
  8
CSLAYER1
  6
CONTINUOUS
 62
     7
 10
63.758218
 20
195.072598
 11
63.758218
 21
200.114085
  0
LINE
  8
CSLAYER1
  6
CONTINUOUS
 62
     7
 10
91.758218
 20
195.072598
 11
91.758218
 21
200.114085
  0
LINE
  8
CSLAYER1
  6
CONTINUOUS
 62
     7
 10
63.758218
 20
199.114085
 11
91.758218
 21
199.114085
  0
LINE
  8
CSLAYER1
  6
CONTINUOUS
 62
     7
 10
63.758218
 20
199.114085
 11
67.621921
 21
200.149361
  0
LINE
  8
CSLAYER1
  6
CONTINUOUS
 62
     7
 10
63.758218
 20
199.114085
 11
67.621921
 21
198.078809
  0
LINE
  8
CSLAYER1
  6
CONTINUOUS
 62
     7
 10
91.758218
 20
199.114085
 11
87.894515
 21
200.149361
  0
LINE
  8
CSLAYER1
  6
CONTINUOUS
 62
     7
 10
91.758218
 20
199.114085
 11
87.894515
 21
198.078809
  0
TEXT
  8
CSLAYER1
 62
     7
 10
74.758217
 20
200.114090
 40
4.000000
 41
0.900000
  1
28
 50
0.000000
 51
0.000000
  7
SX_FONT
 72
     5
 11
80.758217
 21
200.114090
  0
ENDBLK
  8
0
  0
BLOCK
  8
CSLAYER1
  2
*D0001
 70
    65
 10
0.0
 20
0.0
 30
0.0
  0
LINE
  8
CSLAYER1
  6
CONTINUOUS
 62
     7
 10
97.758218
 20
161.072598
 11
102.904078
 21
161.072598
  0
LINE
  8
CSLAYER1
  6
CONTINUOUS
 62
     7
 10
97.758218
 20
189.072598
 11
102.904078
 21
189.072598
  0
LINE
  8
CSLAYER1
  6
CONTINUOUS
 62
     7
 10
101.904078
 20
161.072598
 11
101.904078
 21
189.072598
  0
LINE
  8
CSLAYER1
  6
CONTINUOUS
 62
     7
 10
101.904078
 20
161.072598
 11
100.868802
 21
164.936301
  0
LINE
  8
CSLAYER1
  6
CONTINUOUS
 62
     7
 10
101.904078
 20
161.072598
 11
102.939354
 21
164.936301
  0
LINE
  8
CSLAYER1
  6
CONTINUOUS
 62
     7
 10
101.904078
 20
189.072598
 11
100.868802
 21
185.208895
  0
LINE
  8
CSLAYER1
  6
CONTINUOUS
 62
     7
 10
101.904078
 20
189.072598
 11
102.939354
 21
185.208895
  0
TEXT
  8
CSLAYER1
 62
     7
 10
106.561455
 20
172.050964
 40
4.000000
 41
0.900000
  1
28
 50
90.000000
 51
0.000000
  7
SX_FONT
 72
     5
 11
106.561455
 21
178.050964
  0
ENDBLK
  8
0
  0
ENDSEC
  0
SECTION
  2
ENTITIES
  0
ARC
  8
CSLAYER2
  6
CONTINUOUS
 62
     7
 10
93.554049
 20
190.868430
 40
8.000000
 50
192.972240
 51
257.027760
  0
LINE
  8
CSLAYER2
  6
CONTINUOUS
 62
     7
 10
83.758218
 20
161.072598
 11
87.758218
 21
161.072598
  0
ARC
  8
CSLAYER2
  6
CONTINUOUS
 62
     7
 10
91.758218
 20
161.072598
 40
4.000000
 50
90.000000
 51
180.000000
  0
LINE
  8
CSLAYER2
  6
CONTINUOUS
 62
     7
 10
91.758218
 20
165.072598
 11
91.758218
 21
183.072598
  0
LINE
  8
CSLAYER2
  6
CONTINUOUS
 62
     7
 10
85.758218
 20
173.072598
 11
85.758218
 21
179.072598
  0
LINE
  8
CSLAYER2
  6
CONTINUOUS
 62
     7
 10
85.758218
 20
173.072598
 11
83.758218
 21
171.072598
  0
LINE
  8
CSLAYER2
  6
CONTINUOUS
 62
     7
 10
83.758218
 20
161.072598
 11
83.758218
 21
171.072598
  0
ARC
  8
CSLAYER2
  6
CONTINUOUS
 62
     7
 10
63.758218
 20
189.072598
 40
4.000000
 50
270.000000
 51
360.000000
  0
LINE
  8
CSLAYER2
  6
CONTINUOUS
 62
     7
 10
63.758218
 20
181.072598
 11
69.758218
 21
181.072598
  0
LINE
  8
CSLAYER2
  6
CONTINUOUS
 62
     7
 10
63.758218
 20
181.072598
 11
73.758218
 21
181.072598
  0
LINE
  8
CSLAYER2
  6
CONTINUOUS
 62
     7
 10
81.758218
 20
183.072598
 11
75.758218
 21
183.072598
  0
ARC
  8
CSLAYER2
  6
CONTINUOUS
 62
     7
 10
81.758218
 20
179.072598
 40
4.000000
 50
0.000000
 51
90.000000
  0
LINE
  8
CSLAYER2
  6
CONTINUOUS
 62
     7
 10
75.758218
 20
183.072598
 11
73.758218
 21
181.072598
  0
LINE
  8
CSLAYER2
  6
CONTINUOUS
 62
     7
 10
85.758218
 20
189.072598
 11
67.758218
 21
189.072598
  0
LINE
  8
CSLAYER2
  6
CONTINUOUS
 62
     7
 10
63.758218
 20
185.072598
 11
63.758218
 21
181.072598
  0
LINE
  8
CSLAYER2
  6
CONTINUOUS
 62
     7
 10
63.758218
 20
185.072598
 11
63.758218
 21
181.072598
  0
DIMENSION
  8
CSLAYER1
 62
     7
  2
*D0000
 10
91.758218
 20
199.114085
 11
77.758217
 21
200.114090
 13
63.758218
 23
194.072598
 14
91.758218
 24
194.072598
 70
1
  0
DIMENSION
  8
CSLAYER1
 62
     7
  2
*D0001
 10
101.904078
 20
189.072598
 11
106.561455
 21
175.050964
 13
96.758218
 23
161.072598
 14
96.758218
 24
189.072598
 50
90.000000
 70
1
  0
TEXT
  8
CSLAYER1
 62
     7
 10
64.882813
 20
98.156250
 40
12.000000
 41
0.700000
  1
FM-2186
 50
0.000000
 51
0.000000
  7
SX_FONT
 72
     5
 11
120.882813
 21
98.156250
  0
TEXT
  8
CSLAYER1
 62
     7
 10
66.014091
 20
82.708326
 40
5.547002
 41
0.589931
  1
カタログ Vol. 1  P69
 50
0.000000
 51
0.000000
  7
SX_FONT
 72
     5
 11
117.280876
 21
82.708326
  0
TEXT
  8
CSLAYER1
 62
     7
 10
138.586914
 20
97.719818
 40
12.000000
 41
0.714286
  1
28x28
 50
0.000000
 51
0.000000
  7
SX_FONT
 72
     5
 11
178.586914
 21
97.719818
  0
TEXT
  8
CSLAYER1
 62
     7
 10
66.201697
 20
69.521651
 40
4.960742
 41
0.729057
  1
ホ%%dケットカタロク゛ Vol. 1 P42
 50
0.000000
 51
0.000000
  7
SX_FONT
 72
     5
 11
140.946054
 21
69.521651
  0
ENDSEC
  0
EOF
