  0
SECTION
  2
HEADER
  9
$ACADVER
  1
AC1006
  9
$INSBASE
 10
83.918290
 20
184.102156
 30
0.0
  9
$EXTMIN
 10
83.918290
 20
184.102156
  9
$EXTMAX
 10
293.918290
 20
481.102156
  9
$LIMMIN
 10
83.918290
 20
184.102156
  9
$LIMMAX
 10
293.918290
 20
481.102156
  9
$VIEWCTR
 10
188.918290
 20
332.602156
  9
$VIEWSIZE
 40
297.000000
  9
$SNAPMODE
 70
     0
  9
$SNAPUNIT
 10
1.0
 20
1.0
  9
$SNAPBASE
 10
0.0
 20
0.0
  9
$SNAPANG
 50
0.0
  9
$SNAPSTYLE
 70
     0
  9
$SNAPISOPAIR
 70
     0
  9
$GRIDMODE
 70
     0
  9
$GRIDUNIT
 10
0.0
 20
0.0
  9
$ORTHOMODE
 70
     0
  9
$REGENMODE
 70
     1
  9
$FILLMODE
 70
     1
  9
$QTEXTMODE
 70
     0
  9
$DRAGMODE
 70
     2
  9
$LTSCALE
 40
15.000000
  9
$OSMODE
 70
     0
  9
$ATTMODE
 70
     1
  9
$TEXTSIZE
 40
0.2
  9
$TRACEWID
 40
0.05
  9
$TEXTSTYLE
  7
STANDARD
  9
$CLAYER
  8
CSLAYER3
  9
$CELTYPE
  6
BYLAYER
  9
$CECOLOR
 62
   256
  9
$DIMSCALE
 40
1.0
  9
$DIMASZ
 40
0.18
  9
$DIMEXO
 40
0.0625
  9
$DIMDLI
 40
0.38
  9
$DIMRND
 40
0.0
  9
$DIMDLE
 40
0.0
  9
$DIMEXE
 40
0.18
  9
$DIMTP
 40
0.0
  9
$DIMTM
 40
0.0
  9
$DIMTXT
 40
0.18
  9
$DIMCEN
 40
0.09
  9
$DIMTSZ
 40
0.0
  9
$DIMTOL
 70
     0
  9
$DIMLIM
 70
     0
  9
$DIMTIH
 70
     1
  9
$DIMTOH
 70
     1
  9
$DIMSE1
 70
     0
  9
$DIMSE2
 70
     0
  9
$DIMTAD
 70
     0
  9
$DIMZIN
 70
     0
  9
$DIMBLK
  1

  9
$LUNITS
 70
     2
  9
$LUPREC
 70
     4
  9
$AXISMODE
 70
     0
  9
$AXISUNIT
 10
0.0
 20
0.0
  9
$SKETCHINC
 40
0.1
  9
$FILLETRAD
 40
0.0
  9
$AUNITS
 70
     0
  9
$AUPREC
 70
     0
  9
$MENU
  1
ACAD
  9
$ELEVATION
 40
0.0
  9
$THICKNESS
 40
0.0
  9
$VIEWDIR
 10
0.0
 20
0.0
 30
1.0
  9
$LIMCHECK
 70
     0
  9
$BLIPMODE
 70
     1
  9
$CHAMFERA
 40
0.0
  9
$CHAMFERB
 40
0.0
  9
$FASTZOOM
 70
     1
  9
$SKPOLY
 70
     0
  9
$TDCREATE
 40
0.000000
  9
$TDUPDATE
 40
0.000000
  9
$TDINDWG
 40
0.0
  9
$TDUSRTIMER
 40
0.0
  9
$USRTIMER
 70
     1
  9
$ANGBASE
 50
0.0
  9
$ANGDIR
 70
     0
  9
$PDMODE
 70
     0
  9
$PDSIZE
 40
0.0
  9
$PLINEWID
 40
0.0
  9
$COORDS
 70
     0
  9
$USERI1
 70
     0
  9
$USERI2
 70
     0
  9
$USERI3
 70
     0
  9
$USERI4
 70
     0
  9
$USERI5
 70
     0
  9
$USERR1
 40
0.0
  9
$USERR2
 40
0.0
  9
$USERR3
 40
0.0
  9
$USERR4
 40
0.0
  9
$USERR5
 40
0.0
  0
ENDSEC
  0
SECTION
  2
TABLES
  0
TABLE
  2
LTYPE
 70
     9
  0
LTYPE
  2
CONTINUOUS
 70
    64
  3
Solid line
 72
    65
 73
     0
 40
0.0
  0
LTYPE
  2
DASHED
 70
    64
  3
__ __ __ __ __ __ __ __ __ __ __ __ __ __ __
 72
    65
 73
     2
 40
0.75
 49
0.5
 49
-0.25
  0
LTYPE
  2
HIDDEN
 70
    64
  3
_ _ _ _ _ _ _ _ _ _ _ _ _ _ _ _ _ _ _ _ _ _ _
 72
    65
 73
     2
 40
0.375
 49
0.25
 49
-0.125
  0
LTYPE
  2
DOT
 70
    64
  3
...............................................
 72
    65
 73
     2
 40
0.25
 49
0.0
 49
-0.25
  0
LTYPE
  2
DASHDOT
 70
    64
  3
__ . __ . __ . __ . __ . __ . __ . __ . __ . __
 72
    65
 73
     4
 40
1.0
 49
0.5
 49
-0.25
 49
0.0
 49
-0.25
  0
LTYPE
  2
DIVIDE
 70
    64
  3
__ . . __ . . __ . . __ . . __ . . __ . . __
 72
    65
 73
     6
 40
1.25
 49
0.5
 49
-0.25
 49
0.0
 49
-0.25
 49
0.0
 49
-0.25
  0
LTYPE
  2
CENTER
 70
    64
  3
____ _ ____ _ ____ _ ____ _ ____ _ ____ _ ____ 
 72
    65
 73
     4
 40
2.0
 49
1.25
 49
-0.25
 49
0.25
 49
-0.25
  0
LTYPE
  2
PHANTOM
 70
    64
  3
______  __  __  ______  __  __  ______  __  __ 
 72
    65
 73
     6
 40
2.5
 49
1.25
 49
-0.25
 49
0.25
 49
-0.25
 49
0.25
 49
-0.25
  0
LTYPE
  2
BORDER
 70
    64
  3
__ __ . __ __ . __ __ . __ __ . __ __ . __ __ .
 72
    65
 73
     6
 40
1.75
 49
0.5
 49
-0.25
 49
0.5
 49
-0.25
 49
0.0
 49
-0.25
  0
ENDTAB
  0
TABLE
  2
LAYER
 70
    16
  0
LAYER
  2
CSLAYER1
 70
    64
 62
     7
  6
CONTINUOUS
  0
LAYER
  2
CSLAYER2
 70
    64
 62
     7
  6
CONTINUOUS
  0
LAYER
  2
CSLAYER3
 70
    64
 62
     7
  6
CONTINUOUS
  0
LAYER
  2
CSLAYER4
 70
    64
 62
     7
  6
CONTINUOUS
  0
LAYER
  2
CSLAYER5
 70
    64
 62
     7
  6
CONTINUOUS
  0
LAYER
  2
CSLAYER6
 70
    64
 62
     7
  6
CONTINUOUS
  0
LAYER
  2
CSLAYER7
 70
    64
 62
     7
  6
CONTINUOUS
  0
LAYER
  2
CSLAYER8
 70
    64
 62
     7
  6
CONTINUOUS
  0
LAYER
  2
CSLAYER9
 70
    64
 62
     7
  6
CONTINUOUS
  0
LAYER
  2
CSLAYER10
 70
    64
 62
     7
  6
CONTINUOUS
  0
LAYER
  2
CSLAYER11
 70
    64
 62
     7
  6
CONTINUOUS
  0
LAYER
  2
CSLAYER12
 70
    64
 62
     7
  6
CONTINUOUS
  0
LAYER
  2
CSLAYER13
 70
    64
 62
     7
  6
CONTINUOUS
  0
LAYER
  2
CSLAYER14
 70
    64
 62
     7
  6
CONTINUOUS
  0
LAYER
  2
CSLAYER15
 70
    64
 62
     7
  6
CONTINUOUS
  0
LAYER
  2
CSLAYER16
 70
    64
 62
     7
  6
CONTINUOUS
  0
ENDTAB
  0
TABLE
  2
STYLE
 70
     1
  0
STYLE
  2
SX_FONT
 70
     0
 40
1.0
 41
1.0
 50
0.0
 71
     0
 42
1.0
  3
monotxt
  4
bigfont
  0
ENDTAB
  0
TABLE
  2
VIEW
 70
     0
  0
ENDTAB
  0
ENDSEC
  0
SECTION
  2
BLOCKS
  0
BLOCK
  8
CSLAYER1
  2
*D0000
 70
    65
 10
0.0
 20
0.0
 30
0.0
  0
LINE
  8
CSLAYER1
  6
CONTINUOUS
 62
     7
 10
84.087980
 20
180.086848
 11
84.087980
 21
185.019633
  0
LINE
  8
CSLAYER1
  6
CONTINUOUS
 62
     7
 10
114.087980
 20
180.086848
 11
114.087980
 21
185.019633
  0
LINE
  8
CSLAYER1
  6
CONTINUOUS
 62
     7
 10
84.087980
 20
184.019633
 11
114.087980
 21
184.019633
  0
LINE
  8
CSLAYER1
  6
CONTINUOUS
 62
     7
 10
84.087980
 20
184.019633
 11
87.951684
 21
185.054909
  0
LINE
  8
CSLAYER1
  6
CONTINUOUS
 62
     7
 10
84.087980
 20
184.019633
 11
87.951684
 21
182.984357
  0
LINE
  8
CSLAYER1
  6
CONTINUOUS
 62
     7
 10
114.087980
 20
184.019633
 11
110.224277
 21
185.054909
  0
LINE
  8
CSLAYER1
  6
CONTINUOUS
 62
     7
 10
114.087980
 20
184.019633
 11
110.224277
 21
182.984357
  0
TEXT
  8
CSLAYER1
 62
     7
 10
96.087982
 20
185.019638
 40
4.000000
 41
0.900000
  1
30
 50
0.000000
 51
0.000000
  7
SX_FONT
 72
     5
 11
102.087982
 21
185.019638
  0
ENDBLK
  8
0
  0
BLOCK
  8
CSLAYER1
  2
*D0001
 70
    65
 10
0.0
 20
0.0
 30
0.0
  0
LINE
  8
CSLAYER1
  6
CONTINUOUS
 62
     7
 10
120.087980
 20
144.086848
 11
125.611619
 21
144.086848
  0
LINE
  8
CSLAYER1
  6
CONTINUOUS
 62
     7
 10
120.087980
 20
174.086848
 11
125.611619
 21
174.086848
  0
LINE
  8
CSLAYER1
  6
CONTINUOUS
 62
     7
 10
124.611619
 20
144.086848
 11
124.611619
 21
174.086848
  0
LINE
  8
CSLAYER1
  6
CONTINUOUS
 62
     7
 10
124.611619
 20
144.086848
 11
123.576343
 21
147.950552
  0
LINE
  8
CSLAYER1
  6
CONTINUOUS
 62
     7
 10
124.611619
 20
144.086848
 11
125.646895
 21
147.950552
  0
LINE
  8
CSLAYER1
  6
CONTINUOUS
 62
     7
 10
124.611619
 20
174.086848
 11
123.576343
 21
170.223145
  0
LINE
  8
CSLAYER1
  6
CONTINUOUS
 62
     7
 10
124.611619
 20
174.086848
 11
125.646895
 21
170.223145
  0
TEXT
  8
CSLAYER1
 62
     7
 10
130.058090
 20
155.693512
 40
4.000000
 41
0.900000
  1
30
 50
90.000000
 51
0.000000
  7
SX_FONT
 72
     5
 11
130.058090
 21
161.693512
  0
ENDBLK
  8
0
  0
ENDSEC
  0
SECTION
  2
ENTITIES
  0
ARC
  8
CSLAYER2
  6
CONTINUOUS
 62
     7
 10
93.087980
 20
152.459832
 40
8.000000
 50
180.000000
 51
208.955024
  0
ARC
  8
CSLAYER2
  6
CONTINUOUS
 62
     7
 10
93.087980
 20
152.459832
 40
8.000000
 50
162.178750
 51
180.000000
  0
ARC
  8
CSLAYER2
  6
CONTINUOUS
 62
     7
 10
92.087980
 20
166.086848
 40
8.000000
 50
135.000000
 51
221.409622
  0
ARC
  8
CSLAYER2
  6
CONTINUOUS
 62
     7
 10
89.787980
 20
157.432312
 40
5.000000
 50
137.731416
 51
180.000000
  0
ARC
  8
CSLAYER2
  6
CONTINUOUS
 62
     7
 10
89.787980
 20
157.432312
 40
5.000000
 50
180.000000
 51
210.319303
  0
ARC
  8
CSLAYER2
  6
CONTINUOUS
 62
     7
 10
105.714997
 20
165.086848
 40
8.000000
 50
61.044976
 51
90.000000
  0
ARC
  8
CSLAYER2
  6
CONTINUOUS
 62
     7
 10
105.714997
 20
165.086848
 40
8.000000
 50
90.000000
 51
107.821250
  0
ARC
  8
CSLAYER2
  6
CONTINUOUS
 62
     7
 10
92.087980
 20
166.086848
 40
8.000000
 50
48.590378
 51
135.000000
  0
ARC
  8
CSLAYER2
  6
CONTINUOUS
 62
     7
 10
100.742517
 20
168.386848
 40
5.000000
 50
90.000000
 51
132.268584
  0
ARC
  8
CSLAYER2
  6
CONTINUOUS
 62
     7
 10
100.742517
 20
168.386848
 40
5.000000
 50
59.680697
 51
90.000000
  0
LINE
  8
CSLAYER2
  6
CONTINUOUS
 62
     7
 10
109.587980
 20
172.086848
 11
111.587980
 21
174.086848
  0
LINE
  8
CSLAYER2
  6
CONTINUOUS
 62
     7
 10
111.587980
 20
174.086848
 11
114.087980
 21
174.086848
  0
LINE
  8
CSLAYER2
  6
CONTINUOUS
 62
     7
 10
114.087980
 20
174.086848
 11
114.087980
 21
164.086848
  0
LINE
  8
CSLAYER2
  6
CONTINUOUS
 62
     7
 10
114.087980
 20
164.086848
 11
94.087980
 21
164.086848
  0
LINE
  8
CSLAYER2
  6
CONTINUOUS
 62
     7
 10
94.087980
 20
164.086848
 11
94.087980
 21
144.086848
  0
LINE
  8
CSLAYER2
  6
CONTINUOUS
 62
     7
 10
94.087980
 20
144.086848
 11
84.087980
 21
144.086848
  0
LINE
  8
CSLAYER2
  6
CONTINUOUS
 62
     7
 10
84.087980
 20
144.086848
 11
84.087980
 21
146.586848
  0
LINE
  8
CSLAYER2
  6
CONTINUOUS
 62
     7
 10
84.087980
 20
146.586848
 11
86.087980
 21
148.586848
  0
TEXT
  8
CSLAYER1
 62
     7
 10
84.021500
 20
83.227562
 40
10.000000
 41
0.630000
  1
FM-2184
 50
0.000000
 51
0.000000
  7
SX_FONT
 72
     5
 11
126.021500
 21
83.227562
  0
DIMENSION
  8
CSLAYER1
 62
     7
  2
*D0000
 10
114.087980
 20
184.019633
 11
99.087982
 21
185.019638
 13
84.087980
 23
179.086848
 14
114.087980
 24
179.086848
 70
1
  0
DIMENSION
  8
CSLAYER1
 62
     7
  2
*D0001
 10
124.611619
 20
174.086848
 11
130.058090
 21
158.693512
 13
119.087980
 23
144.086848
 14
119.087980
 24
174.086848
 50
90.000000
 70
1
  0
TEXT
  8
CSLAYER1
 62
     7
 10
140.757736
 20
83.292900
 40
10.000000
 41
0.642857
  1
30x30
 50
0.000000
 51
0.000000
  7
SX_FONT
 72
     5
 11
170.757736
 21
83.292900
  0
TEXT
  8
CSLAYER1
 62
     7
 10
84.816406
 20
72.148621
 40
5.000000
 41
0.612766
  1
カタログ Vol. 1  P68
 50
0.000000
 51
0.000000
  7
SX_FONT
 72
     5
 11
132.816406
 21
72.148621
  0
TEXT
  8
CSLAYER1
 62
     7
 10
84.462622
 20
62.154097
 40
4.960742
 41
0.729057
  1
ホ%%dケットカタロク゛ Vol. 1 P41
 50
0.000000
 51
0.000000
  7
SX_FONT
 72
     5
 11
159.206980
 21
62.154097
  0
ENDSEC
  0
EOF
