  0
SECTION
  2
HEADER
  9
$ACADVER
  1
AC1006
  9
$INSBASE
 10
86.179688
 20
177.890625
 30
0.0
  9
$EXTMIN
 10
86.179688
 20
177.890625
  9
$EXTMAX
 10
296.179688
 20
474.890625
  9
$LIMMIN
 10
86.179688
 20
177.890625
  9
$LIMMAX
 10
296.179688
 20
474.890625
  9
$VIEWCTR
 10
191.179688
 20
326.390625
  9
$VIEWSIZE
 40
297.000000
  9
$SNAPMODE
 70
     0
  9
$SNAPUNIT
 10
1.0
 20
1.0
  9
$SNAPBASE
 10
0.0
 20
0.0
  9
$SNAPANG
 50
0.0
  9
$SNAPSTYLE
 70
     0
  9
$SNAPISOPAIR
 70
     0
  9
$GRIDMODE
 70
     0
  9
$GRIDUNIT
 10
0.0
 20
0.0
  9
$ORTHOMODE
 70
     0
  9
$REGENMODE
 70
     1
  9
$FILLMODE
 70
     1
  9
$QTEXTMODE
 70
     0
  9
$DRAGMODE
 70
     2
  9
$LTSCALE
 40
15.000000
  9
$OSMODE
 70
     0
  9
$ATTMODE
 70
     1
  9
$TEXTSIZE
 40
0.2
  9
$TRACEWID
 40
0.05
  9
$TEXTSTYLE
  7
STANDARD
  9
$CLAYER
  8
CSLAYER3
  9
$CELTYPE
  6
BYLAYER
  9
$CECOLOR
 62
   256
  9
$DIMSCALE
 40
1.0
  9
$DIMASZ
 40
0.18
  9
$DIMEXO
 40
0.0625
  9
$DIMDLI
 40
0.38
  9
$DIMRND
 40
0.0
  9
$DIMDLE
 40
0.0
  9
$DIMEXE
 40
0.18
  9
$DIMTP
 40
0.0
  9
$DIMTM
 40
0.0
  9
$DIMTXT
 40
0.18
  9
$DIMCEN
 40
0.09
  9
$DIMTSZ
 40
0.0
  9
$DIMTOL
 70
     0
  9
$DIMLIM
 70
     0
  9
$DIMTIH
 70
     1
  9
$DIMTOH
 70
     1
  9
$DIMSE1
 70
     0
  9
$DIMSE2
 70
     0
  9
$DIMTAD
 70
     0
  9
$DIMZIN
 70
     0
  9
$DIMBLK
  1

  9
$LUNITS
 70
     2
  9
$LUPREC
 70
     4
  9
$AXISMODE
 70
     0
  9
$AXISUNIT
 10
0.0
 20
0.0
  9
$SKETCHINC
 40
0.1
  9
$FILLETRAD
 40
0.0
  9
$AUNITS
 70
     0
  9
$AUPREC
 70
     0
  9
$MENU
  1
ACAD
  9
$ELEVATION
 40
0.0
  9
$THICKNESS
 40
0.0
  9
$VIEWDIR
 10
0.0
 20
0.0
 30
1.0
  9
$LIMCHECK
 70
     0
  9
$BLIPMODE
 70
     1
  9
$CHAMFERA
 40
0.0
  9
$CHAMFERB
 40
0.0
  9
$FASTZOOM
 70
     1
  9
$SKPOLY
 70
     0
  9
$TDCREATE
 40
0.000000
  9
$TDUPDATE
 40
0.000000
  9
$TDINDWG
 40
0.0
  9
$TDUSRTIMER
 40
0.0
  9
$USRTIMER
 70
     1
  9
$ANGBASE
 50
0.0
  9
$ANGDIR
 70
     0
  9
$PDMODE
 70
     0
  9
$PDSIZE
 40
0.0
  9
$PLINEWID
 40
0.0
  9
$COORDS
 70
     0
  9
$USERI1
 70
     0
  9
$USERI2
 70
     0
  9
$USERI3
 70
     0
  9
$USERI4
 70
     0
  9
$USERI5
 70
     0
  9
$USERR1
 40
0.0
  9
$USERR2
 40
0.0
  9
$USERR3
 40
0.0
  9
$USERR4
 40
0.0
  9
$USERR5
 40
0.0
  0
ENDSEC
  0
SECTION
  2
TABLES
  0
TABLE
  2
LTYPE
 70
     9
  0
LTYPE
  2
CONTINUOUS
 70
    64
  3
Solid line
 72
    65
 73
     0
 40
0.0
  0
LTYPE
  2
DASHED
 70
    64
  3
__ __ __ __ __ __ __ __ __ __ __ __ __ __ __
 72
    65
 73
     2
 40
0.75
 49
0.5
 49
-0.25
  0
LTYPE
  2
HIDDEN
 70
    64
  3
_ _ _ _ _ _ _ _ _ _ _ _ _ _ _ _ _ _ _ _ _ _ _
 72
    65
 73
     2
 40
0.375
 49
0.25
 49
-0.125
  0
LTYPE
  2
DOT
 70
    64
  3
...............................................
 72
    65
 73
     2
 40
0.25
 49
0.0
 49
-0.25
  0
LTYPE
  2
DASHDOT
 70
    64
  3
__ . __ . __ . __ . __ . __ . __ . __ . __ . __
 72
    65
 73
     4
 40
1.0
 49
0.5
 49
-0.25
 49
0.0
 49
-0.25
  0
LTYPE
  2
DIVIDE
 70
    64
  3
__ . . __ . . __ . . __ . . __ . . __ . . __
 72
    65
 73
     6
 40
1.25
 49
0.5
 49
-0.25
 49
0.0
 49
-0.25
 49
0.0
 49
-0.25
  0
LTYPE
  2
CENTER
 70
    64
  3
____ _ ____ _ ____ _ ____ _ ____ _ ____ _ ____ 
 72
    65
 73
     4
 40
2.0
 49
1.25
 49
-0.25
 49
0.25
 49
-0.25
  0
LTYPE
  2
PHANTOM
 70
    64
  3
______  __  __  ______  __  __  ______  __  __ 
 72
    65
 73
     6
 40
2.5
 49
1.25
 49
-0.25
 49
0.25
 49
-0.25
 49
0.25
 49
-0.25
  0
LTYPE
  2
BORDER
 70
    64
  3
__ __ . __ __ . __ __ . __ __ . __ __ . __ __ .
 72
    65
 73
     6
 40
1.75
 49
0.5
 49
-0.25
 49
0.5
 49
-0.25
 49
0.0
 49
-0.25
  0
ENDTAB
  0
TABLE
  2
LAYER
 70
    16
  0
LAYER
  2
CSLAYER1
 70
    64
 62
     7
  6
CONTINUOUS
  0
LAYER
  2
CSLAYER2
 70
    64
 62
     7
  6
CONTINUOUS
  0
LAYER
  2
CSLAYER3
 70
    64
 62
     7
  6
CONTINUOUS
  0
LAYER
  2
CSLAYER4
 70
    64
 62
     7
  6
CONTINUOUS
  0
LAYER
  2
CSLAYER5
 70
    64
 62
     7
  6
CONTINUOUS
  0
LAYER
  2
CSLAYER6
 70
    64
 62
     7
  6
CONTINUOUS
  0
LAYER
  2
CSLAYER7
 70
    64
 62
     7
  6
CONTINUOUS
  0
LAYER
  2
CSLAYER8
 70
    64
 62
     7
  6
CONTINUOUS
  0
LAYER
  2
CSLAYER9
 70
    64
 62
     7
  6
CONTINUOUS
  0
LAYER
  2
CSLAYER10
 70
    64
 62
     7
  6
CONTINUOUS
  0
LAYER
  2
CSLAYER11
 70
    64
 62
     7
  6
CONTINUOUS
  0
LAYER
  2
CSLAYER12
 70
    64
 62
     7
  6
CONTINUOUS
  0
LAYER
  2
CSLAYER13
 70
    64
 62
     7
  6
CONTINUOUS
  0
LAYER
  2
CSLAYER14
 70
    64
 62
     7
  6
CONTINUOUS
  0
LAYER
  2
CSLAYER15
 70
    64
 62
     7
  6
CONTINUOUS
  0
LAYER
  2
CSLAYER16
 70
    64
 62
     7
  6
CONTINUOUS
  0
ENDTAB
  0
TABLE
  2
STYLE
 70
     1
  0
STYLE
  2
SX_FONT
 70
     0
 40
1.0
 41
1.0
 50
0.0
 71
     0
 42
1.0
  3
monotxt
  4
bigfont
  0
ENDTAB
  0
TABLE
  2
VIEW
 70
     0
  0
ENDTAB
  0
ENDSEC
  0
SECTION
  2
BLOCKS
  0
BLOCK
  8
CSLAYER1
  2
*D0000
 70
    65
 10
0.0
 20
0.0
 30
0.0
  0
LINE
  8
CSLAYER1
  6
CONTINUOUS
 62
     7
 10
87.679688
 20
174.265625
 11
87.679688
 21
178.965443
  0
LINE
  8
CSLAYER1
  6
CONTINUOUS
 62
     7
 10
108.679688
 20
174.265625
 11
108.679688
 21
178.965443
  0
LINE
  8
CSLAYER1
  6
CONTINUOUS
 62
     7
 10
87.679688
 20
177.965443
 11
108.679688
 21
177.965443
  0
LINE
  8
CSLAYER1
  6
CONTINUOUS
 62
     7
 10
87.679688
 20
177.965443
 11
91.543391
 21
179.000720
  0
LINE
  8
CSLAYER1
  6
CONTINUOUS
 62
     7
 10
87.679688
 20
177.965443
 11
91.543391
 21
176.930167
  0
LINE
  8
CSLAYER1
  6
CONTINUOUS
 62
     7
 10
108.679688
 20
177.965443
 11
104.815984
 21
179.000720
  0
LINE
  8
CSLAYER1
  6
CONTINUOUS
 62
     7
 10
108.679688
 20
177.965443
 11
104.815984
 21
176.930167
  0
TEXT
  8
CSLAYER1
 62
     7
 10
95.179688
 20
178.965439
 40
4.000000
 41
0.900000
  1
21
 50
0.000000
 51
0.000000
  7
SX_FONT
 72
     5
 11
101.179688
 21
178.965439
  0
ENDBLK
  8
0
  0
BLOCK
  8
CSLAYER1
  2
*D0001
 70
    65
 10
0.0
 20
0.0
 30
0.0
  0
LINE
  8
CSLAYER1
  6
CONTINUOUS
 62
     7
 10
114.679688
 20
147.265625
 11
119.700758
 21
147.265625
  0
LINE
  8
CSLAYER1
  6
CONTINUOUS
 62
     7
 10
114.679688
 20
168.265625
 11
119.700758
 21
168.265625
  0
LINE
  8
CSLAYER1
  6
CONTINUOUS
 62
     7
 10
118.700758
 20
147.265625
 11
118.700758
 21
168.265625
  0
LINE
  8
CSLAYER1
  6
CONTINUOUS
 62
     7
 10
118.700758
 20
147.265625
 11
117.665481
 21
151.129328
  0
LINE
  8
CSLAYER1
  6
CONTINUOUS
 62
     7
 10
118.700758
 20
147.265625
 11
119.736034
 21
151.129328
  0
LINE
  8
CSLAYER1
  6
CONTINUOUS
 62
     7
 10
118.700758
 20
168.265625
 11
117.665481
 21
164.401922
  0
LINE
  8
CSLAYER1
  6
CONTINUOUS
 62
     7
 10
118.700758
 20
168.265625
 11
119.736034
 21
164.401922
  0
TEXT
  8
CSLAYER1
 62
     7
 10
123.556725
 20
154.437958
 40
4.000000
 41
0.900000
  1
21
 50
90.000000
 51
0.000000
  7
SX_FONT
 72
     5
 11
123.556725
 21
160.437958
  0
ENDBLK
  8
0
  0
ENDSEC
  0
SECTION
  2
ENTITIES
  0
ARC
  8
CSLAYER2
  6
CONTINUOUS
 62
     7
 10
89.879687
 20
155.394052
 40
2.000000
 50
137.262623
 51
225.000000
  0
ARC
  8
CSLAYER2
  6
CONTINUOUS
 62
     7
 10
89.679688
 20
158.297222
 40
2.000000
 50
135.000000
 51
230.619162
  0
ARC
  8
CSLAYER2
  6
CONTINUOUS
 62
     7
 10
92.679688
 20
163.265625
 40
4.500000
 50
135.000000
 51
217.233302
  0
LINE
  8
CSLAYER2
  6
CONTINUOUS
 62
     7
 10
88.265474
 20
159.711435
 11
89.096885
 21
160.542846
  0
ARC
  8
CSLAYER2
  6
CONTINUOUS
 62
     7
 10
100.551260
 20
166.065625
 40
2.000000
 50
45.000000
 51
132.737377
  0
ARC
  8
CSLAYER2
  6
CONTINUOUS
 62
     7
 10
97.648091
 20
166.265625
 40
2.000000
 50
39.380838
 51
135.000000
  0
ARC
  8
CSLAYER2
  6
CONTINUOUS
 62
     7
 10
92.679688
 20
163.265625
 40
4.500000
 50
52.766698
 51
135.000000
  0
LINE
  8
CSLAYER2
  6
CONTINUOUS
 62
     7
 10
96.233877
 20
167.679839
 11
95.402466
 21
166.848428
  0
LINE
  8
CSLAYER2
  6
CONTINUOUS
 62
     7
 10
101.965474
 20
167.479839
 11
103.679688
 21
165.765625
  0
LINE
  8
CSLAYER2
  6
CONTINUOUS
 62
     7
 10
103.679688
 20
165.765625
 11
106.179688
 21
168.265625
  0
LINE
  8
CSLAYER2
  6
CONTINUOUS
 62
     7
 10
106.179688
 20
168.265625
 11
108.679688
 21
168.265625
  0
LINE
  8
CSLAYER2
  6
CONTINUOUS
 62
     7
 10
108.679688
 20
168.265625
 11
108.679688
 21
162.265625
  0
LINE
  8
CSLAYER2
  6
CONTINUOUS
 62
     7
 10
108.679688
 20
162.265625
 11
93.679688
 21
162.265625
  0
LINE
  8
CSLAYER2
  6
CONTINUOUS
 62
     7
 10
93.679688
 20
162.265625
 11
93.679688
 21
147.265625
  0
LINE
  8
CSLAYER2
  6
CONTINUOUS
 62
     7
 10
93.679688
 20
147.265625
 11
87.679688
 21
147.265625
  0
LINE
  8
CSLAYER2
  6
CONTINUOUS
 62
     7
 10
87.679688
 20
147.265625
 11
87.679688
 21
149.765625
  0
LINE
  8
CSLAYER2
  6
CONTINUOUS
 62
     7
 10
87.679688
 20
149.765625
 11
90.179688
 21
152.265625
  0
LINE
  8
CSLAYER2
  6
CONTINUOUS
 62
     7
 10
90.179688
 20
152.265625
 11
88.465474
 21
153.979839
  0
TEXT
  8
CSLAYER1
 62
     7
 10
87.651291
 20
86.827965
 40
10.000000
 41
0.630000
  1
FM-2183
 50
0.000000
 51
0.000000
  7
SX_FONT
 72
     5
 11
129.651291
 21
86.827965
  0
DIMENSION
  8
CSLAYER1
 62
     7
  2
*D0000
 10
108.679688
 20
177.965443
 11
98.179688
 21
178.965439
 13
87.679688
 23
173.265625
 14
108.679688
 24
173.265625
 70
1
  0
DIMENSION
  8
CSLAYER1
 62
     7
  2
*D0001
 10
118.700758
 20
168.265625
 11
123.556725
 21
157.437958
 13
113.679688
 23
147.265625
 14
113.679688
 24
168.265625
 50
90.000000
 70
1
  0
TEXT
  8
CSLAYER1
 62
     7
 10
144.914063
 20
86.781250
 40
10.000000
 41
0.642857
  1
21x21
 50
0.000000
 51
0.000000
  7
SX_FONT
 72
     5
 11
174.914063
 21
86.781250
  0
TEXT
  8
CSLAYER1
 62
     7
 10
88.375008
 20
75.541809
 40
5.000000
 41
0.612766
  1
カタログ Vol. 1  P68
 50
0.000000
 51
0.000000
  7
SX_FONT
 72
     5
 11
136.375008
 21
75.541809
  0
TEXT
  8
CSLAYER1
 62
     7
 10
88.459341
 20
64.924384
 40
4.960742
 41
0.729057
  1
ホ%%dケットカタロク゛ Vol. 1 P41
 50
0.000000
 51
0.000000
  7
SX_FONT
 72
     5
 11
163.203699
 21
64.924384
  0
ENDSEC
  0
EOF
