  0
SECTION
  2
HEADER
  9
$ACADVER
  1
AC1006
  9
$INSBASE
 10
60.410847
 20
186.481583
 30
0.0
  9
$EXTMIN
 10
60.410847
 20
186.481583
  9
$EXTMAX
 10
270.410847
 20
483.481583
  9
$LIMMIN
 10
60.410847
 20
186.481583
  9
$LIMMAX
 10
270.410847
 20
483.481583
  9
$VIEWCTR
 10
165.410847
 20
334.981583
  9
$VIEWSIZE
 40
297.000000
  9
$SNAPMODE
 70
     0
  9
$SNAPUNIT
 10
1.0
 20
1.0
  9
$SNAPBASE
 10
0.0
 20
0.0
  9
$SNAPANG
 50
0.0
  9
$SNAPSTYLE
 70
     0
  9
$SNAPISOPAIR
 70
     0
  9
$GRIDMODE
 70
     0
  9
$GRIDUNIT
 10
0.0
 20
0.0
  9
$ORTHOMODE
 70
     0
  9
$REGENMODE
 70
     1
  9
$FILLMODE
 70
     1
  9
$QTEXTMODE
 70
     0
  9
$DRAGMODE
 70
     2
  9
$LTSCALE
 40
15.000000
  9
$OSMODE
 70
     0
  9
$ATTMODE
 70
     1
  9
$TEXTSIZE
 40
0.2
  9
$TRACEWID
 40
0.05
  9
$TEXTSTYLE
  7
STANDARD
  9
$CLAYER
  8
CSLAYER3
  9
$CELTYPE
  6
BYLAYER
  9
$CECOLOR
 62
   256
  9
$DIMSCALE
 40
1.0
  9
$DIMASZ
 40
0.18
  9
$DIMEXO
 40
0.0625
  9
$DIMDLI
 40
0.38
  9
$DIMRND
 40
0.0
  9
$DIMDLE
 40
0.0
  9
$DIMEXE
 40
0.18
  9
$DIMTP
 40
0.0
  9
$DIMTM
 40
0.0
  9
$DIMTXT
 40
0.18
  9
$DIMCEN
 40
0.09
  9
$DIMTSZ
 40
0.0
  9
$DIMTOL
 70
     0
  9
$DIMLIM
 70
     0
  9
$DIMTIH
 70
     1
  9
$DIMTOH
 70
     1
  9
$DIMSE1
 70
     0
  9
$DIMSE2
 70
     0
  9
$DIMTAD
 70
     0
  9
$DIMZIN
 70
     0
  9
$DIMBLK
  1

  9
$LUNITS
 70
     2
  9
$LUPREC
 70
     4
  9
$AXISMODE
 70
     0
  9
$AXISUNIT
 10
0.0
 20
0.0
  9
$SKETCHINC
 40
0.1
  9
$FILLETRAD
 40
0.0
  9
$AUNITS
 70
     0
  9
$AUPREC
 70
     0
  9
$MENU
  1
ACAD
  9
$ELEVATION
 40
0.0
  9
$THICKNESS
 40
0.0
  9
$VIEWDIR
 10
0.0
 20
0.0
 30
1.0
  9
$LIMCHECK
 70
     0
  9
$BLIPMODE
 70
     1
  9
$CHAMFERA
 40
0.0
  9
$CHAMFERB
 40
0.0
  9
$FASTZOOM
 70
     1
  9
$SKPOLY
 70
     0
  9
$TDCREATE
 40
0.000000
  9
$TDUPDATE
 40
0.000000
  9
$TDINDWG
 40
0.0
  9
$TDUSRTIMER
 40
0.0
  9
$USRTIMER
 70
     1
  9
$ANGBASE
 50
0.0
  9
$ANGDIR
 70
     0
  9
$PDMODE
 70
     0
  9
$PDSIZE
 40
0.0
  9
$PLINEWID
 40
0.0
  9
$COORDS
 70
     0
  9
$USERI1
 70
     0
  9
$USERI2
 70
     0
  9
$USERI3
 70
     0
  9
$USERI4
 70
     0
  9
$USERI5
 70
     0
  9
$USERR1
 40
0.0
  9
$USERR2
 40
0.0
  9
$USERR3
 40
0.0
  9
$USERR4
 40
0.0
  9
$USERR5
 40
0.0
  0
ENDSEC
  0
SECTION
  2
TABLES
  0
TABLE
  2
LTYPE
 70
     9
  0
LTYPE
  2
CONTINUOUS
 70
    64
  3
Solid line
 72
    65
 73
     0
 40
0.0
  0
LTYPE
  2
DASHED
 70
    64
  3
__ __ __ __ __ __ __ __ __ __ __ __ __ __ __
 72
    65
 73
     2
 40
0.75
 49
0.5
 49
-0.25
  0
LTYPE
  2
HIDDEN
 70
    64
  3
_ _ _ _ _ _ _ _ _ _ _ _ _ _ _ _ _ _ _ _ _ _ _
 72
    65
 73
     2
 40
0.375
 49
0.25
 49
-0.125
  0
LTYPE
  2
DOT
 70
    64
  3
...............................................
 72
    65
 73
     2
 40
0.25
 49
0.0
 49
-0.25
  0
LTYPE
  2
DASHDOT
 70
    64
  3
__ . __ . __ . __ . __ . __ . __ . __ . __ . __
 72
    65
 73
     4
 40
1.0
 49
0.5
 49
-0.25
 49
0.0
 49
-0.25
  0
LTYPE
  2
DIVIDE
 70
    64
  3
__ . . __ . . __ . . __ . . __ . . __ . . __
 72
    65
 73
     6
 40
1.25
 49
0.5
 49
-0.25
 49
0.0
 49
-0.25
 49
0.0
 49
-0.25
  0
LTYPE
  2
CENTER
 70
    64
  3
____ _ ____ _ ____ _ ____ _ ____ _ ____ _ ____ 
 72
    65
 73
     4
 40
2.0
 49
1.25
 49
-0.25
 49
0.25
 49
-0.25
  0
LTYPE
  2
PHANTOM
 70
    64
  3
______  __  __  ______  __  __  ______  __  __ 
 72
    65
 73
     6
 40
2.5
 49
1.25
 49
-0.25
 49
0.25
 49
-0.25
 49
0.25
 49
-0.25
  0
LTYPE
  2
BORDER
 70
    64
  3
__ __ . __ __ . __ __ . __ __ . __ __ . __ __ .
 72
    65
 73
     6
 40
1.75
 49
0.5
 49
-0.25
 49
0.5
 49
-0.25
 49
0.0
 49
-0.25
  0
ENDTAB
  0
TABLE
  2
LAYER
 70
    16
  0
LAYER
  2
CSLAYER1
 70
    64
 62
     7
  6
CONTINUOUS
  0
LAYER
  2
CSLAYER2
 70
    64
 62
     7
  6
CONTINUOUS
  0
LAYER
  2
CSLAYER3
 70
    64
 62
     7
  6
CONTINUOUS
  0
LAYER
  2
CSLAYER4
 70
    64
 62
     7
  6
CONTINUOUS
  0
LAYER
  2
CSLAYER5
 70
    64
 62
     7
  6
CONTINUOUS
  0
LAYER
  2
CSLAYER6
 70
    64
 62
     7
  6
CONTINUOUS
  0
LAYER
  2
CSLAYER7
 70
    64
 62
     7
  6
CONTINUOUS
  0
LAYER
  2
CSLAYER8
 70
    64
 62
     7
  6
CONTINUOUS
  0
LAYER
  2
CSLAYER9
 70
    64
 62
     7
  6
CONTINUOUS
  0
LAYER
  2
CSLAYER10
 70
    64
 62
     7
  6
CONTINUOUS
  0
LAYER
  2
CSLAYER11
 70
    64
 62
     7
  6
CONTINUOUS
  0
LAYER
  2
CSLAYER12
 70
    64
 62
     7
  6
CONTINUOUS
  0
LAYER
  2
CSLAYER13
 70
    64
 62
     7
  6
CONTINUOUS
  0
LAYER
  2
CSLAYER14
 70
    64
 62
     7
  6
CONTINUOUS
  0
LAYER
  2
CSLAYER15
 70
    64
 62
     7
  6
CONTINUOUS
  0
LAYER
  2
CSLAYER16
 70
    64
 62
     7
  6
CONTINUOUS
  0
ENDTAB
  0
TABLE
  2
STYLE
 70
     1
  0
STYLE
  2
SX_FONT
 70
     0
 40
1.0
 41
1.0
 50
0.0
 71
     0
 42
1.0
  3
monotxt
  4
bigfont
  0
ENDTAB
  0
TABLE
  2
VIEW
 70
     0
  0
ENDTAB
  0
ENDSEC
  0
SECTION
  2
BLOCKS
  0
BLOCK
  8
CSLAYER1
  2
*D0000
 70
    65
 10
0.0
 20
0.0
 30
0.0
  0
LINE
  8
CSLAYER1
  6
CONTINUOUS
 62
     7
 10
150.257813
 20
120.968750
 11
155.438966
 21
120.968750
  0
LINE
  8
CSLAYER1
  6
CONTINUOUS
 62
     7
 10
150.257813
 20
175.968750
 11
155.438966
 21
175.968750
  0
LINE
  8
CSLAYER1
  6
CONTINUOUS
 62
     7
 10
154.438966
 20
120.968750
 11
154.438966
 21
175.968750
  0
LINE
  8
CSLAYER1
  6
CONTINUOUS
 62
     7
 10
154.438966
 20
120.968750
 11
153.403690
 21
124.832453
  0
LINE
  8
CSLAYER1
  6
CONTINUOUS
 62
     7
 10
154.438966
 20
120.968750
 11
155.474243
 21
124.832453
  0
LINE
  8
CSLAYER1
  6
CONTINUOUS
 62
     7
 10
154.438966
 20
175.968750
 11
153.403690
 21
172.105047
  0
LINE
  8
CSLAYER1
  6
CONTINUOUS
 62
     7
 10
154.438966
 20
175.968750
 11
155.474243
 21
172.105047
  0
TEXT
  8
CSLAYER1
 62
     7
 10
159.967148
 20
145.160309
 40
4.000000
 41
0.900000
  1
55
 50
90.000000
 51
0.000000
  7
SX_FONT
 72
     5
 11
159.967148
 21
151.160309
  0
ENDBLK
  8
0
  0
BLOCK
  8
CSLAYER1
  2
*D0001
 70
    65
 10
0.0
 20
0.0
 30
0.0
  0
LINE
  8
CSLAYER1
  6
CONTINUOUS
 62
     7
 10
59.257813
 20
181.968750
 11
59.257813
 21
186.984665
  0
LINE
  8
CSLAYER1
  6
CONTINUOUS
 62
     7
 10
144.257813
 20
181.968750
 11
144.257813
 21
186.984665
  0
LINE
  8
CSLAYER1
  6
CONTINUOUS
 62
     7
 10
59.257813
 20
185.984665
 11
144.257813
 21
185.984665
  0
LINE
  8
CSLAYER1
  6
CONTINUOUS
 62
     7
 10
59.257813
 20
185.984665
 11
63.121516
 21
187.019941
  0
LINE
  8
CSLAYER1
  6
CONTINUOUS
 62
     7
 10
59.257813
 20
185.984665
 11
63.121516
 21
184.949389
  0
LINE
  8
CSLAYER1
  6
CONTINUOUS
 62
     7
 10
144.257813
 20
185.984665
 11
140.394109
 21
187.019941
  0
LINE
  8
CSLAYER1
  6
CONTINUOUS
 62
     7
 10
144.257813
 20
185.984665
 11
140.394109
 21
184.949389
  0
TEXT
  8
CSLAYER1
 62
     7
 10
98.757813
 20
186.984665
 40
4.000000
 41
0.900000
  1
85
 50
0.000000
 51
0.000000
  7
SX_FONT
 72
     5
 11
104.757813
 21
186.984665
  0
ENDBLK
  8
0
  0
ENDSEC
  0
SECTION
  2
ENTITIES
  0
ARC
  8
CSLAYER2
  6
CONTINUOUS
 62
     7
 10
59.257813
 20
175.968750
 40
18.500000
 50
270.000000
 51
360.000000
  0
LINE
  8
CSLAYER2
  6
CONTINUOUS
 62
     7
 10
62.931098
 20
147.103942
 11
67.550432
 21
141.726977
  0
ARC
  8
CSLAYER2
  6
CONTINUOUS
 62
     7
 10
63.757812
 20
138.468750
 40
5.000000
 50
9.588833
 51
40.665767
  0
ARC
  8
CSLAYER2
  6
CONTINUOUS
 62
     7
 10
69.757813
 20
152.968750
 40
9.000000
 50
180.000000
 51
220.665767
  0
ARC
  8
CSLAYER2
  6
CONTINUOUS
 62
     7
 10
96.257813
 20
144.968750
 40
30.000000
 50
90.000000
 51
113.578178
  0
ARC
  8
CSLAYER2
  6
CONTINUOUS
 62
     7
 10
131.257812
 20
161.468750
 40
3.000000
 50
0.000000
 51
89.432773
  0
ARC
  8
CSLAYER2
  6
CONTINUOUS
 62
     7
 10
131.683505
 20
204.466643
 40
40.000000
 50
236.974608
 51
269.432773
  0
ARC
  8
CSLAYER2
  6
CONTINUOUS
 62
     7
 10
96.257813
 20
149.968750
 40
25.000000
 50
56.974608
 51
90.000000
  0
LINE
  8
CSLAYER2
  6
CONTINUOUS
 62
     7
 10
59.257813
 20
157.468750
 11
59.257813
 21
152.968750
  0
LINE
  8
CSLAYER2
  6
CONTINUOUS
 62
     7
 10
59.257813
 20
152.968750
 11
60.757813
 21
152.968750
  0
LINE
  8
CSLAYER2
  6
CONTINUOUS
 62
     7
 10
68.687955
 20
139.301633
 11
69.757813
 21
132.968750
  0
LINE
  8
CSLAYER2
  6
CONTINUOUS
 62
     7
 10
69.757813
 20
132.968750
 11
71.257813
 21
132.968750
  0
LINE
  8
CSLAYER2
  6
CONTINUOUS
 62
     7
 10
71.257813
 20
132.968750
 11
71.257813
 21
127.968750
  0
LINE
  8
CSLAYER2
  6
CONTINUOUS
 62
     7
 10
71.257813
 20
127.968750
 11
70.757813
 21
127.968750
  0
LINE
  8
CSLAYER2
  6
CONTINUOUS
 62
     7
 10
134.257813
 20
161.468750
 11
144.257813
 21
161.468750
  0
LINE
  8
CSLAYER2
  6
CONTINUOUS
 62
     7
 10
144.257813
 20
161.468750
 11
144.257813
 21
149.968750
  0
LINE
  8
CSLAYER2
  6
CONTINUOUS
 62
     7
 10
144.257813
 20
149.968750
 11
84.257813
 21
149.968750
  0
LINE
  8
CSLAYER2
  6
CONTINUOUS
 62
     7
 10
84.257813
 20
149.968750
 11
84.257813
 21
120.968750
  0
LINE
  8
CSLAYER2
  6
CONTINUOUS
 62
     7
 10
84.257813
 20
120.968750
 11
70.757813
 21
120.968750
  0
LINE
  8
CSLAYER2
  6
CONTINUOUS
 62
     7
 10
77.757813
 20
175.968750
 11
84.257813
 21
175.968750
  0
LINE
  8
CSLAYER2
  6
CONTINUOUS
 62
     7
 10
84.257813
 20
175.968750
 11
84.257813
 21
172.464204
  0
ARC
  8
CSLAYER2
  6
CONTINUOUS
 62
     7
 10
70.757813
 20
124.468750
 40
3.500000
 50
90.000000
 51
180.000000
  0
ARC
  8
CSLAYER2
  6
CONTINUOUS
 62
     7
 10
70.757813
 20
124.468750
 40
3.500000
 50
180.000000
 51
270.000000
  0
TEXT
  8
CSLAYER1
 62
     7
 10
59.124649
 20
60.525780
 40
10.000000
 41
0.630000
  1
FM-2182
 50
0.000000
 51
0.000000
  7
SX_FONT
 72
     5
 11
101.124649
 21
60.525780
  0
DIMENSION
  8
CSLAYER1
 62
     7
  2
*D0000
 10
154.438966
 20
175.968750
 11
159.967148
 21
148.160309
 13
149.257813
 23
120.968750
 14
149.257813
 24
175.968750
 50
90.000000
 70
1
  0
DIMENSION
  8
CSLAYER1
 62
     7
  2
*D0001
 10
144.257813
 20
185.984665
 11
101.757813
 21
186.984665
 13
59.257813
 23
180.968750
 14
144.257813
 24
180.968750
 70
1
  0
TEXT
  8
CSLAYER1
 62
     7
 10
115.403519
 20
60.277824
 40
10.000000
 41
0.642857
  1
85x55
 50
0.000000
 51
0.000000
  7
SX_FONT
 72
     5
 11
145.403519
 21
60.277824
  0
TEXT
  8
CSLAYER1
 62
     7
 10
59.992638
 20
49.308311
 40
5.000000
 41
0.612766
  1
カタログ Vol. 1  P68
 50
0.000000
 51
0.000000
  7
SX_FONT
 72
     5
 11
107.992638
 21
49.308311
  0
TEXT
  8
CSLAYER1
 62
     7
 10
60.076971
 20
38.306414
 40
4.960742
 41
0.729057
  1
ホ%%dケットカタロク゛ Vol. 1 P41
 50
0.000000
 51
0.000000
  7
SX_FONT
 72
     5
 11
134.821329
 21
38.306414
  0
ENDSEC
  0
EOF
