  0
SECTION
  2
HEADER
  9
$ACADVER
  1
AC1006
  9
$INSBASE
 10
73.443929
 20
175.380534
 30
0.0
  9
$EXTMIN
 10
73.443929
 20
175.380534
  9
$EXTMAX
 10
283.443929
 20
472.380534
  9
$LIMMIN
 10
73.443929
 20
175.380534
  9
$LIMMAX
 10
283.443929
 20
472.380534
  9
$VIEWCTR
 10
178.443929
 20
323.880534
  9
$VIEWSIZE
 40
297.000000
  9
$SNAPMODE
 70
     0
  9
$SNAPUNIT
 10
1.0
 20
1.0
  9
$SNAPBASE
 10
0.0
 20
0.0
  9
$SNAPANG
 50
0.0
  9
$SNAPSTYLE
 70
     0
  9
$SNAPISOPAIR
 70
     0
  9
$GRIDMODE
 70
     0
  9
$GRIDUNIT
 10
0.0
 20
0.0
  9
$ORTHOMODE
 70
     0
  9
$REGENMODE
 70
     1
  9
$FILLMODE
 70
     1
  9
$QTEXTMODE
 70
     0
  9
$DRAGMODE
 70
     2
  9
$LTSCALE
 40
15.000000
  9
$OSMODE
 70
     0
  9
$ATTMODE
 70
     1
  9
$TEXTSIZE
 40
0.2
  9
$TRACEWID
 40
0.05
  9
$TEXTSTYLE
  7
STANDARD
  9
$CLAYER
  8
CSLAYER3
  9
$CELTYPE
  6
BYLAYER
  9
$CECOLOR
 62
   256
  9
$DIMSCALE
 40
1.0
  9
$DIMASZ
 40
0.18
  9
$DIMEXO
 40
0.0625
  9
$DIMDLI
 40
0.38
  9
$DIMRND
 40
0.0
  9
$DIMDLE
 40
0.0
  9
$DIMEXE
 40
0.18
  9
$DIMTP
 40
0.0
  9
$DIMTM
 40
0.0
  9
$DIMTXT
 40
0.18
  9
$DIMCEN
 40
0.09
  9
$DIMTSZ
 40
0.0
  9
$DIMTOL
 70
     0
  9
$DIMLIM
 70
     0
  9
$DIMTIH
 70
     1
  9
$DIMTOH
 70
     1
  9
$DIMSE1
 70
     0
  9
$DIMSE2
 70
     0
  9
$DIMTAD
 70
     0
  9
$DIMZIN
 70
     0
  9
$DIMBLK
  1

  9
$LUNITS
 70
     2
  9
$LUPREC
 70
     4
  9
$AXISMODE
 70
     0
  9
$AXISUNIT
 10
0.0
 20
0.0
  9
$SKETCHINC
 40
0.1
  9
$FILLETRAD
 40
0.0
  9
$AUNITS
 70
     0
  9
$AUPREC
 70
     0
  9
$MENU
  1
ACAD
  9
$ELEVATION
 40
0.0
  9
$THICKNESS
 40
0.0
  9
$VIEWDIR
 10
0.0
 20
0.0
 30
1.0
  9
$LIMCHECK
 70
     0
  9
$BLIPMODE
 70
     1
  9
$CHAMFERA
 40
0.0
  9
$CHAMFERB
 40
0.0
  9
$FASTZOOM
 70
     1
  9
$SKPOLY
 70
     0
  9
$TDCREATE
 40
0.000000
  9
$TDUPDATE
 40
0.000000
  9
$TDINDWG
 40
0.0
  9
$TDUSRTIMER
 40
0.0
  9
$USRTIMER
 70
     1
  9
$ANGBASE
 50
0.0
  9
$ANGDIR
 70
     0
  9
$PDMODE
 70
     0
  9
$PDSIZE
 40
0.0
  9
$PLINEWID
 40
0.0
  9
$COORDS
 70
     0
  9
$USERI1
 70
     0
  9
$USERI2
 70
     0
  9
$USERI3
 70
     0
  9
$USERI4
 70
     0
  9
$USERI5
 70
     0
  9
$USERR1
 40
0.0
  9
$USERR2
 40
0.0
  9
$USERR3
 40
0.0
  9
$USERR4
 40
0.0
  9
$USERR5
 40
0.0
  0
ENDSEC
  0
SECTION
  2
TABLES
  0
TABLE
  2
LTYPE
 70
     9
  0
LTYPE
  2
CONTINUOUS
 70
    64
  3
Solid line
 72
    65
 73
     0
 40
0.0
  0
LTYPE
  2
DASHED
 70
    64
  3
__ __ __ __ __ __ __ __ __ __ __ __ __ __ __
 72
    65
 73
     2
 40
0.75
 49
0.5
 49
-0.25
  0
LTYPE
  2
HIDDEN
 70
    64
  3
_ _ _ _ _ _ _ _ _ _ _ _ _ _ _ _ _ _ _ _ _ _ _
 72
    65
 73
     2
 40
0.375
 49
0.25
 49
-0.125
  0
LTYPE
  2
DOT
 70
    64
  3
...............................................
 72
    65
 73
     2
 40
0.25
 49
0.0
 49
-0.25
  0
LTYPE
  2
DASHDOT
 70
    64
  3
__ . __ . __ . __ . __ . __ . __ . __ . __ . __
 72
    65
 73
     4
 40
1.0
 49
0.5
 49
-0.25
 49
0.0
 49
-0.25
  0
LTYPE
  2
DIVIDE
 70
    64
  3
__ . . __ . . __ . . __ . . __ . . __ . . __
 72
    65
 73
     6
 40
1.25
 49
0.5
 49
-0.25
 49
0.0
 49
-0.25
 49
0.0
 49
-0.25
  0
LTYPE
  2
CENTER
 70
    64
  3
____ _ ____ _ ____ _ ____ _ ____ _ ____ _ ____ 
 72
    65
 73
     4
 40
2.0
 49
1.25
 49
-0.25
 49
0.25
 49
-0.25
  0
LTYPE
  2
PHANTOM
 70
    64
  3
______  __  __  ______  __  __  ______  __  __ 
 72
    65
 73
     6
 40
2.5
 49
1.25
 49
-0.25
 49
0.25
 49
-0.25
 49
0.25
 49
-0.25
  0
LTYPE
  2
BORDER
 70
    64
  3
__ __ . __ __ . __ __ . __ __ . __ __ . __ __ .
 72
    65
 73
     6
 40
1.75
 49
0.5
 49
-0.25
 49
0.5
 49
-0.25
 49
0.0
 49
-0.25
  0
ENDTAB
  0
TABLE
  2
LAYER
 70
    16
  0
LAYER
  2
CSLAYER1
 70
    64
 62
     7
  6
CONTINUOUS
  0
LAYER
  2
CSLAYER2
 70
    64
 62
     7
  6
CONTINUOUS
  0
LAYER
  2
CSLAYER3
 70
    64
 62
     7
  6
CONTINUOUS
  0
LAYER
  2
CSLAYER4
 70
    64
 62
     7
  6
CONTINUOUS
  0
LAYER
  2
CSLAYER5
 70
    64
 62
     7
  6
CONTINUOUS
  0
LAYER
  2
CSLAYER6
 70
    64
 62
     7
  6
CONTINUOUS
  0
LAYER
  2
CSLAYER7
 70
    64
 62
     7
  6
CONTINUOUS
  0
LAYER
  2
CSLAYER8
 70
    64
 62
     7
  6
CONTINUOUS
  0
LAYER
  2
CSLAYER9
 70
    64
 62
     7
  6
CONTINUOUS
  0
LAYER
  2
CSLAYER10
 70
    64
 62
     7
  6
CONTINUOUS
  0
LAYER
  2
CSLAYER11
 70
    64
 62
     7
  6
CONTINUOUS
  0
LAYER
  2
CSLAYER12
 70
    64
 62
     7
  6
CONTINUOUS
  0
LAYER
  2
CSLAYER13
 70
    64
 62
     7
  6
CONTINUOUS
  0
LAYER
  2
CSLAYER14
 70
    64
 62
     7
  6
CONTINUOUS
  0
LAYER
  2
CSLAYER15
 70
    64
 62
     7
  6
CONTINUOUS
  0
LAYER
  2
CSLAYER16
 70
    64
 62
     7
  6
CONTINUOUS
  0
ENDTAB
  0
TABLE
  2
STYLE
 70
     1
  0
STYLE
  2
SX_FONT
 70
     0
 40
1.0
 41
1.0
 50
0.0
 71
     0
 42
1.0
  3
monotxt
  4
bigfont
  0
ENDTAB
  0
TABLE
  2
VIEW
 70
     0
  0
ENDTAB
  0
ENDSEC
  0
SECTION
  2
BLOCKS
  0
BLOCK
  8
CSLAYER1
  2
*D0000
 70
    65
 10
0.0
 20
0.0
 30
0.0
  0
LINE
  8
CSLAYER1
  6
CONTINUOUS
 62
     7
 10
72.757812
 20
171.171875
 11
72.757812
 21
176.227872
  0
LINE
  8
CSLAYER1
  6
CONTINUOUS
 62
     7
 10
127.757812
 20
171.171875
 11
127.757812
 21
176.227872
  0
LINE
  8
CSLAYER1
  6
CONTINUOUS
 62
     7
 10
72.757812
 20
175.227872
 11
127.757812
 21
175.227872
  0
LINE
  8
CSLAYER1
  6
CONTINUOUS
 62
     7
 10
72.757812
 20
175.227872
 11
76.621516
 21
176.263148
  0
LINE
  8
CSLAYER1
  6
CONTINUOUS
 62
     7
 10
72.757812
 20
175.227872
 11
76.621516
 21
174.192596
  0
LINE
  8
CSLAYER1
  6
CONTINUOUS
 62
     7
 10
127.757812
 20
175.227872
 11
123.894109
 21
176.263148
  0
LINE
  8
CSLAYER1
  6
CONTINUOUS
 62
     7
 10
127.757812
 20
175.227872
 11
123.894109
 21
174.192596
  0
TEXT
  8
CSLAYER1
 62
     7
 10
97.257813
 20
176.227875
 40
4.000000
 41
0.900000
  1
55
 50
0.000000
 51
0.000000
  7
SX_FONT
 72
     5
 11
103.257813
 21
176.227875
  0
ENDBLK
  8
0
  0
BLOCK
  8
CSLAYER1
  2
*D0001
 70
    65
 10
0.0
 20
0.0
 30
0.0
  0
LINE
  8
CSLAYER1
  6
CONTINUOUS
 62
     7
 10
133.757812
 20
125.171875
 11
139.017837
 21
125.171875
  0
LINE
  8
CSLAYER1
  6
CONTINUOUS
 62
     7
 10
133.757812
 20
165.171875
 11
139.017837
 21
165.171875
  0
LINE
  8
CSLAYER1
  6
CONTINUOUS
 62
     7
 10
138.017837
 20
125.171875
 11
138.017837
 21
165.171875
  0
LINE
  8
CSLAYER1
  6
CONTINUOUS
 62
     7
 10
138.017837
 20
125.171875
 11
136.982561
 21
129.035578
  0
LINE
  8
CSLAYER1
  6
CONTINUOUS
 62
     7
 10
138.017837
 20
125.171875
 11
139.053113
 21
129.035578
  0
LINE
  8
CSLAYER1
  6
CONTINUOUS
 62
     7
 10
138.017837
 20
165.171875
 11
136.982561
 21
161.308172
  0
LINE
  8
CSLAYER1
  6
CONTINUOUS
 62
     7
 10
138.017837
 20
165.171875
 11
139.053113
 21
161.308172
  0
TEXT
  8
CSLAYER1
 62
     7
 10
142.977005
 20
141.481079
 40
4.000000
 41
0.900000
  1
40
 50
90.000000
 51
0.000000
  7
SX_FONT
 72
     5
 11
142.977005
 21
147.481079
  0
ENDBLK
  8
0
  0
ENDSEC
  0
SECTION
  2
ENTITIES
  0
ARC
  8
CSLAYER2
  6
CONTINUOUS
 62
     7
 10
76.257812
 20
125.171875
 40
6.000000
 50
0.000000
 51
25.448343
  0
ARC
  8
CSLAYER2
  6
CONTINUOUS
 62
     7
 10
72.645920
 20
123.453086
 40
10.000000
 50
25.448343
 51
57.724286
  0
ARC
  8
CSLAYER2
  6
CONTINUOUS
 62
     7
 10
82.257812
 20
138.671875
 40
8.000000
 50
180.000000
 51
237.724286
  0
ARC
  8
CSLAYER2
  6
CONTINUOUS
 62
     7
 10
124.007812
 20
153.171875
 40
3.750000
 50
0.000000
 51
90.000000
  0
ARC
  8
CSLAYER2
  6
CONTINUOUS
 62
     7
 10
124.007812
 20
153.171875
 40
3.750000
 50
90.000000
 51
180.000000
  0
ARC
  8
CSLAYER2
  6
CONTINUOUS
 62
     7
 10
95.757812
 20
154.671875
 40
8.000000
 50
33.748989
 51
90.000000
  0
ARC
  8
CSLAYER2
  6
CONTINUOUS
 62
     7
 10
110.724442
 20
164.671875
 40
10.000000
 50
213.748989
 51
270.000000
  0
ARC
  8
CSLAYER2
  6
CONTINUOUS
 62
     7
 10
72.308956
 20
164.161796
 40
10.000000
 50
-87.427379
 51
5.797211
  0
LINE
  8
CSLAYER2
  6
CONTINUOUS
 62
     7
 10
110.724442
 20
154.671875
 11
116.757812
 21
154.671875
  0
LINE
  8
CSLAYER2
  6
CONTINUOUS
 62
     7
 10
116.757812
 20
154.671875
 11
116.757812
 21
153.171875
  0
LINE
  8
CSLAYER2
  6
CONTINUOUS
 62
     7
 10
116.757812
 20
153.171875
 11
120.257812
 21
153.171875
  0
LINE
  8
CSLAYER2
  6
CONTINUOUS
 62
     7
 10
127.757812
 20
153.171875
 11
127.757812
 21
143.671875
  0
LINE
  8
CSLAYER2
  6
CONTINUOUS
 62
     7
 10
127.757812
 20
143.671875
 11
87.257812
 21
143.671875
  0
LINE
  8
CSLAYER2
  6
CONTINUOUS
 62
     7
 10
87.257812
 20
143.671875
 11
87.257812
 21
125.171875
  0
LINE
  8
CSLAYER2
  6
CONTINUOUS
 62
     7
 10
87.257812
 20
125.171875
 11
82.257812
 21
125.171875
  0
LINE
  8
CSLAYER2
  6
CONTINUOUS
 62
     7
 10
82.257812
 20
165.171875
 11
95.757812
 21
165.171875
  0
LINE
  8
CSLAYER2
  6
CONTINUOUS
 62
     7
 10
95.757812
 20
165.171875
 11
95.757812
 21
162.671875
  0
LINE
  8
CSLAYER2
  6
CONTINUOUS
 62
     7
 10
72.757812
 20
154.171875
 11
72.757812
 21
147.171875
  0
LINE
  8
CSLAYER2
  6
CONTINUOUS
 62
     7
 10
72.757812
 20
147.171875
 11
75.257812
 21
147.171875
  0
LINE
  8
CSLAYER2
  6
CONTINUOUS
 62
     7
 10
75.257812
 20
147.171875
 11
75.257812
 21
143.671875
  0
LINE
  8
CSLAYER2
  6
CONTINUOUS
 62
     7
 10
75.257812
 20
143.671875
 11
72.757812
 21
143.671875
  0
LINE
  8
CSLAYER2
  6
CONTINUOUS
 62
     7
 10
72.757812
 20
143.671875
 11
72.757812
 21
138.671875
  0
LINE
  8
CSLAYER2
  6
CONTINUOUS
 62
     7
 10
72.757812
 20
138.671875
 11
74.257812
 21
138.671875
  0
TEXT
  8
CSLAYER1
 62
     7
 10
72.693901
 20
76.672462
 40
10.000000
 41
0.630000
  1
FM-2181
 50
0.000000
 51
0.000000
  7
SX_FONT
 72
     5
 11
114.693901
 21
76.672462
  0
DIMENSION
  8
CSLAYER1
 62
     7
  2
*D0000
 10
127.757812
 20
175.227872
 11
100.257813
 21
176.227875
 13
72.757812
 23
170.171875
 14
127.757812
 24
170.171875
 70
1
  0
DIMENSION
  8
CSLAYER1
 62
     7
  2
*D0001
 10
138.017837
 20
165.171875
 11
142.977005
 21
144.481079
 13
132.757812
 23
125.171875
 14
132.757812
 24
165.171875
 50
90.000000
 70
1
  0
TEXT
  8
CSLAYER1
 62
     7
 10
129.672470
 20
76.891518
 40
10.000000
 41
0.642857
  1
55x40
 50
0.000000
 51
0.000000
  7
SX_FONT
 72
     5
 11
159.672470
 21
76.891518
  0
TEXT
  8
CSLAYER1
 62
     7
 10
72.981216
 20
64.806740
 40
5.000000
 41
0.612766
  1
カタログ Vol. 1  P68
 50
0.000000
 51
0.000000
  7
SX_FONT
 72
     5
 11
120.981216
 21
64.806740
  0
TEXT
  8
CSLAYER1
 62
     7
 10
72.776449
 20
54.880770
 40
4.960742
 41
0.729057
  1
ホ%%dケットカタロク゛ Vol. 1 P41
 50
0.000000
 51
0.000000
  7
SX_FONT
 72
     5
 11
147.520807
 21
54.880770
  0
ENDSEC
  0
EOF
