  0
SECTION
  2
HEADER
  9
$ACADVER
  1
AC1006
  9
$INSBASE
 10
57.211589
 20
225.371094
 30
0.0
  9
$EXTMIN
 10
57.211589
 20
225.371094
  9
$EXTMAX
 10
267.211589
 20
522.371094
  9
$LIMMIN
 10
57.211589
 20
225.371094
  9
$LIMMAX
 10
267.211589
 20
522.371094
  9
$VIEWCTR
 10
162.211589
 20
373.871094
  9
$VIEWSIZE
 40
297.000000
  9
$SNAPMODE
 70
     0
  9
$SNAPUNIT
 10
1.0
 20
1.0
  9
$SNAPBASE
 10
0.0
 20
0.0
  9
$SNAPANG
 50
0.0
  9
$SNAPSTYLE
 70
     0
  9
$SNAPISOPAIR
 70
     0
  9
$GRIDMODE
 70
     0
  9
$GRIDUNIT
 10
0.0
 20
0.0
  9
$ORTHOMODE
 70
     0
  9
$REGENMODE
 70
     1
  9
$FILLMODE
 70
     1
  9
$QTEXTMODE
 70
     0
  9
$DRAGMODE
 70
     2
  9
$LTSCALE
 40
15.000000
  9
$OSMODE
 70
     0
  9
$ATTMODE
 70
     1
  9
$TEXTSIZE
 40
0.2
  9
$TRACEWID
 40
0.05
  9
$TEXTSTYLE
  7
STANDARD
  9
$CLAYER
  8
CSLAYER3
  9
$CELTYPE
  6
BYLAYER
  9
$CECOLOR
 62
   256
  9
$DIMSCALE
 40
1.0
  9
$DIMASZ
 40
0.18
  9
$DIMEXO
 40
0.0625
  9
$DIMDLI
 40
0.38
  9
$DIMRND
 40
0.0
  9
$DIMDLE
 40
0.0
  9
$DIMEXE
 40
0.18
  9
$DIMTP
 40
0.0
  9
$DIMTM
 40
0.0
  9
$DIMTXT
 40
0.18
  9
$DIMCEN
 40
0.09
  9
$DIMTSZ
 40
0.0
  9
$DIMTOL
 70
     0
  9
$DIMLIM
 70
     0
  9
$DIMTIH
 70
     1
  9
$DIMTOH
 70
     1
  9
$DIMSE1
 70
     0
  9
$DIMSE2
 70
     0
  9
$DIMTAD
 70
     0
  9
$DIMZIN
 70
     0
  9
$DIMBLK
  1

  9
$LUNITS
 70
     2
  9
$LUPREC
 70
     4
  9
$AXISMODE
 70
     0
  9
$AXISUNIT
 10
0.0
 20
0.0
  9
$SKETCHINC
 40
0.1
  9
$FILLETRAD
 40
0.0
  9
$AUNITS
 70
     0
  9
$AUPREC
 70
     0
  9
$MENU
  1
ACAD
  9
$ELEVATION
 40
0.0
  9
$THICKNESS
 40
0.0
  9
$VIEWDIR
 10
0.0
 20
0.0
 30
1.0
  9
$LIMCHECK
 70
     0
  9
$BLIPMODE
 70
     1
  9
$CHAMFERA
 40
0.0
  9
$CHAMFERB
 40
0.0
  9
$FASTZOOM
 70
     1
  9
$SKPOLY
 70
     0
  9
$TDCREATE
 40
0.000000
  9
$TDUPDATE
 40
0.000000
  9
$TDINDWG
 40
0.0
  9
$TDUSRTIMER
 40
0.0
  9
$USRTIMER
 70
     1
  9
$ANGBASE
 50
0.0
  9
$ANGDIR
 70
     0
  9
$PDMODE
 70
     0
  9
$PDSIZE
 40
0.0
  9
$PLINEWID
 40
0.0
  9
$COORDS
 70
     0
  9
$USERI1
 70
     0
  9
$USERI2
 70
     0
  9
$USERI3
 70
     0
  9
$USERI4
 70
     0
  9
$USERI5
 70
     0
  9
$USERR1
 40
0.0
  9
$USERR2
 40
0.0
  9
$USERR3
 40
0.0
  9
$USERR4
 40
0.0
  9
$USERR5
 40
0.0
  0
ENDSEC
  0
SECTION
  2
TABLES
  0
TABLE
  2
LTYPE
 70
     9
  0
LTYPE
  2
CONTINUOUS
 70
    64
  3
Solid line
 72
    65
 73
     0
 40
0.0
  0
LTYPE
  2
DASHED
 70
    64
  3
__ __ __ __ __ __ __ __ __ __ __ __ __ __ __
 72
    65
 73
     2
 40
0.75
 49
0.5
 49
-0.25
  0
LTYPE
  2
HIDDEN
 70
    64
  3
_ _ _ _ _ _ _ _ _ _ _ _ _ _ _ _ _ _ _ _ _ _ _
 72
    65
 73
     2
 40
0.375
 49
0.25
 49
-0.125
  0
LTYPE
  2
DOT
 70
    64
  3
...............................................
 72
    65
 73
     2
 40
0.25
 49
0.0
 49
-0.25
  0
LTYPE
  2
DASHDOT
 70
    64
  3
__ . __ . __ . __ . __ . __ . __ . __ . __ . __
 72
    65
 73
     4
 40
1.0
 49
0.5
 49
-0.25
 49
0.0
 49
-0.25
  0
LTYPE
  2
DIVIDE
 70
    64
  3
__ . . __ . . __ . . __ . . __ . . __ . . __
 72
    65
 73
     6
 40
1.25
 49
0.5
 49
-0.25
 49
0.0
 49
-0.25
 49
0.0
 49
-0.25
  0
LTYPE
  2
CENTER
 70
    64
  3
____ _ ____ _ ____ _ ____ _ ____ _ ____ _ ____ 
 72
    65
 73
     4
 40
2.0
 49
1.25
 49
-0.25
 49
0.25
 49
-0.25
  0
LTYPE
  2
PHANTOM
 70
    64
  3
______  __  __  ______  __  __  ______  __  __ 
 72
    65
 73
     6
 40
2.5
 49
1.25
 49
-0.25
 49
0.25
 49
-0.25
 49
0.25
 49
-0.25
  0
LTYPE
  2
BORDER
 70
    64
  3
__ __ . __ __ . __ __ . __ __ . __ __ . __ __ .
 72
    65
 73
     6
 40
1.75
 49
0.5
 49
-0.25
 49
0.5
 49
-0.25
 49
0.0
 49
-0.25
  0
ENDTAB
  0
TABLE
  2
LAYER
 70
    16
  0
LAYER
  2
CSLAYER1
 70
    64
 62
     7
  6
CONTINUOUS
  0
LAYER
  2
CSLAYER2
 70
    64
 62
     7
  6
CONTINUOUS
  0
LAYER
  2
CSLAYER3
 70
    64
 62
     7
  6
CONTINUOUS
  0
LAYER
  2
CSLAYER4
 70
    64
 62
     7
  6
CONTINUOUS
  0
LAYER
  2
CSLAYER5
 70
    64
 62
     7
  6
CONTINUOUS
  0
LAYER
  2
CSLAYER6
 70
    64
 62
     7
  6
CONTINUOUS
  0
LAYER
  2
CSLAYER7
 70
    64
 62
     7
  6
CONTINUOUS
  0
LAYER
  2
CSLAYER8
 70
    64
 62
     7
  6
CONTINUOUS
  0
LAYER
  2
CSLAYER9
 70
    64
 62
     7
  6
CONTINUOUS
  0
LAYER
  2
CSLAYER10
 70
    64
 62
     7
  6
CONTINUOUS
  0
LAYER
  2
CSLAYER11
 70
    64
 62
     7
  6
CONTINUOUS
  0
LAYER
  2
CSLAYER12
 70
    64
 62
     7
  6
CONTINUOUS
  0
LAYER
  2
CSLAYER13
 70
    64
 62
     7
  6
CONTINUOUS
  0
LAYER
  2
CSLAYER14
 70
    64
 62
     7
  6
CONTINUOUS
  0
LAYER
  2
CSLAYER15
 70
    64
 62
     7
  6
CONTINUOUS
  0
LAYER
  2
CSLAYER16
 70
    64
 62
     7
  6
CONTINUOUS
  0
ENDTAB
  0
TABLE
  2
STYLE
 70
     1
  0
STYLE
  2
SX_FONT
 70
     0
 40
1.0
 41
1.0
 50
0.0
 71
     0
 42
1.0
  3
monotxt
  4
bigfont
  0
ENDTAB
  0
TABLE
  2
VIEW
 70
     0
  0
ENDTAB
  0
ENDSEC
  0
SECTION
  2
BLOCKS
  0
BLOCK
  8
CSLAYER1
  2
*D0000
 70
    65
 10
0.0
 20
0.0
 30
0.0
  0
LINE
  8
CSLAYER1
  6
CONTINUOUS
 62
     7
 10
45.739634
 20
258.938712
 11
45.739634
 21
265.000000
  0
LINE
  8
CSLAYER1
  6
CONTINUOUS
 62
     7
 10
135.739634
 20
258.938712
 11
135.739634
 21
265.000000
  0
LINE
  8
CSLAYER1
  6
CONTINUOUS
 62
     7
 10
45.739634
 20
264.000000
 11
135.739634
 21
264.000000
  0
LINE
  8
CSLAYER1
  6
CONTINUOUS
 62
     7
 10
45.739634
 20
264.000000
 11
49.603337
 21
265.035276
  0
LINE
  8
CSLAYER1
  6
CONTINUOUS
 62
     7
 10
45.739634
 20
264.000000
 11
49.603337
 21
262.964724
  0
LINE
  8
CSLAYER1
  6
CONTINUOUS
 62
     7
 10
135.739634
 20
264.000000
 11
131.875931
 21
265.035276
  0
LINE
  8
CSLAYER1
  6
CONTINUOUS
 62
     7
 10
135.739634
 20
264.000000
 11
131.875931
 21
262.964724
  0
TEXT
  8
CSLAYER1
 62
     7
 10
87.739632
 20
265.000000
 40
4.000000
 41
0.900000
  1
90
 50
0.000000
 51
0.000000
  7
SX_FONT
 72
     5
 11
93.739632
 21
265.000000
  0
ENDBLK
  8
0
  0
BLOCK
  8
CSLAYER1
  2
*D0001
 70
    65
 10
0.0
 20
0.0
 30
0.0
  0
LINE
  8
CSLAYER1
  6
CONTINUOUS
 62
     7
 10
141.739634
 20
72.938712
 11
147.507813
 21
72.938712
  0
LINE
  8
CSLAYER1
  6
CONTINUOUS
 62
     7
 10
141.739634
 20
252.938712
 11
147.507813
 21
252.938712
  0
LINE
  8
CSLAYER1
  6
CONTINUOUS
 62
     7
 10
146.507813
 20
72.938712
 11
146.507813
 21
252.938712
  0
LINE
  8
CSLAYER1
  6
CONTINUOUS
 62
     7
 10
146.507813
 20
72.938712
 11
145.472536
 21
76.802415
  0
LINE
  8
CSLAYER1
  6
CONTINUOUS
 62
     7
 10
146.507813
 20
72.938712
 11
147.543089
 21
76.802415
  0
LINE
  8
CSLAYER1
  6
CONTINUOUS
 62
     7
 10
146.507813
 20
252.938712
 11
145.472536
 21
249.075009
  0
LINE
  8
CSLAYER1
  6
CONTINUOUS
 62
     7
 10
146.507813
 20
252.938712
 11
147.543089
 21
249.075009
  0
TEXT
  8
CSLAYER1
 62
     7
 10
152.049881
 20
158.527023
 40
4.000000
 41
0.843750
  1
180
 50
90.000000
 51
0.000000
  7
SX_FONT
 72
     5
 11
152.049881
 21
167.527023
  0
ENDBLK
  8
0
  0
ENDSEC
  0
SECTION
  2
ENTITIES
  0
LINE
  8
CSLAYER2
  6
CONTINUOUS
 62
     7
 10
135.739634
 20
252.938712
 11
62.539634
 21
252.938712
  0
ARC
  8
CSLAYER2
  6
CONTINUOUS
 62
     7
 10
61.059014
 20
165.118794
 40
35.051204
 50
-3.636554
 51
87.579013
  0
ARC
  8
CSLAYER2
  6
CONTINUOUS
 62
     7
 10
62.539634
 20
226.538712
 40
16.800000
 50
90.000000
 51
270.000000
  0
LINE
  8
CSLAYER2
  6
CONTINUOUS
 62
     7
 10
62.539634
 20
200.119102
 11
62.539634
 21
209.738712
  0
LINE
  8
CSLAYER2
  6
CONTINUOUS
 62
     7
 10
62.539634
 20
243.338712
 11
62.539634
 21
252.938712
  0
ARC
  8
CSLAYER4
  6
CONTINUOUS
 62
     7
 10
108.919366
 20
123.249586
 40
19.606315
 50
183.530444
 51
257.092145
  0
LINE
  8
CSLAYER2
  6
CONTINUOUS
 62
     7
 10
135.739634
 20
72.938712
 11
135.739634
 21
252.938712
  0
LINE
  8
CSLAYER2
  6
CONTINUOUS
 62
     7
 10
116.539634
 20
72.938712
 11
135.739634
 21
72.938712
  0
LINE
  8
CSLAYER2
  6
CONTINUOUS
 62
     7
 10
104.539634
 20
88.538712
 11
116.539634
 21
88.538712
  0
LINE
  8
CSLAYER2
  6
CONTINUOUS
 62
     7
 10
104.539634
 20
88.538712
 11
104.539634
 21
104.138712
  0
LINE
  8
CSLAYER2
  6
CONTINUOUS
 62
     7
 10
116.539634
 20
72.938712
 11
116.539634
 21
88.538712
  0
ARC
  8
CSLAYER4
  6
CONTINUOUS
 62
     7
 10
37.575954
 20
164.145881
 40
58.477055
 50
337.114503
 51
358.774874
  0
ARC
  8
CSLAYER4
  6
CONTINUOUS
 62
     7
 10
136.254444
 20
126.751031
 40
47.139952
 50
161.889269
 51
185.732800
  0
TEXT
  8
CSLAYER1
 62
     7
 10
47.465248
 20
46.721851
 40
10.000000
 41
0.630000
  1
FM-2179
 50
360.000000
 51
0.000000
  7
SX_FONT
 72
     5
 11
89.465248
 21
46.721851
  0
DIMENSION
  8
CSLAYER1
 62
     7
  2
*D0000
 10
135.739634
 20
264.000000
 11
90.739632
 21
265.000000
 13
45.739634
 23
257.938712
 14
135.739634
 24
257.938712
 70
1
  0
DIMENSION
  8
CSLAYER1
 62
     7
  2
*D0001
 10
146.507813
 20
252.938712
 11
152.049881
 21
163.027023
 13
140.739634
 23
72.938712
 14
140.739634
 24
252.938712
 50
90.000000
 70
1
  0
TEXT
  8
CSLAYER1
 62
     7
 10
100.659126
 20
46.524773
 40
10.000000
 41
0.635294
  1
90x180
 50
0.000000
 51
0.000000
  7
SX_FONT
 72
     5
 11
136.659126
 21
46.524773
  0
TEXT
  8
CSLAYER1
 62
     7
 10
48.179428
 20
34.948063
 40
5.000000
 41
0.612766
  1
カタログ Vol. 1  P67
 50
0.000000
 51
0.000000
  7
SX_FONT
 72
     5
 11
96.179428
 21
34.948063
  0
TEXT
  8
CSLAYER1
 62
     7
 10
47.963644
 20
25.050343
 40
4.960742
 41
0.729057
  1
ホ%%dケットカタロク゛ Vol. 1 P40
 50
0.000000
 51
0.000000
  7
SX_FONT
 72
     5
 11
122.708002
 21
25.050343
  0
ENDSEC
  0
EOF
