  0
SECTION
  2
HEADER
  9
$ACADVER
  1
AC1006
  9
$INSBASE
 10
0.000000
 20
0.000000
 30
0.0
  9
$EXTMIN
 10
0.000000
 20
0.000000
  9
$EXTMAX
 10
210.000000
 20
297.000000
  9
$LIMMIN
 10
0.000000
 20
0.000000
  9
$LIMMAX
 10
210.000000
 20
297.000000
  9
$VIEWCTR
 10
105.000000
 20
148.500000
  9
$VIEWSIZE
 40
297.000000
  9
$SNAPMODE
 70
     0
  9
$SNAPUNIT
 10
1.0
 20
1.0
  9
$SNAPBASE
 10
0.0
 20
0.0
  9
$SNAPANG
 50
0.0
  9
$SNAPSTYLE
 70
     0
  9
$SNAPISOPAIR
 70
     0
  9
$GRIDMODE
 70
     0
  9
$GRIDUNIT
 10
0.0
 20
0.0
  9
$ORTHOMODE
 70
     0
  9
$REGENMODE
 70
     1
  9
$FILLMODE
 70
     1
  9
$QTEXTMODE
 70
     0
  9
$DRAGMODE
 70
     2
  9
$LTSCALE
 40
15.000000
  9
$OSMODE
 70
     0
  9
$ATTMODE
 70
     1
  9
$TEXTSIZE
 40
0.2
  9
$TRACEWID
 40
0.05
  9
$TEXTSTYLE
  7
STANDARD
  9
$CLAYER
  8
CSLAYER3
  9
$CELTYPE
  6
BYLAYER
  9
$CECOLOR
 62
   256
  9
$DIMSCALE
 40
1.0
  9
$DIMASZ
 40
0.18
  9
$DIMEXO
 40
0.0625
  9
$DIMDLI
 40
0.38
  9
$DIMRND
 40
0.0
  9
$DIMDLE
 40
0.0
  9
$DIMEXE
 40
0.18
  9
$DIMTP
 40
0.0
  9
$DIMTM
 40
0.0
  9
$DIMTXT
 40
0.18
  9
$DIMCEN
 40
0.09
  9
$DIMTSZ
 40
0.0
  9
$DIMTOL
 70
     0
  9
$DIMLIM
 70
     0
  9
$DIMTIH
 70
     1
  9
$DIMTOH
 70
     1
  9
$DIMSE1
 70
     0
  9
$DIMSE2
 70
     0
  9
$DIMTAD
 70
     0
  9
$DIMZIN
 70
     0
  9
$DIMBLK
  1

  9
$LUNITS
 70
     2
  9
$LUPREC
 70
     4
  9
$AXISMODE
 70
     0
  9
$AXISUNIT
 10
0.0
 20
0.0
  9
$SKETCHINC
 40
0.1
  9
$FILLETRAD
 40
0.0
  9
$AUNITS
 70
     0
  9
$AUPREC
 70
     0
  9
$MENU
  1
ACAD
  9
$ELEVATION
 40
0.0
  9
$THICKNESS
 40
0.0
  9
$VIEWDIR
 10
0.0
 20
0.0
 30
1.0
  9
$LIMCHECK
 70
     0
  9
$BLIPMODE
 70
     1
  9
$CHAMFERA
 40
0.0
  9
$CHAMFERB
 40
0.0
  9
$FASTZOOM
 70
     1
  9
$SKPOLY
 70
     0
  9
$TDCREATE
 40
0.000000
  9
$TDUPDATE
 40
0.000000
  9
$TDINDWG
 40
0.0
  9
$TDUSRTIMER
 40
0.0
  9
$USRTIMER
 70
     1
  9
$ANGBASE
 50
0.0
  9
$ANGDIR
 70
     0
  9
$PDMODE
 70
     0
  9
$PDSIZE
 40
0.0
  9
$PLINEWID
 40
0.0
  9
$COORDS
 70
     0
  9
$USERI1
 70
     0
  9
$USERI2
 70
     0
  9
$USERI3
 70
     0
  9
$USERI4
 70
     0
  9
$USERI5
 70
     0
  9
$USERR1
 40
0.0
  9
$USERR2
 40
0.0
  9
$USERR3
 40
0.0
  9
$USERR4
 40
0.0
  9
$USERR5
 40
0.0
  0
ENDSEC
  0
SECTION
  2
TABLES
  0
TABLE
  2
LTYPE
 70
     9
  0
LTYPE
  2
CONTINUOUS
 70
    64
  3
Solid line
 72
    65
 73
     0
 40
0.0
  0
LTYPE
  2
DASHED
 70
    64
  3
__ __ __ __ __ __ __ __ __ __ __ __ __ __ __
 72
    65
 73
     2
 40
0.75
 49
0.5
 49
-0.25
  0
LTYPE
  2
HIDDEN
 70
    64
  3
_ _ _ _ _ _ _ _ _ _ _ _ _ _ _ _ _ _ _ _ _ _ _
 72
    65
 73
     2
 40
0.375
 49
0.25
 49
-0.125
  0
LTYPE
  2
DOT
 70
    64
  3
...............................................
 72
    65
 73
     2
 40
0.25
 49
0.0
 49
-0.25
  0
LTYPE
  2
DASHDOT
 70
    64
  3
__ . __ . __ . __ . __ . __ . __ . __ . __ . __
 72
    65
 73
     4
 40
1.0
 49
0.5
 49
-0.25
 49
0.0
 49
-0.25
  0
LTYPE
  2
DIVIDE
 70
    64
  3
__ . . __ . . __ . . __ . . __ . . __ . . __
 72
    65
 73
     6
 40
1.25
 49
0.5
 49
-0.25
 49
0.0
 49
-0.25
 49
0.0
 49
-0.25
  0
LTYPE
  2
CENTER
 70
    64
  3
____ _ ____ _ ____ _ ____ _ ____ _ ____ _ ____ 
 72
    65
 73
     4
 40
2.0
 49
1.25
 49
-0.25
 49
0.25
 49
-0.25
  0
LTYPE
  2
PHANTOM
 70
    64
  3
______  __  __  ______  __  __  ______  __  __ 
 72
    65
 73
     6
 40
2.5
 49
1.25
 49
-0.25
 49
0.25
 49
-0.25
 49
0.25
 49
-0.25
  0
LTYPE
  2
BORDER
 70
    64
  3
__ __ . __ __ . __ __ . __ __ . __ __ . __ __ .
 72
    65
 73
     6
 40
1.75
 49
0.5
 49
-0.25
 49
0.5
 49
-0.25
 49
0.0
 49
-0.25
  0
ENDTAB
  0
TABLE
  2
LAYER
 70
    16
  0
LAYER
  2
CSLAYER1
 70
    64
 62
     7
  6
CONTINUOUS
  0
LAYER
  2
CSLAYER2
 70
    64
 62
     7
  6
CONTINUOUS
  0
LAYER
  2
CSLAYER3
 70
    64
 62
     7
  6
CONTINUOUS
  0
LAYER
  2
CSLAYER4
 70
    64
 62
     7
  6
CONTINUOUS
  0
LAYER
  2
CSLAYER5
 70
    64
 62
     7
  6
CONTINUOUS
  0
LAYER
  2
CSLAYER6
 70
    64
 62
     7
  6
CONTINUOUS
  0
LAYER
  2
CSLAYER7
 70
    64
 62
     7
  6
CONTINUOUS
  0
LAYER
  2
CSLAYER8
 70
    64
 62
     7
  6
CONTINUOUS
  0
LAYER
  2
CSLAYER9
 70
    64
 62
     7
  6
CONTINUOUS
  0
LAYER
  2
CSLAYER10
 70
    64
 62
     7
  6
CONTINUOUS
  0
LAYER
  2
CSLAYER11
 70
    64
 62
     7
  6
CONTINUOUS
  0
LAYER
  2
CSLAYER12
 70
    64
 62
     7
  6
CONTINUOUS
  0
LAYER
  2
CSLAYER13
 70
    64
 62
     7
  6
CONTINUOUS
  0
LAYER
  2
CSLAYER14
 70
    64
 62
     7
  6
CONTINUOUS
  0
LAYER
  2
CSLAYER15
 70
    64
 62
     7
  6
CONTINUOUS
  0
LAYER
  2
CSLAYER16
 70
    64
 62
     7
  6
CONTINUOUS
  0
ENDTAB
  0
TABLE
  2
STYLE
 70
     1
  0
STYLE
  2
SX_FONT
 70
     0
 40
1.0
 41
1.0
 50
0.0
 71
     0
 42
1.0
  3
monotxt
  4
bigfont
  0
ENDTAB
  0
TABLE
  2
VIEW
 70
     0
  0
ENDTAB
  0
ENDSEC
  0
SECTION
  2
BLOCKS
  0
BLOCK
  8
CSLAYER1
  2
*D0000
 70
    65
 10
0.0
 20
0.0
 30
0.0
  0
LINE
  8
CSLAYER1
  6
CONTINUOUS
 62
     7
 10
23.789062
 20
232.875000
 11
23.789062
 21
237.728029
  0
LINE
  8
CSLAYER1
  6
CONTINUOUS
 62
     7
 10
173.789062
 20
232.875000
 11
173.789062
 21
237.728029
  0
LINE
  8
CSLAYER1
  6
CONTINUOUS
 62
     7
 10
23.789062
 20
236.728029
 11
173.789062
 21
236.728029
  0
LINE
  8
CSLAYER1
  6
CONTINUOUS
 62
     7
 10
23.789062
 20
236.728029
 11
27.652766
 21
237.763305
  0
LINE
  8
CSLAYER1
  6
CONTINUOUS
 62
     7
 10
23.789062
 20
236.728029
 11
27.652766
 21
235.692753
  0
LINE
  8
CSLAYER1
  6
CONTINUOUS
 62
     7
 10
173.789062
 20
236.728029
 11
169.925359
 21
237.763305
  0
LINE
  8
CSLAYER1
  6
CONTINUOUS
 62
     7
 10
173.789062
 20
236.728029
 11
169.925359
 21
235.692753
  0
TEXT
  8
CSLAYER1
 62
     7
 10
94.289063
 20
237.728027
 40
4.000000
 41
0.843750
  1
150
 50
0.000000
 51
0.000000
  7
SX_FONT
 72
     5
 11
103.289063
 21
237.728027
  0
ENDBLK
  8
0
  0
BLOCK
  8
CSLAYER1
  2
*D0001
 70
    65
 10
0.0
 20
0.0
 30
0.0
  0
LINE
  8
CSLAYER1
  6
CONTINUOUS
 62
     7
 10
179.789062
 20
151.875000
 11
184.919478
 21
151.875000
  0
LINE
  8
CSLAYER1
  6
CONTINUOUS
 62
     7
 10
179.789062
 20
226.875000
 11
184.919478
 21
226.875000
  0
LINE
  8
CSLAYER1
  6
CONTINUOUS
 62
     7
 10
183.919478
 20
151.875000
 11
183.919478
 21
226.875000
  0
LINE
  8
CSLAYER1
  6
CONTINUOUS
 62
     7
 10
183.919478
 20
151.875000
 11
182.884201
 21
155.738703
  0
LINE
  8
CSLAYER1
  6
CONTINUOUS
 62
     7
 10
183.919478
 20
151.875000
 11
184.954754
 21
155.738703
  0
LINE
  8
CSLAYER1
  6
CONTINUOUS
 62
     7
 10
183.919478
 20
226.875000
 11
182.884201
 21
223.011297
  0
LINE
  8
CSLAYER1
  6
CONTINUOUS
 62
     7
 10
183.919478
 20
226.875000
 11
184.954754
 21
223.011297
  0
TEXT
  8
CSLAYER1
 62
     7
 10
189.519379
 20
186.276260
 40
4.000000
 41
0.900000
  1
75
 50
90.000000
 51
0.000000
  7
SX_FONT
 72
     5
 11
189.519379
 21
192.276260
  0
ENDBLK
  8
0
  0
ENDSEC
  0
SECTION
  2
ENTITIES
  0
ARC
  8
CSLAYER2
  6
CONTINUOUS
 62
     7
 10
151.789063
 20
212.875000
 40
14.000000
 50
0.000000
 51
180.000000
  0
LINE
  8
CSLAYER2
  6
CONTINUOUS
 62
     7
 10
173.789062
 20
151.875000
 11
173.789062
 21
212.875000
  0
LINE
  8
CSLAYER2
  6
CONTINUOUS
 62
     7
 10
129.772720
 20
212.875000
 11
137.789063
 21
212.875000
  0
LINE
  8
CSLAYER2
  6
CONTINUOUS
 62
     7
 10
165.789062
 20
212.875000
 11
173.789062
 21
212.875000
  0
ARC
  8
CSLAYER2
  6
CONTINUOUS
 62
     7
 10
100.605797
 20
214.108850
 40
29.209337
 50
266.363446
 51
357.579013
  0
LINE
  8
CSLAYER2
  6
CONTINUOUS
 62
     7
 10
23.789062
 20
151.875000
 11
173.789062
 21
151.875000
  0
ARC
  8
CSLAYER4
  6
CONTINUOUS
 62
     7
 10
65.714791
 20
174.225223
 40
16.338595
 50
93.530444
 51
167.092145
  0
ARC
  8
CSLAYER4
  6
CONTINUOUS
 62
     7
 10
68.632662
 20
151.445992
 40
39.283293
 50
71.889269
 51
95.732800
  0
ARC
  8
CSLAYER4
  6
CONTINUOUS
 62
     7
 10
99.795037
 20
233.678067
 40
48.730879
 50
247.114503
 51
268.774874
  0
LINE
  8
CSLAYER2
  6
CONTINUOUS
 62
     7
 10
36.789063
 20
177.875000
 11
49.789063
 21
177.875000
  0
LINE
  8
CSLAYER2
  6
CONTINUOUS
 62
     7
 10
36.789063
 20
177.875000
 11
36.789063
 21
167.875000
  0
LINE
  8
CSLAYER2
  6
CONTINUOUS
 62
     7
 10
23.789063
 20
167.875000
 11
36.789063
 21
167.875000
  0
LINE
  8
CSLAYER2
  6
CONTINUOUS
 62
     7
 10
23.789063
 20
167.875000
 11
23.789062
 21
151.875000
  0
TEXT
  8
CSLAYER1
 62
     7
 10
24.227669
 20
92.823532
 40
10.000000
 41
0.630000
  1
FM-2178
 50
360.000000
 51
0.000000
  7
SX_FONT
 72
     5
 11
66.227669
 21
92.823532
  0
TEXT
  8
CSLAYER1
 62
     7
 10
78.525208
 20
92.839066
 40
10.000000
 41
0.635294
  1
150x75
 50
0.000000
 51
0.000000
  7
SX_FONT
 72
     5
 11
114.525208
 21
92.839066
  0
TEXT
  8
CSLAYER1
 62
     7
 10
25.315662
 20
80.965645
 40
5.000000
 41
0.612766
  1
カタログ Vol. 1  P66
 50
0.000000
 51
0.000000
  7
SX_FONT
 72
     5
 11
73.315662
 21
80.965645
  0
DIMENSION
  8
CSLAYER1
 62
     7
  2
*D0000
 10
173.789062
 20
236.728029
 11
98.789063
 21
237.728027
 13
23.789062
 23
231.875000
 14
173.789062
 24
231.875000
 70
1
  0
DIMENSION
  8
CSLAYER1
 62
     7
  2
*D0001
 10
183.919478
 20
226.875000
 11
189.519379
 21
189.276260
 13
178.789062
 23
151.875000
 14
178.789062
 24
226.875000
 50
90.000000
 70
1
  0
TEXT
  8
CSLAYER1
 62
     7
 10
25.295683
 20
71.193656
 40
4.960742
 41
0.729057
  1
ホ%%dケットカタロク゛ Vol. 1 P39
 50
0.000000
 51
0.000000
  7
SX_FONT
 72
     5
 11
100.040041
 21
71.193656
  0
ENDSEC
  0
EOF
