  0
SECTION
  2
HEADER
  9
$ACADVER
  1
AC1006
  9
$INSBASE
 10
43.670719
 20
199.202815
 30
0.0
  9
$EXTMIN
 10
43.670719
 20
199.202815
  9
$EXTMAX
 10
253.670719
 20
496.202815
  9
$LIMMIN
 10
43.670719
 20
199.202815
  9
$LIMMAX
 10
253.670719
 20
496.202815
  9
$VIEWCTR
 10
148.670719
 20
347.702815
  9
$VIEWSIZE
 40
297.000000
  9
$SNAPMODE
 70
     0
  9
$SNAPUNIT
 10
1.0
 20
1.0
  9
$SNAPBASE
 10
0.0
 20
0.0
  9
$SNAPANG
 50
0.0
  9
$SNAPSTYLE
 70
     0
  9
$SNAPISOPAIR
 70
     0
  9
$GRIDMODE
 70
     0
  9
$GRIDUNIT
 10
0.0
 20
0.0
  9
$ORTHOMODE
 70
     0
  9
$REGENMODE
 70
     1
  9
$FILLMODE
 70
     1
  9
$QTEXTMODE
 70
     0
  9
$DRAGMODE
 70
     2
  9
$LTSCALE
 40
15.000000
  9
$OSMODE
 70
     0
  9
$ATTMODE
 70
     1
  9
$TEXTSIZE
 40
0.2
  9
$TRACEWID
 40
0.05
  9
$TEXTSTYLE
  7
STANDARD
  9
$CLAYER
  8
CSLAYER3
  9
$CELTYPE
  6
BYLAYER
  9
$CECOLOR
 62
   256
  9
$DIMSCALE
 40
1.0
  9
$DIMASZ
 40
0.18
  9
$DIMEXO
 40
0.0625
  9
$DIMDLI
 40
0.38
  9
$DIMRND
 40
0.0
  9
$DIMDLE
 40
0.0
  9
$DIMEXE
 40
0.18
  9
$DIMTP
 40
0.0
  9
$DIMTM
 40
0.0
  9
$DIMTXT
 40
0.18
  9
$DIMCEN
 40
0.09
  9
$DIMTSZ
 40
0.0
  9
$DIMTOL
 70
     0
  9
$DIMLIM
 70
     0
  9
$DIMTIH
 70
     1
  9
$DIMTOH
 70
     1
  9
$DIMSE1
 70
     0
  9
$DIMSE2
 70
     0
  9
$DIMTAD
 70
     0
  9
$DIMZIN
 70
     0
  9
$DIMBLK
  1

  9
$LUNITS
 70
     2
  9
$LUPREC
 70
     4
  9
$AXISMODE
 70
     0
  9
$AXISUNIT
 10
0.0
 20
0.0
  9
$SKETCHINC
 40
0.1
  9
$FILLETRAD
 40
0.0
  9
$AUNITS
 70
     0
  9
$AUPREC
 70
     0
  9
$MENU
  1
ACAD
  9
$ELEVATION
 40
0.0
  9
$THICKNESS
 40
0.0
  9
$VIEWDIR
 10
0.0
 20
0.0
 30
1.0
  9
$LIMCHECK
 70
     0
  9
$BLIPMODE
 70
     1
  9
$CHAMFERA
 40
0.0
  9
$CHAMFERB
 40
0.0
  9
$FASTZOOM
 70
     1
  9
$SKPOLY
 70
     0
  9
$TDCREATE
 40
0.000000
  9
$TDUPDATE
 40
0.000000
  9
$TDINDWG
 40
0.0
  9
$TDUSRTIMER
 40
0.0
  9
$USRTIMER
 70
     1
  9
$ANGBASE
 50
0.0
  9
$ANGDIR
 70
     0
  9
$PDMODE
 70
     0
  9
$PDSIZE
 40
0.0
  9
$PLINEWID
 40
0.0
  9
$COORDS
 70
     0
  9
$USERI1
 70
     0
  9
$USERI2
 70
     0
  9
$USERI3
 70
     0
  9
$USERI4
 70
     0
  9
$USERI5
 70
     0
  9
$USERR1
 40
0.0
  9
$USERR2
 40
0.0
  9
$USERR3
 40
0.0
  9
$USERR4
 40
0.0
  9
$USERR5
 40
0.0
  0
ENDSEC
  0
SECTION
  2
TABLES
  0
TABLE
  2
LTYPE
 70
     9
  0
LTYPE
  2
CONTINUOUS
 70
    64
  3
Solid line
 72
    65
 73
     0
 40
0.0
  0
LTYPE
  2
DASHED
 70
    64
  3
__ __ __ __ __ __ __ __ __ __ __ __ __ __ __
 72
    65
 73
     2
 40
0.75
 49
0.5
 49
-0.25
  0
LTYPE
  2
HIDDEN
 70
    64
  3
_ _ _ _ _ _ _ _ _ _ _ _ _ _ _ _ _ _ _ _ _ _ _
 72
    65
 73
     2
 40
0.375
 49
0.25
 49
-0.125
  0
LTYPE
  2
DOT
 70
    64
  3
...............................................
 72
    65
 73
     2
 40
0.25
 49
0.0
 49
-0.25
  0
LTYPE
  2
DASHDOT
 70
    64
  3
__ . __ . __ . __ . __ . __ . __ . __ . __ . __
 72
    65
 73
     4
 40
1.0
 49
0.5
 49
-0.25
 49
0.0
 49
-0.25
  0
LTYPE
  2
DIVIDE
 70
    64
  3
__ . . __ . . __ . . __ . . __ . . __ . . __
 72
    65
 73
     6
 40
1.25
 49
0.5
 49
-0.25
 49
0.0
 49
-0.25
 49
0.0
 49
-0.25
  0
LTYPE
  2
CENTER
 70
    64
  3
____ _ ____ _ ____ _ ____ _ ____ _ ____ _ ____ 
 72
    65
 73
     4
 40
2.0
 49
1.25
 49
-0.25
 49
0.25
 49
-0.25
  0
LTYPE
  2
PHANTOM
 70
    64
  3
______  __  __  ______  __  __  ______  __  __ 
 72
    65
 73
     6
 40
2.5
 49
1.25
 49
-0.25
 49
0.25
 49
-0.25
 49
0.25
 49
-0.25
  0
LTYPE
  2
BORDER
 70
    64
  3
__ __ . __ __ . __ __ . __ __ . __ __ . __ __ .
 72
    65
 73
     6
 40
1.75
 49
0.5
 49
-0.25
 49
0.5
 49
-0.25
 49
0.0
 49
-0.25
  0
ENDTAB
  0
TABLE
  2
LAYER
 70
    16
  0
LAYER
  2
CSLAYER1
 70
    64
 62
     7
  6
CONTINUOUS
  0
LAYER
  2
CSLAYER2
 70
    64
 62
     7
  6
CONTINUOUS
  0
LAYER
  2
CSLAYER3
 70
    64
 62
     7
  6
CONTINUOUS
  0
LAYER
  2
CSLAYER4
 70
    64
 62
     7
  6
CONTINUOUS
  0
LAYER
  2
CSLAYER5
 70
    64
 62
     7
  6
CONTINUOUS
  0
LAYER
  2
CSLAYER6
 70
    64
 62
     7
  6
CONTINUOUS
  0
LAYER
  2
CSLAYER7
 70
    64
 62
     7
  6
CONTINUOUS
  0
LAYER
  2
CSLAYER8
 70
    64
 62
     7
  6
CONTINUOUS
  0
LAYER
  2
CSLAYER9
 70
    64
 62
     7
  6
CONTINUOUS
  0
LAYER
  2
CSLAYER10
 70
    64
 62
     7
  6
CONTINUOUS
  0
LAYER
  2
CSLAYER11
 70
    64
 62
     7
  6
CONTINUOUS
  0
LAYER
  2
CSLAYER12
 70
    64
 62
     7
  6
CONTINUOUS
  0
LAYER
  2
CSLAYER13
 70
    64
 62
     7
  6
CONTINUOUS
  0
LAYER
  2
CSLAYER14
 70
    64
 62
     7
  6
CONTINUOUS
  0
LAYER
  2
CSLAYER15
 70
    64
 62
     7
  6
CONTINUOUS
  0
LAYER
  2
CSLAYER16
 70
    64
 62
     7
  6
CONTINUOUS
  0
ENDTAB
  0
TABLE
  2
STYLE
 70
     1
  0
STYLE
  2
SX_FONT
 70
     0
 40
1.0
 41
1.0
 50
0.0
 71
     0
 42
1.0
  3
monotxt
  4
bigfont
  0
ENDTAB
  0
TABLE
  2
VIEW
 70
     0
  0
ENDTAB
  0
ENDSEC
  0
SECTION
  2
BLOCKS
  0
BLOCK
  8
CSLAYER1
  2
*D0000
 70
    65
 10
0.0
 20
0.0
 30
0.0
  0
LINE
  8
CSLAYER1
  6
CONTINUOUS
 62
     7
 10
43.273438
 20
195.765625
 11
43.273438
 21
200.800085
  0
LINE
  8
CSLAYER1
  6
CONTINUOUS
 62
     7
 10
163.273438
 20
195.765625
 11
163.273438
 21
200.800085
  0
LINE
  8
CSLAYER1
  6
CONTINUOUS
 62
     7
 10
43.273438
 20
199.800085
 11
163.273438
 21
199.800085
  0
LINE
  8
CSLAYER1
  6
CONTINUOUS
 62
     7
 10
43.273438
 20
199.800085
 11
47.137141
 21
200.835361
  0
LINE
  8
CSLAYER1
  6
CONTINUOUS
 62
     7
 10
43.273438
 20
199.800085
 11
47.137141
 21
198.764809
  0
LINE
  8
CSLAYER1
  6
CONTINUOUS
 62
     7
 10
163.273438
 20
199.800085
 11
159.409734
 21
200.835361
  0
LINE
  8
CSLAYER1
  6
CONTINUOUS
 62
     7
 10
163.273438
 20
199.800085
 11
159.409734
 21
198.764809
  0
TEXT
  8
CSLAYER1
 62
     7
 10
98.773438
 20
200.800079
 40
4.000000
 41
0.843750
  1
120
 50
0.000000
 51
0.000000
  7
SX_FONT
 72
     5
 11
107.773438
 21
200.800079
  0
ENDBLK
  8
0
  0
BLOCK
  8
CSLAYER1
  2
*D0001
 70
    65
 10
0.0
 20
0.0
 30
0.0
  0
LINE
  8
CSLAYER1
  6
CONTINUOUS
 62
     7
 10
169.273438
 20
132.765625
 11
174.465089
 21
132.765625
  0
LINE
  8
CSLAYER1
  6
CONTINUOUS
 62
     7
 10
169.273438
 20
189.765625
 11
174.465089
 21
189.765625
  0
LINE
  8
CSLAYER1
  6
CONTINUOUS
 62
     7
 10
173.465089
 20
132.765625
 11
173.465089
 21
189.765625
  0
LINE
  8
CSLAYER1
  6
CONTINUOUS
 62
     7
 10
173.465089
 20
132.765625
 11
172.429813
 21
136.629328
  0
LINE
  8
CSLAYER1
  6
CONTINUOUS
 62
     7
 10
173.465089
 20
132.765625
 11
174.500365
 21
136.629328
  0
LINE
  8
CSLAYER1
  6
CONTINUOUS
 62
     7
 10
173.465089
 20
189.765625
 11
172.429813
 21
185.901922
  0
LINE
  8
CSLAYER1
  6
CONTINUOUS
 62
     7
 10
173.465089
 20
189.765625
 11
174.500365
 21
185.901922
  0
TEXT
  8
CSLAYER1
 62
     7
 10
178.533173
 20
157.745972
 40
4.000000
 41
0.900000
  1
57
 50
90.000000
 51
0.000000
  7
SX_FONT
 72
     5
 11
178.533173
 21
163.745972
  0
ENDBLK
  8
0
  0
ENDSEC
  0
SECTION
  2
ENTITIES
  0
LINE
  8
CSLAYER2
  6
CONTINUOUS
 62
     7
 10
163.273438
 20
132.765625
 11
163.273438
 21
178.565625
  0
ARC
  8
CSLAYER2
  6
CONTINUOUS
 62
     7
 10
145.673438
 20
178.565625
 40
11.200000
 50
0.000000
 51
180.000000
  0
LINE
  8
CSLAYER2
  6
CONTINUOUS
 62
     7
 10
156.873438
 20
178.565625
 11
163.273438
 21
178.565625
  0
LINE
  8
CSLAYER2
  6
CONTINUOUS
 62
     7
 10
128.060364
 20
178.565625
 11
134.473438
 21
178.565625
  0
ARC
  8
CSLAYER2
  6
CONTINUOUS
 62
     7
 10
104.726825
 20
179.552705
 40
23.367469
 50
266.363446
 51
357.579013
  0
LINE
  8
CSLAYER2
  6
CONTINUOUS
 62
     7
 10
43.273438
 20
132.765625
 11
163.273438
 21
132.765625
  0
ARC
  8
CSLAYER4
  6
CONTINUOUS
 62
     7
 10
79.148317
 20
129.422418
 40
31.426635
 50
71.889269
 51
95.732800
  0
ARC
  8
CSLAYER4
  6
CONTINUOUS
 62
     7
 10
104.078217
 20
195.208078
 40
38.984703
 50
247.114503
 51
268.774874
  0
LINE
  8
CSLAYER2
  6
CONTINUOUS
 62
     7
 10
53.673438
 20
150.565625
 11
53.673438
 21
142.565625
  0
ARC
  8
CSLAYER4
  6
CONTINUOUS
 62
     7
 10
76.814020
 20
147.645804
 40
13.070876
 50
93.530444
 51
167.092145
  0
LINE
  8
CSLAYER2
  6
CONTINUOUS
 62
     7
 10
53.673438
 20
150.565625
 11
64.073438
 21
150.565625
  0
LINE
  8
CSLAYER2
  6
CONTINUOUS
 62
     7
 10
43.273438
 20
142.565625
 11
43.273438
 21
132.765625
  0
LINE
  8
CSLAYER2
  6
CONTINUOUS
 62
     7
 10
43.273438
 20
142.565625
 11
53.673438
 21
142.565625
  0
TEXT
  8
CSLAYER1
 62
     7
 10
43.278984
 20
72.675728
 40
10.000000
 41
0.630000
  1
FM-2177
 50
0.000000
 51
0.000000
  7
SX_FONT
 72
     5
 11
85.278984
 21
72.675728
  0
DIMENSION
  8
CSLAYER1
 62
     7
  2
*D0000
 10
163.273438
 20
199.800085
 11
103.273438
 21
200.800079
 13
43.273438
 23
194.765625
 14
163.273438
 24
194.765625
 70
1
  0
DIMENSION
  8
CSLAYER1
 62
     7
  2
*D0001
 10
173.465089
 20
189.765625
 11
178.533173
 21
160.745972
 13
168.273438
 23
132.765625
 14
168.273438
 24
189.765625
 50
90.000000
 70
1
  0
TEXT
  8
CSLAYER1
 62
     7
 10
97.463737
 20
72.763847
 40
10.000000
 41
0.635294
  1
120x57
 50
0.000000
 51
0.000000
  7
SX_FONT
 72
     5
 11
133.463737
 21
72.763847
  0
TEXT
  8
CSLAYER1
 62
     7
 10
44.457787
 20
61.006886
 40
5.000000
 41
0.612766
  1
カタログ Vol. 1  P66
 50
0.000000
 51
0.000000
  7
SX_FONT
 72
     5
 11
92.457787
 21
61.006886
  0
TEXT
  8
CSLAYER1
 62
     7
 10
44.669287
 20
50.207656
 40
4.960742
 41
0.729057
  1
ホ%%dケットカタロク゛ Vol. 1 P39
 50
0.000000
 51
0.000000
  7
SX_FONT
 72
     5
 11
119.413645
 21
50.207656
  0
ENDSEC
  0
EOF
