  0
SECTION
  2
HEADER
  9
$ACADVER
  1
AC1006
  9
$INSBASE
 10
49.240213
 20
188.598375
 30
0.0
  9
$EXTMIN
 10
49.240213
 20
188.598375
  9
$EXTMAX
 10
259.240213
 20
485.598375
  9
$LIMMIN
 10
49.240213
 20
188.598375
  9
$LIMMAX
 10
259.240213
 20
485.598375
  9
$VIEWCTR
 10
154.240213
 20
337.098375
  9
$VIEWSIZE
 40
297.000000
  9
$SNAPMODE
 70
     0
  9
$SNAPUNIT
 10
1.0
 20
1.0
  9
$SNAPBASE
 10
0.0
 20
0.0
  9
$SNAPANG
 50
0.0
  9
$SNAPSTYLE
 70
     0
  9
$SNAPISOPAIR
 70
     0
  9
$GRIDMODE
 70
     0
  9
$GRIDUNIT
 10
0.0
 20
0.0
  9
$ORTHOMODE
 70
     0
  9
$REGENMODE
 70
     1
  9
$FILLMODE
 70
     1
  9
$QTEXTMODE
 70
     0
  9
$DRAGMODE
 70
     2
  9
$LTSCALE
 40
15.000000
  9
$OSMODE
 70
     0
  9
$ATTMODE
 70
     1
  9
$TEXTSIZE
 40
0.2
  9
$TRACEWID
 40
0.05
  9
$TEXTSTYLE
  7
STANDARD
  9
$CLAYER
  8
CSLAYER3
  9
$CELTYPE
  6
BYLAYER
  9
$CECOLOR
 62
   256
  9
$DIMSCALE
 40
1.0
  9
$DIMASZ
 40
0.18
  9
$DIMEXO
 40
0.0625
  9
$DIMDLI
 40
0.38
  9
$DIMRND
 40
0.0
  9
$DIMDLE
 40
0.0
  9
$DIMEXE
 40
0.18
  9
$DIMTP
 40
0.0
  9
$DIMTM
 40
0.0
  9
$DIMTXT
 40
0.18
  9
$DIMCEN
 40
0.09
  9
$DIMTSZ
 40
0.0
  9
$DIMTOL
 70
     0
  9
$DIMLIM
 70
     0
  9
$DIMTIH
 70
     1
  9
$DIMTOH
 70
     1
  9
$DIMSE1
 70
     0
  9
$DIMSE2
 70
     0
  9
$DIMTAD
 70
     0
  9
$DIMZIN
 70
     0
  9
$DIMBLK
  1

  9
$LUNITS
 70
     2
  9
$LUPREC
 70
     4
  9
$AXISMODE
 70
     0
  9
$AXISUNIT
 10
0.0
 20
0.0
  9
$SKETCHINC
 40
0.1
  9
$FILLETRAD
 40
0.0
  9
$AUNITS
 70
     0
  9
$AUPREC
 70
     0
  9
$MENU
  1
ACAD
  9
$ELEVATION
 40
0.0
  9
$THICKNESS
 40
0.0
  9
$VIEWDIR
 10
0.0
 20
0.0
 30
1.0
  9
$LIMCHECK
 70
     0
  9
$BLIPMODE
 70
     1
  9
$CHAMFERA
 40
0.0
  9
$CHAMFERB
 40
0.0
  9
$FASTZOOM
 70
     1
  9
$SKPOLY
 70
     0
  9
$TDCREATE
 40
0.000000
  9
$TDUPDATE
 40
0.000000
  9
$TDINDWG
 40
0.0
  9
$TDUSRTIMER
 40
0.0
  9
$USRTIMER
 70
     1
  9
$ANGBASE
 50
0.0
  9
$ANGDIR
 70
     0
  9
$PDMODE
 70
     0
  9
$PDSIZE
 40
0.0
  9
$PLINEWID
 40
0.0
  9
$COORDS
 70
     0
  9
$USERI1
 70
     0
  9
$USERI2
 70
     0
  9
$USERI3
 70
     0
  9
$USERI4
 70
     0
  9
$USERI5
 70
     0
  9
$USERR1
 40
0.0
  9
$USERR2
 40
0.0
  9
$USERR3
 40
0.0
  9
$USERR4
 40
0.0
  9
$USERR5
 40
0.0
  0
ENDSEC
  0
SECTION
  2
TABLES
  0
TABLE
  2
LTYPE
 70
     9
  0
LTYPE
  2
CONTINUOUS
 70
    64
  3
Solid line
 72
    65
 73
     0
 40
0.0
  0
LTYPE
  2
DASHED
 70
    64
  3
__ __ __ __ __ __ __ __ __ __ __ __ __ __ __
 72
    65
 73
     2
 40
0.75
 49
0.5
 49
-0.25
  0
LTYPE
  2
HIDDEN
 70
    64
  3
_ _ _ _ _ _ _ _ _ _ _ _ _ _ _ _ _ _ _ _ _ _ _
 72
    65
 73
     2
 40
0.375
 49
0.25
 49
-0.125
  0
LTYPE
  2
DOT
 70
    64
  3
...............................................
 72
    65
 73
     2
 40
0.25
 49
0.0
 49
-0.25
  0
LTYPE
  2
DASHDOT
 70
    64
  3
__ . __ . __ . __ . __ . __ . __ . __ . __ . __
 72
    65
 73
     4
 40
1.0
 49
0.5
 49
-0.25
 49
0.0
 49
-0.25
  0
LTYPE
  2
DIVIDE
 70
    64
  3
__ . . __ . . __ . . __ . . __ . . __ . . __
 72
    65
 73
     6
 40
1.25
 49
0.5
 49
-0.25
 49
0.0
 49
-0.25
 49
0.0
 49
-0.25
  0
LTYPE
  2
CENTER
 70
    64
  3
____ _ ____ _ ____ _ ____ _ ____ _ ____ _ ____ 
 72
    65
 73
     4
 40
2.0
 49
1.25
 49
-0.25
 49
0.25
 49
-0.25
  0
LTYPE
  2
PHANTOM
 70
    64
  3
______  __  __  ______  __  __  ______  __  __ 
 72
    65
 73
     6
 40
2.5
 49
1.25
 49
-0.25
 49
0.25
 49
-0.25
 49
0.25
 49
-0.25
  0
LTYPE
  2
BORDER
 70
    64
  3
__ __ . __ __ . __ __ . __ __ . __ __ . __ __ .
 72
    65
 73
     6
 40
1.75
 49
0.5
 49
-0.25
 49
0.5
 49
-0.25
 49
0.0
 49
-0.25
  0
ENDTAB
  0
TABLE
  2
LAYER
 70
    16
  0
LAYER
  2
CSLAYER1
 70
    64
 62
     7
  6
CONTINUOUS
  0
LAYER
  2
CSLAYER2
 70
    64
 62
     7
  6
CONTINUOUS
  0
LAYER
  2
CSLAYER3
 70
    64
 62
     7
  6
CONTINUOUS
  0
LAYER
  2
CSLAYER4
 70
    64
 62
     7
  6
CONTINUOUS
  0
LAYER
  2
CSLAYER5
 70
    64
 62
     7
  6
CONTINUOUS
  0
LAYER
  2
CSLAYER6
 70
    64
 62
     7
  6
CONTINUOUS
  0
LAYER
  2
CSLAYER7
 70
    64
 62
     7
  6
CONTINUOUS
  0
LAYER
  2
CSLAYER8
 70
    64
 62
     7
  6
CONTINUOUS
  0
LAYER
  2
CSLAYER9
 70
    64
 62
     7
  6
CONTINUOUS
  0
LAYER
  2
CSLAYER10
 70
    64
 62
     7
  6
CONTINUOUS
  0
LAYER
  2
CSLAYER11
 70
    64
 62
     7
  6
CONTINUOUS
  0
LAYER
  2
CSLAYER12
 70
    64
 62
     7
  6
CONTINUOUS
  0
LAYER
  2
CSLAYER13
 70
    64
 62
     7
  6
CONTINUOUS
  0
LAYER
  2
CSLAYER14
 70
    64
 62
     7
  6
CONTINUOUS
  0
LAYER
  2
CSLAYER15
 70
    64
 62
     7
  6
CONTINUOUS
  0
LAYER
  2
CSLAYER16
 70
    64
 62
     7
  6
CONTINUOUS
  0
ENDTAB
  0
TABLE
  2
STYLE
 70
     1
  0
STYLE
  2
SX_FONT
 70
     0
 40
1.0
 41
1.0
 50
0.0
 71
     0
 42
1.0
  3
monotxt
  4
bigfont
  0
ENDTAB
  0
TABLE
  2
VIEW
 70
     0
  0
ENDTAB
  0
ENDSEC
  0
SECTION
  2
BLOCKS
  0
BLOCK
  8
CSLAYER1
  2
*D0000
 70
    65
 10
0.0
 20
0.0
 30
0.0
  0
LINE
  8
CSLAYER1
  6
CONTINUOUS
 62
     7
 10
48.234375
 20
185.203125
 11
48.234375
 21
189.918596
  0
LINE
  8
CSLAYER1
  6
CONTINUOUS
 62
     7
 10
138.234375
 20
185.203125
 11
138.234375
 21
189.918596
  0
LINE
  8
CSLAYER1
  6
CONTINUOUS
 62
     7
 10
48.234375
 20
188.918596
 11
138.234375
 21
188.918596
  0
LINE
  8
CSLAYER1
  6
CONTINUOUS
 62
     7
 10
48.234375
 20
188.918596
 11
52.098078
 21
189.953873
  0
LINE
  8
CSLAYER1
  6
CONTINUOUS
 62
     7
 10
48.234375
 20
188.918596
 11
52.098078
 21
187.883320
  0
LINE
  8
CSLAYER1
  6
CONTINUOUS
 62
     7
 10
138.234375
 20
188.918596
 11
134.370672
 21
189.953873
  0
LINE
  8
CSLAYER1
  6
CONTINUOUS
 62
     7
 10
138.234375
 20
188.918596
 11
134.370672
 21
187.883320
  0
TEXT
  8
CSLAYER1
 62
     7
 10
90.234375
 20
189.918594
 40
4.000000
 41
0.900000
  1
90
 50
0.000000
 51
0.000000
  7
SX_FONT
 72
     5
 11
96.234375
 21
189.918594
  0
ENDBLK
  8
0
  0
BLOCK
  8
CSLAYER1
  2
*D0001
 70
    65
 10
0.0
 20
0.0
 30
0.0
  0
LINE
  8
CSLAYER1
  6
CONTINUOUS
 62
     7
 10
144.234375
 20
134.203125
 11
149.630585
 21
134.203125
  0
LINE
  8
CSLAYER1
  6
CONTINUOUS
 62
     7
 10
144.234375
 20
179.203125
 11
149.630585
 21
179.203125
  0
LINE
  8
CSLAYER1
  6
CONTINUOUS
 62
     7
 10
148.630585
 20
134.203125
 11
148.630585
 21
179.203125
  0
LINE
  8
CSLAYER1
  6
CONTINUOUS
 62
     7
 10
148.630585
 20
134.203125
 11
147.595309
 21
138.066828
  0
LINE
  8
CSLAYER1
  6
CONTINUOUS
 62
     7
 10
148.630585
 20
134.203125
 11
149.665861
 21
138.066828
  0
LINE
  8
CSLAYER1
  6
CONTINUOUS
 62
     7
 10
148.630585
 20
179.203125
 11
147.595309
 21
175.339422
  0
LINE
  8
CSLAYER1
  6
CONTINUOUS
 62
     7
 10
148.630585
 20
179.203125
 11
149.665861
 21
175.339422
  0
TEXT
  8
CSLAYER1
 62
     7
 10
153.446411
 20
153.712708
 40
4.000000
 41
0.900000
  1
45
 50
90.000000
 51
0.000000
  7
SX_FONT
 72
     5
 11
153.446411
 21
159.712708
  0
ENDBLK
  8
0
  0
ENDSEC
  0
SECTION
  2
ENTITIES
  0
ARC
  8
CSLAYER2
  6
CONTINUOUS
 62
     7
 10
94.324416
 20
171.543435
 40
17.525602
 50
266.363446
 51
357.579013
  0
LINE
  8
CSLAYER2
  6
CONTINUOUS
 62
     7
 10
138.234375
 20
134.203125
 11
138.234375
 21
170.803125
  0
ARC
  8
CSLAYER2
  6
CONTINUOUS
 62
     7
 10
125.034375
 20
170.803125
 40
8.400000
 50
0.000000
 51
180.000000
  0
LINE
  8
CSLAYER2
  6
CONTINUOUS
 62
     7
 10
111.824570
 20
170.803125
 11
116.634375
 21
170.803125
  0
LINE
  8
CSLAYER2
  6
CONTINUOUS
 62
     7
 10
133.434375
 20
170.803125
 11
138.234375
 21
170.803125
  0
ARC
  8
CSLAYER5
  6
CONTINUOUS
 62
     7
 10
93.837960
 20
183.284965
 40
29.238528
 50
247.114503
 51
268.774874
  0
LINE
  8
CSLAYER2
  6
CONTINUOUS
 62
     7
 10
48.234375
 20
134.203125
 11
138.234375
 21
134.203125
  0
LINE
  8
CSLAYER2
  6
CONTINUOUS
 62
     7
 10
56.034375
 20
149.803125
 11
56.034375
 21
143.803125
  0
ARC
  8
CSLAYER5
  6
CONTINUOUS
 62
     7
 10
75.140535
 20
133.945720
 40
23.569976
 50
71.889269
 51
95.732800
  0
ARC
  8
CSLAYER5
  6
CONTINUOUS
 62
     7
 10
73.389812
 20
147.613259
 40
9.803157
 50
93.530444
 51
167.092145
  0
LINE
  8
CSLAYER2
  6
CONTINUOUS
 62
     7
 10
56.034375
 20
149.803125
 11
63.834375
 21
149.803125
  0
LINE
  8
CSLAYER2
  6
CONTINUOUS
 62
     7
 10
48.234375
 20
143.803125
 11
56.034375
 21
143.803125
  0
LINE
  8
CSLAYER2
  6
CONTINUOUS
 62
     7
 10
48.234375
 20
143.803125
 11
48.234375
 21
134.203125
  0
TEXT
  8
CSLAYER1
 62
     7
 10
48.354393
 20
71.655663
 40
12.000000
 41
0.700000
  1
FM-2176
 50
0.000000
 51
0.000000
  7
SX_FONT
 72
     5
 11
104.354393
 21
71.655663
  0
DIMENSION
  8
CSLAYER1
 62
     7
  2
*D0000
 10
138.234375
 20
188.918596
 11
93.234375
 21
189.918594
 13
48.234375
 23
184.203125
 14
138.234375
 24
184.203125
 70
1
  0
DIMENSION
  8
CSLAYER1
 62
     7
  2
*D0001
 10
148.630585
 20
179.203125
 11
153.446411
 21
156.712708
 13
143.234375
 23
134.203125
 14
143.234375
 24
179.203125
 50
90.000000
 70
1
  0
TEXT
  8
CSLAYER1
 62
     7
 10
49.117020
 20
57.362550
 40
5.547002
 41
0.589931
  1
カタログ Vol. 1  P66
 50
0.000000
 51
0.000000
  7
SX_FONT
 72
     5
 11
100.383804
 21
57.362550
  0
TEXT
  8
CSLAYER1
 62
     7
 10
121.324402
 20
71.189583
 40
12.000000
 41
0.714286
  1
90x45
 50
0.000000
 51
0.000000
  7
SX_FONT
 72
     5
 11
161.324402
 21
71.189583
  0
TEXT
  8
CSLAYER1
 62
     7
 10
48.459364
 20
46.238753
 40
4.960742
 41
0.729057
  1
ホ%%dケットカタロク゛ Vol. 1 P39
 50
0.000000
 51
0.000000
  7
SX_FONT
 72
     5
 11
123.203722
 21
46.238753
  0
ENDSEC
  0
EOF
