  0
SECTION
  2
HEADER
  9
$ACADVER
  1
AC1006
  9
$INSBASE
 10
52.278740
 20
187.600942
 30
0.0
  9
$EXTMIN
 10
52.278740
 20
187.600942
  9
$EXTMAX
 10
262.278740
 20
484.600942
  9
$LIMMIN
 10
52.278740
 20
187.600942
  9
$LIMMAX
 10
262.278740
 20
484.600942
  9
$VIEWCTR
 10
157.278740
 20
336.100942
  9
$VIEWSIZE
 40
297.000000
  9
$SNAPMODE
 70
     0
  9
$SNAPUNIT
 10
1.0
 20
1.0
  9
$SNAPBASE
 10
0.0
 20
0.0
  9
$SNAPANG
 50
0.0
  9
$SNAPSTYLE
 70
     0
  9
$SNAPISOPAIR
 70
     0
  9
$GRIDMODE
 70
     0
  9
$GRIDUNIT
 10
0.0
 20
0.0
  9
$ORTHOMODE
 70
     0
  9
$REGENMODE
 70
     1
  9
$FILLMODE
 70
     1
  9
$QTEXTMODE
 70
     0
  9
$DRAGMODE
 70
     2
  9
$LTSCALE
 40
15.000000
  9
$OSMODE
 70
     0
  9
$ATTMODE
 70
     1
  9
$TEXTSIZE
 40
0.2
  9
$TRACEWID
 40
0.05
  9
$TEXTSTYLE
  7
STANDARD
  9
$CLAYER
  8
CSLAYER3
  9
$CELTYPE
  6
BYLAYER
  9
$CECOLOR
 62
   256
  9
$DIMSCALE
 40
1.0
  9
$DIMASZ
 40
0.18
  9
$DIMEXO
 40
0.0625
  9
$DIMDLI
 40
0.38
  9
$DIMRND
 40
0.0
  9
$DIMDLE
 40
0.0
  9
$DIMEXE
 40
0.18
  9
$DIMTP
 40
0.0
  9
$DIMTM
 40
0.0
  9
$DIMTXT
 40
0.18
  9
$DIMCEN
 40
0.09
  9
$DIMTSZ
 40
0.0
  9
$DIMTOL
 70
     0
  9
$DIMLIM
 70
     0
  9
$DIMTIH
 70
     1
  9
$DIMTOH
 70
     1
  9
$DIMSE1
 70
     0
  9
$DIMSE2
 70
     0
  9
$DIMTAD
 70
     0
  9
$DIMZIN
 70
     0
  9
$DIMBLK
  1

  9
$LUNITS
 70
     2
  9
$LUPREC
 70
     4
  9
$AXISMODE
 70
     0
  9
$AXISUNIT
 10
0.0
 20
0.0
  9
$SKETCHINC
 40
0.1
  9
$FILLETRAD
 40
0.0
  9
$AUNITS
 70
     0
  9
$AUPREC
 70
     0
  9
$MENU
  1
ACAD
  9
$ELEVATION
 40
0.0
  9
$THICKNESS
 40
0.0
  9
$VIEWDIR
 10
0.0
 20
0.0
 30
1.0
  9
$LIMCHECK
 70
     0
  9
$BLIPMODE
 70
     1
  9
$CHAMFERA
 40
0.0
  9
$CHAMFERB
 40
0.0
  9
$FASTZOOM
 70
     1
  9
$SKPOLY
 70
     0
  9
$TDCREATE
 40
0.000000
  9
$TDUPDATE
 40
0.000000
  9
$TDINDWG
 40
0.0
  9
$TDUSRTIMER
 40
0.0
  9
$USRTIMER
 70
     1
  9
$ANGBASE
 50
0.0
  9
$ANGDIR
 70
     0
  9
$PDMODE
 70
     0
  9
$PDSIZE
 40
0.0
  9
$PLINEWID
 40
0.0
  9
$COORDS
 70
     0
  9
$USERI1
 70
     0
  9
$USERI2
 70
     0
  9
$USERI3
 70
     0
  9
$USERI4
 70
     0
  9
$USERI5
 70
     0
  9
$USERR1
 40
0.0
  9
$USERR2
 40
0.0
  9
$USERR3
 40
0.0
  9
$USERR4
 40
0.0
  9
$USERR5
 40
0.0
  0
ENDSEC
  0
SECTION
  2
TABLES
  0
TABLE
  2
LTYPE
 70
     9
  0
LTYPE
  2
CONTINUOUS
 70
    64
  3
Solid line
 72
    65
 73
     0
 40
0.0
  0
LTYPE
  2
DASHED
 70
    64
  3
__ __ __ __ __ __ __ __ __ __ __ __ __ __ __
 72
    65
 73
     2
 40
0.75
 49
0.5
 49
-0.25
  0
LTYPE
  2
HIDDEN
 70
    64
  3
_ _ _ _ _ _ _ _ _ _ _ _ _ _ _ _ _ _ _ _ _ _ _
 72
    65
 73
     2
 40
0.375
 49
0.25
 49
-0.125
  0
LTYPE
  2
DOT
 70
    64
  3
...............................................
 72
    65
 73
     2
 40
0.25
 49
0.0
 49
-0.25
  0
LTYPE
  2
DASHDOT
 70
    64
  3
__ . __ . __ . __ . __ . __ . __ . __ . __ . __
 72
    65
 73
     4
 40
1.0
 49
0.5
 49
-0.25
 49
0.0
 49
-0.25
  0
LTYPE
  2
DIVIDE
 70
    64
  3
__ . . __ . . __ . . __ . . __ . . __ . . __
 72
    65
 73
     6
 40
1.25
 49
0.5
 49
-0.25
 49
0.0
 49
-0.25
 49
0.0
 49
-0.25
  0
LTYPE
  2
CENTER
 70
    64
  3
____ _ ____ _ ____ _ ____ _ ____ _ ____ _ ____ 
 72
    65
 73
     4
 40
2.0
 49
1.25
 49
-0.25
 49
0.25
 49
-0.25
  0
LTYPE
  2
PHANTOM
 70
    64
  3
______  __  __  ______  __  __  ______  __  __ 
 72
    65
 73
     6
 40
2.5
 49
1.25
 49
-0.25
 49
0.25
 49
-0.25
 49
0.25
 49
-0.25
  0
LTYPE
  2
BORDER
 70
    64
  3
__ __ . __ __ . __ __ . __ __ . __ __ . __ __ .
 72
    65
 73
     6
 40
1.75
 49
0.5
 49
-0.25
 49
0.5
 49
-0.25
 49
0.0
 49
-0.25
  0
ENDTAB
  0
TABLE
  2
LAYER
 70
    16
  0
LAYER
  2
CSLAYER1
 70
    64
 62
     7
  6
CONTINUOUS
  0
LAYER
  2
CSLAYER2
 70
    64
 62
     7
  6
CONTINUOUS
  0
LAYER
  2
CSLAYER3
 70
    64
 62
     7
  6
CONTINUOUS
  0
LAYER
  2
CSLAYER4
 70
    64
 62
     7
  6
CONTINUOUS
  0
LAYER
  2
CSLAYER5
 70
    64
 62
     7
  6
CONTINUOUS
  0
LAYER
  2
CSLAYER6
 70
    64
 62
     7
  6
CONTINUOUS
  0
LAYER
  2
CSLAYER7
 70
    64
 62
     7
  6
CONTINUOUS
  0
LAYER
  2
CSLAYER8
 70
    64
 62
     7
  6
CONTINUOUS
  0
LAYER
  2
CSLAYER9
 70
    64
 62
     7
  6
CONTINUOUS
  0
LAYER
  2
CSLAYER10
 70
    64
 62
     7
  6
CONTINUOUS
  0
LAYER
  2
CSLAYER11
 70
    64
 62
     7
  6
CONTINUOUS
  0
LAYER
  2
CSLAYER12
 70
    64
 62
     7
  6
CONTINUOUS
  0
LAYER
  2
CSLAYER13
 70
    64
 62
     7
  6
CONTINUOUS
  0
LAYER
  2
CSLAYER14
 70
    64
 62
     7
  6
CONTINUOUS
  0
LAYER
  2
CSLAYER15
 70
    64
 62
     7
  6
CONTINUOUS
  0
LAYER
  2
CSLAYER16
 70
    64
 62
     7
  6
CONTINUOUS
  0
ENDTAB
  0
TABLE
  2
STYLE
 70
     1
  0
STYLE
  2
SX_FONT
 70
     0
 40
1.0
 41
1.0
 50
0.0
 71
     0
 42
1.0
  3
monotxt
  4
bigfont
  0
ENDTAB
  0
TABLE
  2
VIEW
 70
     0
  0
ENDTAB
  0
ENDSEC
  0
SECTION
  2
BLOCKS
  0
BLOCK
  8
CSLAYER1
  2
*D0000
 70
    65
 10
0.0
 20
0.0
 30
0.0
  0
LINE
  8
CSLAYER1
  6
CONTINUOUS
 62
     7
 10
52.117188
 20
183.390625
 11
52.117188
 21
188.298986
  0
LINE
  8
CSLAYER1
  6
CONTINUOUS
 62
     7
 10
137.117188
 20
183.390625
 11
137.117188
 21
188.298986
  0
LINE
  8
CSLAYER1
  6
CONTINUOUS
 62
     7
 10
52.117188
 20
187.298986
 11
137.117188
 21
187.298986
  0
LINE
  8
CSLAYER1
  6
CONTINUOUS
 62
     7
 10
52.117188
 20
187.298986
 11
55.980891
 21
188.334262
  0
LINE
  8
CSLAYER1
  6
CONTINUOUS
 62
     7
 10
52.117188
 20
187.298986
 11
55.980891
 21
186.263710
  0
LINE
  8
CSLAYER1
  6
CONTINUOUS
 62
     7
 10
137.117188
 20
187.298986
 11
133.253484
 21
188.334262
  0
LINE
  8
CSLAYER1
  6
CONTINUOUS
 62
     7
 10
137.117188
 20
187.298986
 11
133.253484
 21
186.263710
  0
TEXT
  8
CSLAYER1
 62
     7
 10
91.617188
 20
188.298981
 40
4.000000
 41
0.900000
  1
85
 50
0.000000
 51
0.000000
  7
SX_FONT
 72
     5
 11
97.617188
 21
188.298981
  0
ENDBLK
  8
0
  0
BLOCK
  8
CSLAYER1
  2
*D0001
 70
    65
 10
0.0
 20
0.0
 30
0.0
  0
LINE
  8
CSLAYER1
  6
CONTINUOUS
 62
     7
 10
143.117188
 20
132.390625
 11
148.472492
 21
132.390625
  0
LINE
  8
CSLAYER1
  6
CONTINUOUS
 62
     7
 10
143.117188
 20
177.390625
 11
148.472492
 21
177.390625
  0
LINE
  8
CSLAYER1
  6
CONTINUOUS
 62
     7
 10
147.472492
 20
132.390625
 11
147.472492
 21
177.390625
  0
LINE
  8
CSLAYER1
  6
CONTINUOUS
 62
     7
 10
147.472492
 20
132.390625
 11
146.437216
 21
136.254328
  0
LINE
  8
CSLAYER1
  6
CONTINUOUS
 62
     7
 10
147.472492
 20
132.390625
 11
148.507768
 21
136.254328
  0
LINE
  8
CSLAYER1
  6
CONTINUOUS
 62
     7
 10
147.472492
 20
177.390625
 11
146.437216
 21
173.526922
  0
LINE
  8
CSLAYER1
  6
CONTINUOUS
 62
     7
 10
147.472492
 20
177.390625
 11
148.507768
 21
173.526922
  0
TEXT
  8
CSLAYER1
 62
     7
 10
152.468918
 20
151.941177
 40
4.000000
 41
0.900000
  1
45
 50
90.000000
 51
0.000000
  7
SX_FONT
 72
     5
 11
152.468918
 21
157.941177
  0
ENDBLK
  8
0
  0
ENDSEC
  0
SECTION
  2
ENTITIES
  0
LINE
  8
CSLAYER2
  6
CONTINUOUS
 62
     7
 10
137.117188
 20
132.390625
 11
137.117188
 21
169.390625
  0
ARC
  8
CSLAYER3
  6
CONTINUOUS
 62
     7
 10
99.669357
 20
170.266496
 40
13.476329
 50
263.861371
 51
356.273162
  0
ARC
  8
CSLAYER3
  6
CONTINUOUS
 62
     7
 10
85.797181
 20
144.397978
 40
13.679995
 50
98.022609
 51
180.030796
  0
ARC
  8
CSLAYER3
  6
CONTINUOUS
 62
     7
 10
86.559780
 20
97.490637
 40
60.512465
 50
78.882134
 51
92.530626
  0
LINE
  8
CSLAYER3
  6
CONTINUOUS
 62
     7
 10
117.117188
 20
169.390625
 11
113.117188
 21
169.390625
  0
LINE
  8
CSLAYER3
  6
CONTINUOUS
 62
     7
 10
113.117188
 20
169.390538
 11
113.117188
 21
169.390625
  0
LINE
  8
CSLAYER2
  6
CONTINUOUS
 62
     7
 10
137.117188
 20
169.390625
 11
133.117188
 21
169.390625
  0
ARC
  8
CSLAYER2
  6
CONTINUOUS
 62
     7
 10
125.117188
 20
169.390625
 40
8.000000
 50
0.000000
 51
180.000000
  0
LINE
  8
CSLAYER2
  6
CONTINUOUS
 62
     7
 10
52.117188
 20
132.390625
 11
137.117188
 21
132.390625
  0
LINE
  8
CSLAYER3
  6
CONTINUOUS
 62
     7
 10
56.117188
 20
139.390625
 11
62.117188
 21
139.390625
  0
LINE
  8
CSLAYER3
  6
CONTINUOUS
 62
     7
 10
52.117188
 20
139.390625
 11
56.117188
 21
139.390625
  0
LINE
  8
CSLAYER3
  6
CONTINUOUS
 62
     7
 10
62.117188
 20
144.390625
 11
62.117188
 21
139.390625
  0
LINE
  8
CSLAYER3
  6
CONTINUOUS
 62
     7
 10
52.117188
 20
139.390625
 11
52.117188
 21
132.390625
  0
LINE
  8
CSLAYER3
  6
CONTINUOUS
 62
     7
 10
62.117188
 20
144.390625
 11
72.117188
 21
144.390625
  0
TEXT
  8
CSLAYER1
 62
     7
 10
52.155304
 20
71.646629
 40
10.000000
 41
0.630000
  1
FM-2174
 50
0.000000
 51
0.000000
  7
SX_FONT
 72
     5
 11
94.155304
 21
71.646629
  0
DIMENSION
  8
CSLAYER1
 62
     7
  2
*D0000
 10
137.117188
 20
187.298986
 11
94.617188
 21
188.298981
 13
52.117188
 23
182.390625
 14
137.117188
 24
182.390625
 70
1
  0
DIMENSION
  8
CSLAYER1
 62
     7
  2
*D0001
 10
147.472492
 20
177.390625
 11
152.468918
 21
154.941177
 13
142.117188
 23
132.390625
 14
142.117188
 24
177.390625
 50
90.000000
 70
1
  0
TEXT
  8
CSLAYER1
 62
     7
 10
109.627296
 20
71.942482
 40
10.000000
 41
0.642857
  1
85x45
 50
0.000000
 51
0.000000
  7
SX_FONT
 72
     5
 11
139.627296
 21
71.942482
  0
TEXT
  8
CSLAYER1
 62
     7
 10
53.120827
 20
60.019379
 40
5.000000
 41
0.612766
  1
カタログ Vol. 1  P65
 50
0.000000
 51
0.000000
  7
SX_FONT
 72
     5
 11
101.120827
 21
60.019379
  0
TEXT
  8
CSLAYER1
 62
     7
 10
53.444586
 20
49.009536
 40
4.960742
 41
0.729057
  1
ホ%%dケットカタロク゛ Vol. 1 P38
 50
0.000000
 51
0.000000
  7
SX_FONT
 72
     5
 11
128.188944
 21
49.009536
  0
ENDSEC
  0
EOF
