  0
SECTION
  2
HEADER
  9
$ACADVER
  1
AC1006
  9
$INSBASE
 10
71.165755
 20
187.464125
 30
0.0
  9
$EXTMIN
 10
71.165755
 20
187.464125
  9
$EXTMAX
 10
281.165755
 20
484.464125
  9
$LIMMIN
 10
71.165755
 20
187.464125
  9
$LIMMAX
 10
281.165755
 20
484.464125
  9
$VIEWCTR
 10
176.165755
 20
335.964125
  9
$VIEWSIZE
 40
297.000000
  9
$SNAPMODE
 70
     0
  9
$SNAPUNIT
 10
1.0
 20
1.0
  9
$SNAPBASE
 10
0.0
 20
0.0
  9
$SNAPANG
 50
0.0
  9
$SNAPSTYLE
 70
     0
  9
$SNAPISOPAIR
 70
     0
  9
$GRIDMODE
 70
     0
  9
$GRIDUNIT
 10
0.0
 20
0.0
  9
$ORTHOMODE
 70
     0
  9
$REGENMODE
 70
     1
  9
$FILLMODE
 70
     1
  9
$QTEXTMODE
 70
     0
  9
$DRAGMODE
 70
     2
  9
$LTSCALE
 40
15.000000
  9
$OSMODE
 70
     0
  9
$ATTMODE
 70
     1
  9
$TEXTSIZE
 40
0.2
  9
$TRACEWID
 40
0.05
  9
$TEXTSTYLE
  7
STANDARD
  9
$CLAYER
  8
CSLAYER3
  9
$CELTYPE
  6
BYLAYER
  9
$CECOLOR
 62
   256
  9
$DIMSCALE
 40
1.0
  9
$DIMASZ
 40
0.18
  9
$DIMEXO
 40
0.0625
  9
$DIMDLI
 40
0.38
  9
$DIMRND
 40
0.0
  9
$DIMDLE
 40
0.0
  9
$DIMEXE
 40
0.18
  9
$DIMTP
 40
0.0
  9
$DIMTM
 40
0.0
  9
$DIMTXT
 40
0.18
  9
$DIMCEN
 40
0.09
  9
$DIMTSZ
 40
0.0
  9
$DIMTOL
 70
     0
  9
$DIMLIM
 70
     0
  9
$DIMTIH
 70
     1
  9
$DIMTOH
 70
     1
  9
$DIMSE1
 70
     0
  9
$DIMSE2
 70
     0
  9
$DIMTAD
 70
     0
  9
$DIMZIN
 70
     0
  9
$DIMBLK
  1

  9
$LUNITS
 70
     2
  9
$LUPREC
 70
     4
  9
$AXISMODE
 70
     0
  9
$AXISUNIT
 10
0.0
 20
0.0
  9
$SKETCHINC
 40
0.1
  9
$FILLETRAD
 40
0.0
  9
$AUNITS
 70
     0
  9
$AUPREC
 70
     0
  9
$MENU
  1
ACAD
  9
$ELEVATION
 40
0.0
  9
$THICKNESS
 40
0.0
  9
$VIEWDIR
 10
0.0
 20
0.0
 30
1.0
  9
$LIMCHECK
 70
     0
  9
$BLIPMODE
 70
     1
  9
$CHAMFERA
 40
0.0
  9
$CHAMFERB
 40
0.0
  9
$FASTZOOM
 70
     1
  9
$SKPOLY
 70
     0
  9
$TDCREATE
 40
0.000000
  9
$TDUPDATE
 40
0.000000
  9
$TDINDWG
 40
0.0
  9
$TDUSRTIMER
 40
0.0
  9
$USRTIMER
 70
     1
  9
$ANGBASE
 50
0.0
  9
$ANGDIR
 70
     0
  9
$PDMODE
 70
     0
  9
$PDSIZE
 40
0.0
  9
$PLINEWID
 40
0.0
  9
$COORDS
 70
     0
  9
$USERI1
 70
     0
  9
$USERI2
 70
     0
  9
$USERI3
 70
     0
  9
$USERI4
 70
     0
  9
$USERI5
 70
     0
  9
$USERR1
 40
0.0
  9
$USERR2
 40
0.0
  9
$USERR3
 40
0.0
  9
$USERR4
 40
0.0
  9
$USERR5
 40
0.0
  0
ENDSEC
  0
SECTION
  2
TABLES
  0
TABLE
  2
LTYPE
 70
     9
  0
LTYPE
  2
CONTINUOUS
 70
    64
  3
Solid line
 72
    65
 73
     0
 40
0.0
  0
LTYPE
  2
DASHED
 70
    64
  3
__ __ __ __ __ __ __ __ __ __ __ __ __ __ __
 72
    65
 73
     2
 40
0.75
 49
0.5
 49
-0.25
  0
LTYPE
  2
HIDDEN
 70
    64
  3
_ _ _ _ _ _ _ _ _ _ _ _ _ _ _ _ _ _ _ _ _ _ _
 72
    65
 73
     2
 40
0.375
 49
0.25
 49
-0.125
  0
LTYPE
  2
DOT
 70
    64
  3
...............................................
 72
    65
 73
     2
 40
0.25
 49
0.0
 49
-0.25
  0
LTYPE
  2
DASHDOT
 70
    64
  3
__ . __ . __ . __ . __ . __ . __ . __ . __ . __
 72
    65
 73
     4
 40
1.0
 49
0.5
 49
-0.25
 49
0.0
 49
-0.25
  0
LTYPE
  2
DIVIDE
 70
    64
  3
__ . . __ . . __ . . __ . . __ . . __ . . __
 72
    65
 73
     6
 40
1.25
 49
0.5
 49
-0.25
 49
0.0
 49
-0.25
 49
0.0
 49
-0.25
  0
LTYPE
  2
CENTER
 70
    64
  3
____ _ ____ _ ____ _ ____ _ ____ _ ____ _ ____ 
 72
    65
 73
     4
 40
2.0
 49
1.25
 49
-0.25
 49
0.25
 49
-0.25
  0
LTYPE
  2
PHANTOM
 70
    64
  3
______  __  __  ______  __  __  ______  __  __ 
 72
    65
 73
     6
 40
2.5
 49
1.25
 49
-0.25
 49
0.25
 49
-0.25
 49
0.25
 49
-0.25
  0
LTYPE
  2
BORDER
 70
    64
  3
__ __ . __ __ . __ __ . __ __ . __ __ . __ __ .
 72
    65
 73
     6
 40
1.75
 49
0.5
 49
-0.25
 49
0.5
 49
-0.25
 49
0.0
 49
-0.25
  0
ENDTAB
  0
TABLE
  2
LAYER
 70
    16
  0
LAYER
  2
CSLAYER1
 70
    64
 62
     7
  6
CONTINUOUS
  0
LAYER
  2
CSLAYER2
 70
    64
 62
     7
  6
CONTINUOUS
  0
LAYER
  2
CSLAYER3
 70
    64
 62
     7
  6
CONTINUOUS
  0
LAYER
  2
CSLAYER4
 70
    64
 62
     7
  6
CONTINUOUS
  0
LAYER
  2
CSLAYER5
 70
    64
 62
     7
  6
CONTINUOUS
  0
LAYER
  2
CSLAYER6
 70
    64
 62
     7
  6
CONTINUOUS
  0
LAYER
  2
CSLAYER7
 70
    64
 62
     7
  6
CONTINUOUS
  0
LAYER
  2
CSLAYER8
 70
    64
 62
     7
  6
CONTINUOUS
  0
LAYER
  2
CSLAYER9
 70
    64
 62
     7
  6
CONTINUOUS
  0
LAYER
  2
CSLAYER10
 70
    64
 62
     7
  6
CONTINUOUS
  0
LAYER
  2
CSLAYER11
 70
    64
 62
     7
  6
CONTINUOUS
  0
LAYER
  2
CSLAYER12
 70
    64
 62
     7
  6
CONTINUOUS
  0
LAYER
  2
CSLAYER13
 70
    64
 62
     7
  6
CONTINUOUS
  0
LAYER
  2
CSLAYER14
 70
    64
 62
     7
  6
CONTINUOUS
  0
LAYER
  2
CSLAYER15
 70
    64
 62
     7
  6
CONTINUOUS
  0
LAYER
  2
CSLAYER16
 70
    64
 62
     7
  6
CONTINUOUS
  0
ENDTAB
  0
TABLE
  2
STYLE
 70
     1
  0
STYLE
  2
SX_FONT
 70
     0
 40
1.0
 41
1.0
 50
0.0
 71
     0
 42
1.0
  3
monotxt
  4
bigfont
  0
ENDTAB
  0
TABLE
  2
VIEW
 70
     0
  0
ENDTAB
  0
ENDSEC
  0
SECTION
  2
BLOCKS
  0
BLOCK
  8
CSLAYER1
  2
*D0000
 70
    65
 10
0.0
 20
0.0
 30
0.0
  0
LINE
  8
CSLAYER1
  6
CONTINUOUS
 62
     7
 10
68.539063
 20
183.343750
 11
68.539063
 21
188.478146
  0
LINE
  8
CSLAYER1
  6
CONTINUOUS
 62
     7
 10
128.539063
 20
183.343750
 11
128.539063
 21
188.478146
  0
LINE
  8
CSLAYER1
  6
CONTINUOUS
 62
     7
 10
68.539063
 20
187.478146
 11
128.539063
 21
187.478146
  0
LINE
  8
CSLAYER1
  6
CONTINUOUS
 62
     7
 10
68.539063
 20
187.478146
 11
72.402766
 21
188.513423
  0
LINE
  8
CSLAYER1
  6
CONTINUOUS
 62
     7
 10
68.539063
 20
187.478146
 11
72.402766
 21
186.442870
  0
LINE
  8
CSLAYER1
  6
CONTINUOUS
 62
     7
 10
128.539063
 20
187.478146
 11
124.675359
 21
188.513423
  0
LINE
  8
CSLAYER1
  6
CONTINUOUS
 62
     7
 10
128.539063
 20
187.478146
 11
124.675359
 21
186.442870
  0
TEXT
  8
CSLAYER1
 62
     7
 10
95.539063
 20
188.478149
 40
4.000000
 41
0.900000
  1
60
 50
0.000000
 51
0.000000
  7
SX_FONT
 72
     5
 11
101.539063
 21
188.478149
  0
ENDBLK
  8
0
  0
BLOCK
  8
CSLAYER1
  2
*D0001
 70
    65
 10
0.0
 20
0.0
 30
0.0
  0
LINE
  8
CSLAYER1
  6
CONTINUOUS
 62
     7
 10
134.539063
 20
147.343750
 11
139.510886
 21
147.343750
  0
LINE
  8
CSLAYER1
  6
CONTINUOUS
 62
     7
 10
134.539063
 20
177.343750
 11
139.510886
 21
177.343750
  0
LINE
  8
CSLAYER1
  6
CONTINUOUS
 62
     7
 10
138.510886
 20
147.343750
 11
138.510886
 21
177.343750
  0
LINE
  8
CSLAYER1
  6
CONTINUOUS
 62
     7
 10
138.510886
 20
147.343750
 11
137.475610
 21
151.207453
  0
LINE
  8
CSLAYER1
  6
CONTINUOUS
 62
     7
 10
138.510886
 20
147.343750
 11
139.546162
 21
151.207453
  0
LINE
  8
CSLAYER1
  6
CONTINUOUS
 62
     7
 10
138.510886
 20
177.343750
 11
137.475610
 21
173.480047
  0
LINE
  8
CSLAYER1
  6
CONTINUOUS
 62
     7
 10
138.510886
 20
177.343750
 11
139.546162
 21
173.480047
  0
TEXT
  8
CSLAYER1
 62
     7
 10
143.713699
 20
159.410019
 40
4.000000
 41
0.900000
  1
30
 50
90.000000
 51
0.000000
  7
SX_FONT
 72
     5
 11
143.713699
 21
165.410019
  0
ENDBLK
  8
0
  0
ENDSEC
  0
SECTION
  2
ENTITIES
  0
ARC
  8
CSLAYER2
  6
CONTINUOUS
 62
     7
 10
119.739062
 20
171.743750
 40
5.600000
 50
0.000000
 51
180.000000
  0
LINE
  8
CSLAYER2
  6
CONTINUOUS
 62
     7
 10
68.539063
 20
147.343750
 11
128.539063
 21
147.343750
  0
ARC
  8
CSLAYER4
  6
CONTINUOUS
 62
     7
 10
85.309354
 20
156.283839
 40
6.535438
 50
93.530444
 51
167.092145
  0
ARC
  8
CSLAYER2
  6
CONTINUOUS
 62
     7
 10
99.265756
 20
172.237290
 40
11.683735
 50
266.363446
 51
357.579013
  0
LINE
  8
CSLAYER2
  6
CONTINUOUS
 62
     7
 10
110.932526
 20
171.743750
 11
114.139063
 21
171.743750
  0
ARC
  8
CSLAYER4
  6
CONTINUOUS
 62
     7
 10
86.476502
 20
147.172147
 40
15.713317
 50
71.889269
 51
95.732800
  0
LINE
  8
CSLAYER2
  6
CONTINUOUS
 62
     7
 10
68.539063
 20
153.743750
 11
68.539063
 21
147.343750
  0
LINE
  8
CSLAYER2
  6
CONTINUOUS
 62
     7
 10
68.539063
 20
153.743750
 11
73.739062
 21
153.743750
  0
LINE
  8
CSLAYER2
  6
CONTINUOUS
 62
     7
 10
73.739062
 20
157.743750
 11
78.939062
 21
157.743750
  0
LINE
  8
CSLAYER2
  6
CONTINUOUS
 62
     7
 10
73.739062
 20
157.743750
 11
73.739062
 21
153.743750
  0
ARC
  8
CSLAYER4
  6
CONTINUOUS
 62
     7
 10
98.941452
 20
180.064977
 40
19.492352
 50
247.114503
 51
268.774874
  0
LINE
  8
CSLAYER2
  6
CONTINUOUS
 62
     7
 10
128.539063
 20
147.343750
 11
128.539063
 21
171.743750
  0
LINE
  8
CSLAYER2
  6
CONTINUOUS
 62
     7
 10
125.339062
 20
171.743750
 11
128.539063
 21
171.743750
  0
TEXT
  8
CSLAYER1
 62
     7
 10
68.383659
 20
86.754868
 40
10.000000
 41
0.630000
  1
FM-2173
 50
0.000000
 51
0.000000
  7
SX_FONT
 72
     5
 11
110.383659
 21
86.754868
  0
DIMENSION
  8
CSLAYER1
 62
     7
  2
*D0000
 10
128.539063
 20
187.478146
 11
98.539063
 21
188.478149
 13
68.539063
 23
182.343750
 14
128.539063
 24
182.343750
 70
1
  0
DIMENSION
  8
CSLAYER1
 62
     7
  2
*D0001
 10
138.510886
 20
177.343750
 11
143.713699
 21
162.410019
 13
133.539063
 23
147.343750
 14
133.539063
 24
177.343750
 50
90.000000
 70
1
  0
TEXT
  8
CSLAYER1
 62
     7
 10
124.809448
 20
87.154755
 40
10.000000
 41
0.642857
  1
60x30
 50
0.000000
 51
0.000000
  7
SX_FONT
 72
     5
 11
154.809448
 21
87.154755
  0
TEXT
  8
CSLAYER1
 62
     7
 10
69.249794
 20
75.004601
 40
5.000000
 41
0.612766
  1
カタログ Vol. 1  P65
 50
0.000000
 51
0.000000
  7
SX_FONT
 72
     5
 11
117.249794
 21
75.004601
  0
TEXT
  8
CSLAYER1
 62
     7
 10
69.283438
 20
64.392379
 40
4.960742
 41
0.729057
  1
ホ%%dケットカタロク゛ Vol. 1 P38
 50
0.000000
 51
0.000000
  7
SX_FONT
 72
     5
 11
144.027796
 21
64.392379
  0
ENDSEC
  0
EOF
