  0
SECTION
  2
HEADER
  9
$ACADVER
  1
AC1006
  9
$INSBASE
 10
78.817261
 20
168.743652
 30
0.0
  9
$EXTMIN
 10
78.817261
 20
168.743652
  9
$EXTMAX
 10
288.817261
 20
465.743652
  9
$LIMMIN
 10
78.817261
 20
168.743652
  9
$LIMMAX
 10
288.817261
 20
465.743652
  9
$VIEWCTR
 10
183.817261
 20
317.243652
  9
$VIEWSIZE
 40
297.000000
  9
$SNAPMODE
 70
     0
  9
$SNAPUNIT
 10
1.0
 20
1.0
  9
$SNAPBASE
 10
0.0
 20
0.0
  9
$SNAPANG
 50
0.0
  9
$SNAPSTYLE
 70
     0
  9
$SNAPISOPAIR
 70
     0
  9
$GRIDMODE
 70
     0
  9
$GRIDUNIT
 10
0.0
 20
0.0
  9
$ORTHOMODE
 70
     0
  9
$REGENMODE
 70
     1
  9
$FILLMODE
 70
     1
  9
$QTEXTMODE
 70
     0
  9
$DRAGMODE
 70
     2
  9
$LTSCALE
 40
15.000000
  9
$OSMODE
 70
     0
  9
$ATTMODE
 70
     1
  9
$TEXTSIZE
 40
0.2
  9
$TRACEWID
 40
0.05
  9
$TEXTSTYLE
  7
STANDARD
  9
$CLAYER
  8
CSLAYER3
  9
$CELTYPE
  6
BYLAYER
  9
$CECOLOR
 62
   256
  9
$DIMSCALE
 40
1.0
  9
$DIMASZ
 40
0.18
  9
$DIMEXO
 40
0.0625
  9
$DIMDLI
 40
0.38
  9
$DIMRND
 40
0.0
  9
$DIMDLE
 40
0.0
  9
$DIMEXE
 40
0.18
  9
$DIMTP
 40
0.0
  9
$DIMTM
 40
0.0
  9
$DIMTXT
 40
0.18
  9
$DIMCEN
 40
0.09
  9
$DIMTSZ
 40
0.0
  9
$DIMTOL
 70
     0
  9
$DIMLIM
 70
     0
  9
$DIMTIH
 70
     1
  9
$DIMTOH
 70
     1
  9
$DIMSE1
 70
     0
  9
$DIMSE2
 70
     0
  9
$DIMTAD
 70
     0
  9
$DIMZIN
 70
     0
  9
$DIMBLK
  1

  9
$LUNITS
 70
     2
  9
$LUPREC
 70
     4
  9
$AXISMODE
 70
     0
  9
$AXISUNIT
 10
0.0
 20
0.0
  9
$SKETCHINC
 40
0.1
  9
$FILLETRAD
 40
0.0
  9
$AUNITS
 70
     0
  9
$AUPREC
 70
     0
  9
$MENU
  1
ACAD
  9
$ELEVATION
 40
0.0
  9
$THICKNESS
 40
0.0
  9
$VIEWDIR
 10
0.0
 20
0.0
 30
1.0
  9
$LIMCHECK
 70
     0
  9
$BLIPMODE
 70
     1
  9
$CHAMFERA
 40
0.0
  9
$CHAMFERB
 40
0.0
  9
$FASTZOOM
 70
     1
  9
$SKPOLY
 70
     0
  9
$TDCREATE
 40
0.000000
  9
$TDUPDATE
 40
0.000000
  9
$TDINDWG
 40
0.0
  9
$TDUSRTIMER
 40
0.0
  9
$USRTIMER
 70
     1
  9
$ANGBASE
 50
0.0
  9
$ANGDIR
 70
     0
  9
$PDMODE
 70
     0
  9
$PDSIZE
 40
0.0
  9
$PLINEWID
 40
0.0
  9
$COORDS
 70
     0
  9
$USERI1
 70
     0
  9
$USERI2
 70
     0
  9
$USERI3
 70
     0
  9
$USERI4
 70
     0
  9
$USERI5
 70
     0
  9
$USERR1
 40
0.0
  9
$USERR2
 40
0.0
  9
$USERR3
 40
0.0
  9
$USERR4
 40
0.0
  9
$USERR5
 40
0.0
  0
ENDSEC
  0
SECTION
  2
TABLES
  0
TABLE
  2
LTYPE
 70
     9
  0
LTYPE
  2
CONTINUOUS
 70
    64
  3
Solid line
 72
    65
 73
     0
 40
0.0
  0
LTYPE
  2
DASHED
 70
    64
  3
__ __ __ __ __ __ __ __ __ __ __ __ __ __ __
 72
    65
 73
     2
 40
0.75
 49
0.5
 49
-0.25
  0
LTYPE
  2
HIDDEN
 70
    64
  3
_ _ _ _ _ _ _ _ _ _ _ _ _ _ _ _ _ _ _ _ _ _ _
 72
    65
 73
     2
 40
0.375
 49
0.25
 49
-0.125
  0
LTYPE
  2
DOT
 70
    64
  3
...............................................
 72
    65
 73
     2
 40
0.25
 49
0.0
 49
-0.25
  0
LTYPE
  2
DASHDOT
 70
    64
  3
__ . __ . __ . __ . __ . __ . __ . __ . __ . __
 72
    65
 73
     4
 40
1.0
 49
0.5
 49
-0.25
 49
0.0
 49
-0.25
  0
LTYPE
  2
DIVIDE
 70
    64
  3
__ . . __ . . __ . . __ . . __ . . __ . . __
 72
    65
 73
     6
 40
1.25
 49
0.5
 49
-0.25
 49
0.0
 49
-0.25
 49
0.0
 49
-0.25
  0
LTYPE
  2
CENTER
 70
    64
  3
____ _ ____ _ ____ _ ____ _ ____ _ ____ _ ____ 
 72
    65
 73
     4
 40
2.0
 49
1.25
 49
-0.25
 49
0.25
 49
-0.25
  0
LTYPE
  2
PHANTOM
 70
    64
  3
______  __  __  ______  __  __  ______  __  __ 
 72
    65
 73
     6
 40
2.5
 49
1.25
 49
-0.25
 49
0.25
 49
-0.25
 49
0.25
 49
-0.25
  0
LTYPE
  2
BORDER
 70
    64
  3
__ __ . __ __ . __ __ . __ __ . __ __ . __ __ .
 72
    65
 73
     6
 40
1.75
 49
0.5
 49
-0.25
 49
0.5
 49
-0.25
 49
0.0
 49
-0.25
  0
ENDTAB
  0
TABLE
  2
LAYER
 70
    16
  0
LAYER
  2
CSLAYER1
 70
    64
 62
     7
  6
CONTINUOUS
  0
LAYER
  2
CSLAYER2
 70
    64
 62
     7
  6
CONTINUOUS
  0
LAYER
  2
CSLAYER3
 70
    64
 62
     7
  6
CONTINUOUS
  0
LAYER
  2
CSLAYER4
 70
    64
 62
     7
  6
CONTINUOUS
  0
LAYER
  2
CSLAYER5
 70
    64
 62
     7
  6
CONTINUOUS
  0
LAYER
  2
CSLAYER6
 70
    64
 62
     7
  6
CONTINUOUS
  0
LAYER
  2
CSLAYER7
 70
    64
 62
     7
  6
CONTINUOUS
  0
LAYER
  2
CSLAYER8
 70
    64
 62
     7
  6
CONTINUOUS
  0
LAYER
  2
CSLAYER9
 70
    64
 62
     7
  6
CONTINUOUS
  0
LAYER
  2
CSLAYER10
 70
    64
 62
     7
  6
CONTINUOUS
  0
LAYER
  2
CSLAYER11
 70
    64
 62
     7
  6
CONTINUOUS
  0
LAYER
  2
CSLAYER12
 70
    64
 62
     7
  6
CONTINUOUS
  0
LAYER
  2
CSLAYER13
 70
    64
 62
     7
  6
CONTINUOUS
  0
LAYER
  2
CSLAYER14
 70
    64
 62
     7
  6
CONTINUOUS
  0
LAYER
  2
CSLAYER15
 70
    64
 62
     7
  6
CONTINUOUS
  0
LAYER
  2
CSLAYER16
 70
    64
 62
     7
  6
CONTINUOUS
  0
ENDTAB
  0
TABLE
  2
STYLE
 70
     1
  0
STYLE
  2
SX_FONT
 70
     0
 40
1.0
 41
1.0
 50
0.0
 71
     0
 42
1.0
  3
monotxt
  4
bigfont
  0
ENDTAB
  0
TABLE
  2
VIEW
 70
     0
  0
ENDTAB
  0
ENDSEC
  0
SECTION
  2
BLOCKS
  0
BLOCK
  8
CSLAYER1
  2
*D0000
 70
    65
 10
0.0
 20
0.0
 30
0.0
  0
LINE
  8
CSLAYER1
  6
CONTINUOUS
 62
     7
 10
79.039063
 20
164.765625
 11
79.039063
 21
169.726498
  0
LINE
  8
CSLAYER1
  6
CONTINUOUS
 62
     7
 10
119.039063
 20
164.765625
 11
119.039063
 21
169.726498
  0
LINE
  8
CSLAYER1
  6
CONTINUOUS
 62
     7
 10
79.039063
 20
168.726498
 11
119.039063
 21
168.726498
  0
LINE
  8
CSLAYER1
  6
CONTINUOUS
 62
     7
 10
79.039063
 20
168.726498
 11
82.902766
 21
169.761774
  0
LINE
  8
CSLAYER1
  6
CONTINUOUS
 62
     7
 10
79.039063
 20
168.726498
 11
82.902766
 21
167.691221
  0
LINE
  8
CSLAYER1
  6
CONTINUOUS
 62
     7
 10
119.039063
 20
168.726498
 11
115.175359
 21
169.761774
  0
LINE
  8
CSLAYER1
  6
CONTINUOUS
 62
     7
 10
119.039063
 20
168.726498
 11
115.175359
 21
167.691221
  0
TEXT
  8
CSLAYER1
 62
     7
 10
96.039063
 20
169.726501
 40
4.000000
 41
0.900000
  1
40
 50
0.000000
 51
0.000000
  7
SX_FONT
 72
     5
 11
102.039063
 21
169.726501
  0
ENDBLK
  8
0
  0
BLOCK
  8
CSLAYER1
  2
*D0001
 70
    65
 10
0.0
 20
0.0
 30
0.0
  0
LINE
  8
CSLAYER1
  6
CONTINUOUS
 62
     7
 10
125.039063
 20
137.765625
 11
130.377287
 21
137.765625
  0
LINE
  8
CSLAYER1
  6
CONTINUOUS
 62
     7
 10
125.039063
 20
158.765625
 11
130.377287
 21
158.765625
  0
LINE
  8
CSLAYER1
  6
CONTINUOUS
 62
     7
 10
129.377287
 20
137.765625
 11
129.377287
 21
158.765625
  0
LINE
  8
CSLAYER1
  6
CONTINUOUS
 62
     7
 10
129.377287
 20
137.765625
 11
128.342011
 21
141.629328
  0
LINE
  8
CSLAYER1
  6
CONTINUOUS
 62
     7
 10
129.377287
 20
137.765625
 11
130.412563
 21
141.629328
  0
LINE
  8
CSLAYER1
  6
CONTINUOUS
 62
     7
 10
129.377287
 20
158.765625
 11
128.342011
 21
154.901922
  0
LINE
  8
CSLAYER1
  6
CONTINUOUS
 62
     7
 10
129.377287
 20
158.765625
 11
130.412563
 21
154.901922
  0
TEXT
  8
CSLAYER1
 62
     7
 10
134.193115
 20
144.857895
 40
4.000000
 41
0.900000
  1
21
 50
90.000000
 51
0.000000
  7
SX_FONT
 72
     5
 11
134.193115
 21
150.857895
  0
ENDBLK
  8
0
  0
ENDSEC
  0
SECTION
  2
ENTITIES
  0
LINE
  8
CSLAYER2
  6
CONTINUOUS
 62
     7
 10
119.039063
 20
137.765625
 11
119.039063
 21
155.032292
  0
LINE
  8
CSLAYER2
  6
CONTINUOUS
 62
     7
 10
116.905729
 20
155.032292
 11
119.039063
 21
155.032292
  0
LINE
  8
CSLAYER2
  6
CONTINUOUS
 62
     7
 10
82.505729
 20
145.698958
 11
85.972396
 21
145.698958
  0
LINE
  8
CSLAYER2
  6
CONTINUOUS
 62
     7
 10
82.505729
 20
145.698958
 11
82.505729
 21
143.032292
  0
LINE
  8
CSLAYER2
  6
CONTINUOUS
 62
     7
 10
79.039063
 20
143.032292
 11
82.505729
 21
143.032292
  0
LINE
  8
CSLAYER2
  6
CONTINUOUS
 62
     7
 10
79.039063
 20
143.032292
 11
79.039063
 21
137.765625
  0
ARC
  8
CSLAYER2
  6
CONTINUOUS
 62
     7
 10
99.523525
 20
155.361318
 40
7.789156
 50
266.363446
 51
357.579013
  0
LINE
  8
CSLAYER2
  6
CONTINUOUS
 62
     7
 10
107.301371
 20
155.032292
 11
109.439063
 21
155.032292
  0
ARC
  8
CSLAYER4
  6
CONTINUOUS
 62
     7
 10
90.997356
 20
138.651223
 40
10.475545
 50
71.889269
 51
95.732800
  0
ARC
  8
CSLAYER4
  6
CONTINUOUS
 62
     7
 10
90.219257
 20
144.725685
 40
4.356959
 50
93.530444
 51
167.092145
  0
ARC
  8
CSLAYER4
  6
CONTINUOUS
 62
     7
 10
99.307322
 20
160.579776
 40
12.994901
 50
247.114503
 51
268.774874
  0
LINE
  8
CSLAYER2
  6
CONTINUOUS
 62
     7
 10
79.039063
 20
137.765625
 11
119.039063
 21
137.765625
  0
ARC
  8
CSLAYER2
  6
CONTINUOUS
 62
     7
 10
113.172396
 20
155.032292
 40
3.733333
 50
0.000000
 51
180.000000
  0
TEXT
  8
CSLAYER1
 62
     7
 10
79.207100
 20
77.500160
 40
10.000000
 41
0.630000
  1
FM-2171
 50
0.000000
 51
0.000000
  7
SX_FONT
 72
     5
 11
121.207100
 21
77.500160
  0
DIMENSION
  8
CSLAYER1
 62
     7
  2
*D0000
 10
119.039063
 20
168.726498
 11
99.039063
 21
169.726501
 13
79.039063
 23
163.765625
 14
119.039063
 24
163.765625
 70
1
  0
DIMENSION
  8
CSLAYER1
 62
     7
  2
*D0001
 10
129.377287
 20
158.765625
 11
134.193115
 21
147.857895
 13
124.039063
 23
137.765625
 14
124.039063
 24
158.765625
 50
90.000000
 70
1
  0
TEXT
  8
CSLAYER1
 62
     7
 10
136.198135
 20
77.946419
 40
10.000000
 41
0.642857
  1
40x21
 50
0.000000
 51
0.000000
  7
SX_FONT
 72
     5
 11
166.198135
 21
77.946419
  0
TEXT
  8
CSLAYER1
 62
     7
 10
80.430244
 20
66.266304
 40
5.000000
 41
0.612766
  1
カタログ Vol. 1  P64
 50
0.000000
 51
0.000000
  7
SX_FONT
 72
     5
 11
128.430244
 21
66.266304
  0
TEXT
  8
CSLAYER1
 62
     7
 10
80.299002
 20
56.118785
 40
4.960742
 41
0.729057
  1
ホ%%dケットカタロク゛ Vol. 1 P37
 50
0.000000
 51
0.000000
  7
SX_FONT
 72
     5
 11
155.043360
 21
56.118785
  0
ENDSEC
  0
EOF
