  0
SECTION
  2
HEADER
  9
$ACADVER
  1
AC1006
  9
$INSBASE
 10
93.763224
 20
173.245524
 30
0.0
  9
$EXTMIN
 10
93.763224
 20
173.245524
  9
$EXTMAX
 10
303.763224
 20
470.245524
  9
$LIMMIN
 10
93.763224
 20
173.245524
  9
$LIMMAX
 10
303.763224
 20
470.245524
  9
$VIEWCTR
 10
198.763224
 20
321.745524
  9
$VIEWSIZE
 40
297.000000
  9
$SNAPMODE
 70
     0
  9
$SNAPUNIT
 10
1.0
 20
1.0
  9
$SNAPBASE
 10
0.0
 20
0.0
  9
$SNAPANG
 50
0.0
  9
$SNAPSTYLE
 70
     0
  9
$SNAPISOPAIR
 70
     0
  9
$GRIDMODE
 70
     0
  9
$GRIDUNIT
 10
0.0
 20
0.0
  9
$ORTHOMODE
 70
     0
  9
$REGENMODE
 70
     1
  9
$FILLMODE
 70
     1
  9
$QTEXTMODE
 70
     0
  9
$DRAGMODE
 70
     2
  9
$LTSCALE
 40
15.000000
  9
$OSMODE
 70
     0
  9
$ATTMODE
 70
     1
  9
$TEXTSIZE
 40
0.2
  9
$TRACEWID
 40
0.05
  9
$TEXTSTYLE
  7
STANDARD
  9
$CLAYER
  8
CSLAYER3
  9
$CELTYPE
  6
BYLAYER
  9
$CECOLOR
 62
   256
  9
$DIMSCALE
 40
1.0
  9
$DIMASZ
 40
0.18
  9
$DIMEXO
 40
0.0625
  9
$DIMDLI
 40
0.38
  9
$DIMRND
 40
0.0
  9
$DIMDLE
 40
0.0
  9
$DIMEXE
 40
0.18
  9
$DIMTP
 40
0.0
  9
$DIMTM
 40
0.0
  9
$DIMTXT
 40
0.18
  9
$DIMCEN
 40
0.09
  9
$DIMTSZ
 40
0.0
  9
$DIMTOL
 70
     0
  9
$DIMLIM
 70
     0
  9
$DIMTIH
 70
     1
  9
$DIMTOH
 70
     1
  9
$DIMSE1
 70
     0
  9
$DIMSE2
 70
     0
  9
$DIMTAD
 70
     0
  9
$DIMZIN
 70
     0
  9
$DIMBLK
  1

  9
$LUNITS
 70
     2
  9
$LUPREC
 70
     4
  9
$AXISMODE
 70
     0
  9
$AXISUNIT
 10
0.0
 20
0.0
  9
$SKETCHINC
 40
0.1
  9
$FILLETRAD
 40
0.0
  9
$AUNITS
 70
     0
  9
$AUPREC
 70
     0
  9
$MENU
  1
ACAD
  9
$ELEVATION
 40
0.0
  9
$THICKNESS
 40
0.0
  9
$VIEWDIR
 10
0.0
 20
0.0
 30
1.0
  9
$LIMCHECK
 70
     0
  9
$BLIPMODE
 70
     1
  9
$CHAMFERA
 40
0.0
  9
$CHAMFERB
 40
0.0
  9
$FASTZOOM
 70
     1
  9
$SKPOLY
 70
     0
  9
$TDCREATE
 40
0.000000
  9
$TDUPDATE
 40
0.000000
  9
$TDINDWG
 40
0.0
  9
$TDUSRTIMER
 40
0.0
  9
$USRTIMER
 70
     1
  9
$ANGBASE
 50
0.0
  9
$ANGDIR
 70
     0
  9
$PDMODE
 70
     0
  9
$PDSIZE
 40
0.0
  9
$PLINEWID
 40
0.0
  9
$COORDS
 70
     0
  9
$USERI1
 70
     0
  9
$USERI2
 70
     0
  9
$USERI3
 70
     0
  9
$USERI4
 70
     0
  9
$USERI5
 70
     0
  9
$USERR1
 40
0.0
  9
$USERR2
 40
0.0
  9
$USERR3
 40
0.0
  9
$USERR4
 40
0.0
  9
$USERR5
 40
0.0
  0
ENDSEC
  0
SECTION
  2
TABLES
  0
TABLE
  2
LTYPE
 70
     9
  0
LTYPE
  2
CONTINUOUS
 70
    64
  3
Solid line
 72
    65
 73
     0
 40
0.0
  0
LTYPE
  2
DASHED
 70
    64
  3
__ __ __ __ __ __ __ __ __ __ __ __ __ __ __
 72
    65
 73
     2
 40
0.75
 49
0.5
 49
-0.25
  0
LTYPE
  2
HIDDEN
 70
    64
  3
_ _ _ _ _ _ _ _ _ _ _ _ _ _ _ _ _ _ _ _ _ _ _
 72
    65
 73
     2
 40
0.375
 49
0.25
 49
-0.125
  0
LTYPE
  2
DOT
 70
    64
  3
...............................................
 72
    65
 73
     2
 40
0.25
 49
0.0
 49
-0.25
  0
LTYPE
  2
DASHDOT
 70
    64
  3
__ . __ . __ . __ . __ . __ . __ . __ . __ . __
 72
    65
 73
     4
 40
1.0
 49
0.5
 49
-0.25
 49
0.0
 49
-0.25
  0
LTYPE
  2
DIVIDE
 70
    64
  3
__ . . __ . . __ . . __ . . __ . . __ . . __
 72
    65
 73
     6
 40
1.25
 49
0.5
 49
-0.25
 49
0.0
 49
-0.25
 49
0.0
 49
-0.25
  0
LTYPE
  2
CENTER
 70
    64
  3
____ _ ____ _ ____ _ ____ _ ____ _ ____ _ ____ 
 72
    65
 73
     4
 40
2.0
 49
1.25
 49
-0.25
 49
0.25
 49
-0.25
  0
LTYPE
  2
PHANTOM
 70
    64
  3
______  __  __  ______  __  __  ______  __  __ 
 72
    65
 73
     6
 40
2.5
 49
1.25
 49
-0.25
 49
0.25
 49
-0.25
 49
0.25
 49
-0.25
  0
LTYPE
  2
BORDER
 70
    64
  3
__ __ . __ __ . __ __ . __ __ . __ __ . __ __ .
 72
    65
 73
     6
 40
1.75
 49
0.5
 49
-0.25
 49
0.5
 49
-0.25
 49
0.0
 49
-0.25
  0
ENDTAB
  0
TABLE
  2
LAYER
 70
    16
  0
LAYER
  2
CSLAYER1
 70
    64
 62
     7
  6
CONTINUOUS
  0
LAYER
  2
CSLAYER2
 70
    64
 62
     7
  6
CONTINUOUS
  0
LAYER
  2
CSLAYER3
 70
    64
 62
     7
  6
CONTINUOUS
  0
LAYER
  2
CSLAYER4
 70
    64
 62
     7
  6
CONTINUOUS
  0
LAYER
  2
CSLAYER5
 70
    64
 62
     7
  6
CONTINUOUS
  0
LAYER
  2
CSLAYER6
 70
    64
 62
     7
  6
CONTINUOUS
  0
LAYER
  2
CSLAYER7
 70
    64
 62
     7
  6
CONTINUOUS
  0
LAYER
  2
CSLAYER8
 70
    64
 62
     7
  6
CONTINUOUS
  0
LAYER
  2
CSLAYER9
 70
    64
 62
     7
  6
CONTINUOUS
  0
LAYER
  2
CSLAYER10
 70
    64
 62
     7
  6
CONTINUOUS
  0
LAYER
  2
CSLAYER11
 70
    64
 62
     7
  6
CONTINUOUS
  0
LAYER
  2
CSLAYER12
 70
    64
 62
     7
  6
CONTINUOUS
  0
LAYER
  2
CSLAYER13
 70
    64
 62
     7
  6
CONTINUOUS
  0
LAYER
  2
CSLAYER14
 70
    64
 62
     7
  6
CONTINUOUS
  0
LAYER
  2
CSLAYER15
 70
    64
 62
     7
  6
CONTINUOUS
  0
LAYER
  2
CSLAYER16
 70
    64
 62
     7
  6
CONTINUOUS
  0
ENDTAB
  0
TABLE
  2
STYLE
 70
     1
  0
STYLE
  2
SX_FONT
 70
     0
 40
1.0
 41
1.0
 50
0.0
 71
     0
 42
1.0
  3
monotxt
  4
bigfont
  0
ENDTAB
  0
TABLE
  2
VIEW
 70
     0
  0
ENDTAB
  0
ENDSEC
  0
SECTION
  2
BLOCKS
  0
BLOCK
  8
CSLAYER1
  2
*D0000
 70
    65
 10
0.0
 20
0.0
 30
0.0
  0
LINE
  8
CSLAYER1
  6
CONTINUOUS
 62
     7
 10
93.648438
 20
168.953125
 11
93.648438
 21
173.980483
  0
LINE
  8
CSLAYER1
  6
CONTINUOUS
 62
     7
 10
108.648438
 20
168.953125
 11
108.648438
 21
173.980483
  0
LINE
  8
CSLAYER1
  6
CONTINUOUS
 62
     7
 10
93.648438
 20
172.980483
 11
108.648438
 21
172.980483
  0
LINE
  8
CSLAYER1
  6
CONTINUOUS
 62
     7
 10
93.648438
 20
172.980483
 11
97.512141
 21
174.015759
  0
LINE
  8
CSLAYER1
  6
CONTINUOUS
 62
     7
 10
93.648438
 20
172.980483
 11
97.512141
 21
171.945207
  0
LINE
  8
CSLAYER1
  6
CONTINUOUS
 62
     7
 10
108.648438
 20
172.980483
 11
104.784734
 21
174.015759
  0
LINE
  8
CSLAYER1
  6
CONTINUOUS
 62
     7
 10
108.648438
 20
172.980483
 11
104.784734
 21
171.945207
  0
TEXT
  8
CSLAYER1
 62
     7
 10
98.148438
 20
173.980484
 40
4.000000
 41
0.900000
  1
15
 50
0.000000
 51
0.000000
  7
SX_FONT
 72
     5
 11
104.148438
 21
173.980484
  0
ENDBLK
  8
0
  0
BLOCK
  8
CSLAYER1
  2
*D0001
 70
    65
 10
0.0
 20
0.0
 30
0.0
  0
LINE
  8
CSLAYER1
  6
CONTINUOUS
 62
     7
 10
114.648438
 20
152.953125
 11
119.834053
 21
152.953125
  0
LINE
  8
CSLAYER1
  6
CONTINUOUS
 62
     7
 10
114.648438
 20
162.953125
 11
119.834053
 21
162.953125
  0
LINE
  8
CSLAYER1
  6
CONTINUOUS
 62
     7
 10
118.834053
 20
152.953125
 11
118.834053
 21
162.953125
  0
LINE
  8
CSLAYER1
  6
CONTINUOUS
 62
     7
 10
118.834053
 20
146.953125
 11
118.834053
 21
152.953125
  0
LINE
  8
CSLAYER1
  6
CONTINUOUS
 62
     7
 10
118.834053
 20
152.953125
 11
117.798777
 21
149.089422
  0
LINE
  8
CSLAYER1
  6
CONTINUOUS
 62
     7
 10
118.834053
 20
152.953125
 11
119.869329
 21
149.089422
  0
LINE
  8
CSLAYER1
  6
CONTINUOUS
 62
     7
 10
118.834053
 20
162.953125
 11
118.834053
 21
168.953125
  0
LINE
  8
CSLAYER1
  6
CONTINUOUS
 62
     7
 10
118.834053
 20
162.953125
 11
117.798777
 21
166.816828
  0
LINE
  8
CSLAYER1
  6
CONTINUOUS
 62
     7
 10
118.834053
 20
162.953125
 11
119.869329
 21
166.816828
  0
TEXT
  8
CSLAYER1
 62
     7
 10
123.834053
 20
154.953125
 40
4.000000
 41
0.900000
  1
10
 50
90.000000
 51
0.000000
  7
SX_FONT
 72
     5
 11
123.834053
 21
160.953125
  0
ENDBLK
  8
0
  0
ENDSEC
  0
SECTION
  2
ENTITIES
  0
LINE
  8
CSLAYER2
  6
CONTINUOUS
 62
     7
 10
93.648438
 20
152.953125
 11
108.648438
 21
152.953125
  0
ARC
  8
CSLAYER2
  6
CONTINUOUS
 62
     7
 10
105.648438
 20
160.953125
 40
2.000000
 50
0.000000
 51
180.000000
  0
ARC
  8
CSLAYER2
  6
CONTINUOUS
 62
     7
 10
100.148438
 20
160.722821
 40
2.500000
 50
252.542397
 51
360.000000
  0
ARC
  8
CSLAYER2
  6
CONTINUOUS
 62
     7
 10
98.648438
 20
155.953125
 40
2.500000
 50
72.542397
 51
180.000000
  0
LINE
  8
CSLAYER2
  6
CONTINUOUS
 62
     7
 10
93.648438
 20
155.953125
 11
93.648438
 21
152.953125
  0
LINE
  8
CSLAYER2
  6
CONTINUOUS
 62
     7
 10
93.648438
 20
155.953125
 11
96.148438
 21
155.953125
  0
LINE
  8
CSLAYER2
  6
CONTINUOUS
 62
     7
 10
102.648438
 20
160.953125
 11
103.648438
 21
160.953125
  0
LINE
  8
CSLAYER2
  6
CONTINUOUS
 62
     7
 10
102.648438
 20
160.722821
 11
102.648438
 21
160.953125
  0
LINE
  8
CSLAYER2
  6
CONTINUOUS
 62
     7
 10
108.648438
 20
152.953125
 11
108.648438
 21
160.953125
  0
LINE
  8
CSLAYER2
  6
CONTINUOUS
 62
     7
 10
107.648438
 20
160.953125
 11
108.648438
 21
160.953125
  0
TEXT
  8
CSLAYER1
 62
     7
 10
93.704048
 20
92.480835
 40
10.000000
 41
0.630000
  1
FM-2167
 50
0.000000
 51
0.000000
  7
SX_FONT
 72
     5
 11
135.704048
 21
92.480835
  0
DIMENSION
  8
CSLAYER1
 62
     7
  2
*D0000
 10
108.648438
 20
172.980483
 11
101.148438
 21
173.980484
 13
93.648438
 23
167.953125
 14
108.648438
 24
167.953125
 70
1
  0
DIMENSION
  8
CSLAYER1
 62
     7
  2
*D0001
 10
118.834053
 20
162.953125
 11
119.834053
 21
157.953125
 13
113.648438
 23
152.953125
 14
113.648438
 24
162.953125
 50
90.000000
 70
1
  0
TEXT
  8
CSLAYER1
 62
     7
 10
150.079132
 20
92.373505
 40
10.000000
 41
0.642857
  1
15x10
 50
0.000000
 51
0.000000
  7
SX_FONT
 72
     5
 11
180.079132
 21
92.373505
  0
TEXT
  8
CSLAYER1
 62
     7
 10
94.502739
 20
80.770332
 40
5.000000
 41
0.612766
  1
カタログ Vol. 1  P64
 50
0.000000
 51
0.000000
  7
SX_FONT
 72
     5
 11
142.502739
 21
80.770332
  0
TEXT
  8
CSLAYER1
 62
     7
 10
94.337630
 20
70.784606
 40
4.960742
 41
0.729057
  1
ホ%%dケットカタロク゛ Vol. 1 P37
 50
0.000000
 51
0.000000
  7
SX_FONT
 72
     5
 11
169.081987
 21
70.784606
  0
ENDSEC
  0
EOF
