  0
SECTION
  2
HEADER
  9
$ACADVER
  1
AC1006
  9
$INSBASE
 10
34.953328
 20
104.413167
 30
0.0
  9
$EXTMIN
 10
34.953328
 20
104.413167
  9
$EXTMAX
 10
244.953328
 20
401.413167
  9
$LIMMIN
 10
34.953328
 20
104.413167
  9
$LIMMAX
 10
244.953328
 20
401.413167
  9
$VIEWCTR
 10
139.953328
 20
252.913167
  9
$VIEWSIZE
 40
297.000000
  9
$SNAPMODE
 70
     0
  9
$SNAPUNIT
 10
1.0
 20
1.0
  9
$SNAPBASE
 10
0.0
 20
0.0
  9
$SNAPANG
 50
0.0
  9
$SNAPSTYLE
 70
     0
  9
$SNAPISOPAIR
 70
     0
  9
$GRIDMODE
 70
     0
  9
$GRIDUNIT
 10
0.0
 20
0.0
  9
$ORTHOMODE
 70
     0
  9
$REGENMODE
 70
     1
  9
$FILLMODE
 70
     1
  9
$QTEXTMODE
 70
     0
  9
$DRAGMODE
 70
     2
  9
$LTSCALE
 40
15.000000
  9
$OSMODE
 70
     0
  9
$ATTMODE
 70
     1
  9
$TEXTSIZE
 40
0.2
  9
$TRACEWID
 40
0.05
  9
$TEXTSTYLE
  7
STANDARD
  9
$CLAYER
  8
CSLAYER3
  9
$CELTYPE
  6
BYLAYER
  9
$CECOLOR
 62
   256
  9
$DIMSCALE
 40
1.0
  9
$DIMASZ
 40
0.18
  9
$DIMEXO
 40
0.0625
  9
$DIMDLI
 40
0.38
  9
$DIMRND
 40
0.0
  9
$DIMDLE
 40
0.0
  9
$DIMEXE
 40
0.18
  9
$DIMTP
 40
0.0
  9
$DIMTM
 40
0.0
  9
$DIMTXT
 40
0.18
  9
$DIMCEN
 40
0.09
  9
$DIMTSZ
 40
0.0
  9
$DIMTOL
 70
     0
  9
$DIMLIM
 70
     0
  9
$DIMTIH
 70
     1
  9
$DIMTOH
 70
     1
  9
$DIMSE1
 70
     0
  9
$DIMSE2
 70
     0
  9
$DIMTAD
 70
     0
  9
$DIMZIN
 70
     0
  9
$DIMBLK
  1

  9
$LUNITS
 70
     2
  9
$LUPREC
 70
     4
  9
$AXISMODE
 70
     0
  9
$AXISUNIT
 10
0.0
 20
0.0
  9
$SKETCHINC
 40
0.1
  9
$FILLETRAD
 40
0.0
  9
$AUNITS
 70
     0
  9
$AUPREC
 70
     0
  9
$MENU
  1
ACAD
  9
$ELEVATION
 40
0.0
  9
$THICKNESS
 40
0.0
  9
$VIEWDIR
 10
0.0
 20
0.0
 30
1.0
  9
$LIMCHECK
 70
     0
  9
$BLIPMODE
 70
     1
  9
$CHAMFERA
 40
0.0
  9
$CHAMFERB
 40
0.0
  9
$FASTZOOM
 70
     1
  9
$SKPOLY
 70
     0
  9
$TDCREATE
 40
0.000000
  9
$TDUPDATE
 40
0.000000
  9
$TDINDWG
 40
0.0
  9
$TDUSRTIMER
 40
0.0
  9
$USRTIMER
 70
     1
  9
$ANGBASE
 50
0.0
  9
$ANGDIR
 70
     0
  9
$PDMODE
 70
     0
  9
$PDSIZE
 40
0.0
  9
$PLINEWID
 40
0.0
  9
$COORDS
 70
     0
  9
$USERI1
 70
     0
  9
$USERI2
 70
     0
  9
$USERI3
 70
     0
  9
$USERI4
 70
     0
  9
$USERI5
 70
     0
  9
$USERR1
 40
0.0
  9
$USERR2
 40
0.0
  9
$USERR3
 40
0.0
  9
$USERR4
 40
0.0
  9
$USERR5
 40
0.0
  0
ENDSEC
  0
SECTION
  2
TABLES
  0
TABLE
  2
LTYPE
 70
     9
  0
LTYPE
  2
CONTINUOUS
 70
    64
  3
Solid line
 72
    65
 73
     0
 40
0.0
  0
LTYPE
  2
DASHED
 70
    64
  3
__ __ __ __ __ __ __ __ __ __ __ __ __ __ __
 72
    65
 73
     2
 40
0.75
 49
0.5
 49
-0.25
  0
LTYPE
  2
HIDDEN
 70
    64
  3
_ _ _ _ _ _ _ _ _ _ _ _ _ _ _ _ _ _ _ _ _ _ _
 72
    65
 73
     2
 40
0.375
 49
0.25
 49
-0.125
  0
LTYPE
  2
DOT
 70
    64
  3
...............................................
 72
    65
 73
     2
 40
0.25
 49
0.0
 49
-0.25
  0
LTYPE
  2
DASHDOT
 70
    64
  3
__ . __ . __ . __ . __ . __ . __ . __ . __ . __
 72
    65
 73
     4
 40
1.0
 49
0.5
 49
-0.25
 49
0.0
 49
-0.25
  0
LTYPE
  2
DIVIDE
 70
    64
  3
__ . . __ . . __ . . __ . . __ . . __ . . __
 72
    65
 73
     6
 40
1.25
 49
0.5
 49
-0.25
 49
0.0
 49
-0.25
 49
0.0
 49
-0.25
  0
LTYPE
  2
CENTER
 70
    64
  3
____ _ ____ _ ____ _ ____ _ ____ _ ____ _ ____ 
 72
    65
 73
     4
 40
2.0
 49
1.25
 49
-0.25
 49
0.25
 49
-0.25
  0
LTYPE
  2
PHANTOM
 70
    64
  3
______  __  __  ______  __  __  ______  __  __ 
 72
    65
 73
     6
 40
2.5
 49
1.25
 49
-0.25
 49
0.25
 49
-0.25
 49
0.25
 49
-0.25
  0
LTYPE
  2
BORDER
 70
    64
  3
__ __ . __ __ . __ __ . __ __ . __ __ . __ __ .
 72
    65
 73
     6
 40
1.75
 49
0.5
 49
-0.25
 49
0.5
 49
-0.25
 49
0.0
 49
-0.25
  0
ENDTAB
  0
TABLE
  2
LAYER
 70
    16
  0
LAYER
  2
CSLAYER1
 70
    64
 62
     7
  6
CONTINUOUS
  0
LAYER
  2
CSLAYER2
 70
    64
 62
     7
  6
CONTINUOUS
  0
LAYER
  2
CSLAYER3
 70
    64
 62
     7
  6
CONTINUOUS
  0
LAYER
  2
CSLAYER4
 70
    64
 62
     7
  6
CONTINUOUS
  0
LAYER
  2
CSLAYER5
 70
    64
 62
     7
  6
CONTINUOUS
  0
LAYER
  2
CSLAYER6
 70
    64
 62
     7
  6
CONTINUOUS
  0
LAYER
  2
CSLAYER7
 70
    64
 62
     7
  6
CONTINUOUS
  0
LAYER
  2
CSLAYER8
 70
    64
 62
     7
  6
CONTINUOUS
  0
LAYER
  2
CSLAYER9
 70
    64
 62
     7
  6
CONTINUOUS
  0
LAYER
  2
CSLAYER10
 70
    64
 62
     7
  6
CONTINUOUS
  0
LAYER
  2
CSLAYER11
 70
    64
 62
     7
  6
CONTINUOUS
  0
LAYER
  2
CSLAYER12
 70
    64
 62
     7
  6
CONTINUOUS
  0
LAYER
  2
CSLAYER13
 70
    64
 62
     7
  6
CONTINUOUS
  0
LAYER
  2
CSLAYER14
 70
    64
 62
     7
  6
CONTINUOUS
  0
LAYER
  2
CSLAYER15
 70
    64
 62
     7
  6
CONTINUOUS
  0
LAYER
  2
CSLAYER16
 70
    64
 62
     7
  6
CONTINUOUS
  0
ENDTAB
  0
TABLE
  2
STYLE
 70
     1
  0
STYLE
  2
SX_FONT
 70
     0
 40
1.0
 41
1.0
 50
0.0
 71
     0
 42
1.0
  3
monotxt
  4
bigfont
  0
ENDTAB
  0
TABLE
  2
VIEW
 70
     0
  0
ENDTAB
  0
ENDSEC
  0
SECTION
  2
BLOCKS
  0
BLOCK
  8
CSLAYER1
  2
*D0000
 70
    65
 10
0.0
 20
0.0
 30
0.0
  0
LINE
  8
CSLAYER1
  6
CONTINUOUS
 62
     7
 10
162.414062
 20
103.578754
 11
168.187307
 21
103.578754
  0
LINE
  8
CSLAYER1
  6
CONTINUOUS
 62
     7
 10
162.414062
 20
193.578754
 11
168.187307
 21
193.578754
  0
LINE
  8
CSLAYER1
  6
CONTINUOUS
 62
     7
 10
167.187307
 20
103.578754
 11
167.187307
 21
193.578754
  0
LINE
  8
CSLAYER1
  6
CONTINUOUS
 62
     7
 10
167.187307
 20
103.578754
 11
166.152031
 21
107.442457
  0
LINE
  8
CSLAYER1
  6
CONTINUOUS
 62
     7
 10
167.187307
 20
103.578754
 11
168.222583
 21
107.442457
  0
LINE
  8
CSLAYER1
  6
CONTINUOUS
 62
     7
 10
167.187307
 20
193.578754
 11
166.152031
 21
189.715051
  0
LINE
  8
CSLAYER1
  6
CONTINUOUS
 62
     7
 10
167.187307
 20
193.578754
 11
168.222583
 21
189.715051
  0
TEXT
  8
CSLAYER1
 62
     7
 10
172.519119
 20
144.995483
 40
4.000000
 41
0.900000
  1
90
 50
90.000000
 51
0.000000
  7
SX_FONT
 72
     5
 11
172.519119
 21
150.995483
  0
ENDBLK
  8
0
  0
BLOCK
  8
CSLAYER1
  2
*D0001
 70
    65
 10
0.0
 20
0.0
 30
0.0
  0
LINE
  8
CSLAYER1
  6
CONTINUOUS
 62
     7
 10
36.414062
 20
199.578754
 11
36.414062
 21
204.720215
  0
LINE
  8
CSLAYER1
  6
CONTINUOUS
 62
     7
 10
156.414062
 20
199.578754
 11
156.414062
 21
204.720215
  0
LINE
  8
CSLAYER1
  6
CONTINUOUS
 62
     7
 10
36.414062
 20
203.720215
 11
156.414062
 21
203.720215
  0
LINE
  8
CSLAYER1
  6
CONTINUOUS
 62
     7
 10
36.414062
 20
203.720215
 11
40.277766
 21
204.755491
  0
LINE
  8
CSLAYER1
  6
CONTINUOUS
 62
     7
 10
36.414062
 20
203.720215
 11
40.277766
 21
202.684939
  0
LINE
  8
CSLAYER1
  6
CONTINUOUS
 62
     7
 10
156.414062
 20
203.720215
 11
152.550359
 21
204.755491
  0
LINE
  8
CSLAYER1
  6
CONTINUOUS
 62
     7
 10
156.414062
 20
203.720215
 11
152.550359
 21
202.684939
  0
TEXT
  8
CSLAYER1
 62
     7
 10
91.914063
 20
204.720215
 40
4.000000
 41
0.843750
  1
120
 50
0.000000
 51
0.000000
  7
SX_FONT
 72
     5
 11
100.914063
 21
204.720215
  0
ENDBLK
  8
0
  0
ENDSEC
  0
SECTION
  2
ENTITIES
  0
LINE
  8
CSLAYER2
  6
CONTINUOUS
 62
     7
 10
156.414062
 20
103.578754
 11
156.414062
 21
193.578754
  0
LINE
  8
CSLAYER2
  6
CONTINUOUS
 62
     7
 10
118.831534
 20
167.949912
 11
91.483009
 21
159.966853
  0
ARC
  8
CSLAYER4
  6
CONTINUOUS
 62
     7
 10
114.433605
 20
189.505844
 40
22.000000
 50
281.531455
 51
357.584814
  0
LINE
  8
CSLAYER2
  6
CONTINUOUS
 62
     7
 10
156.414062
 20
193.578754
 11
141.414062
 21
193.578754
  0
LINE
  8
CSLAYER2
  6
CONTINUOUS
 62
     7
 10
141.414062
 20
188.578754
 11
136.414062
 21
188.578754
  0
LINE
  8
CSLAYER2
  6
CONTINUOUS
 62
     7
 10
141.414062
 20
188.578754
 11
141.414062
 21
193.578754
  0
ARC
  8
CSLAYER4
  6
CONTINUOUS
 62
     7
 10
43.414063
 20
137.578754
 40
17.000000
 50
270.000000
 51
360.000000
  0
ARC
  8
CSLAYER2
  6
CONTINUOUS
 62
     7
 10
95.865521
 20
144.578754
 40
16.000000
 50
105.896889
 51
180.000000
  0
LINE
  8
CSLAYER2
  6
CONTINUOUS
 62
     7
 10
67.414063
 20
144.578754
 11
79.865521
 21
144.578754
  0
LINE
  8
CSLAYER2
  6
CONTINUOUS
 62
     7
 10
67.414063
 20
137.578754
 11
67.414063
 21
144.578754
  0
LINE
  8
CSLAYER2
  6
CONTINUOUS
 62
     7
 10
60.414063
 20
137.578754
 11
67.414063
 21
137.578754
  0
LINE
  8
CSLAYER2
  6
CONTINUOUS
 62
     7
 10
36.414062
 20
103.578754
 11
156.414062
 21
103.578754
  0
LINE
  8
CSLAYER2
  6
CONTINUOUS
 62
     7
 10
36.414062
 20
113.578754
 11
36.414062
 21
103.578754
  0
LINE
  8
CSLAYER2
  6
CONTINUOUS
 62
     7
 10
43.414063
 20
120.578754
 11
43.414063
 21
113.578754
  0
LINE
  8
CSLAYER4
  6
CONTINUOUS
 62
     7
 10
36.414062
 20
113.578754
 11
43.414063
 21
113.578754
  0
TEXT
  8
CSLAYER1
 62
     7
 10
37.473469
 20
57.861305
 40
10.000000
 41
0.630000
  1
FM-2166
 50
0.000000
 51
0.000000
  7
SX_FONT
 72
     5
 11
79.473469
 21
57.861305
  0
DIMENSION
  8
CSLAYER1
 62
     7
  2
*D0000
 10
167.187307
 20
193.578754
 11
172.519119
 21
147.995483
 13
161.414062
 23
103.578754
 14
161.414062
 24
193.578754
 50
90.000000
 70
1
  0
TEXT
  8
CSLAYER1
 62
     7
 10
91.747871
 20
57.387291
 40
10.000000
 41
0.635294
  1
120x90
 50
0.000000
 51
0.000000
  7
SX_FONT
 72
     5
 11
127.747871
 21
57.387291
  0
TEXT
  8
CSLAYER1
 62
     7
 10
38.755287
 20
45.400509
 40
5.000000
 41
0.612766
  1
カタログ Vol. 1  P64
 50
0.000000
 51
0.000000
  7
SX_FONT
 72
     5
 11
86.755287
 21
45.400509
  0
DIMENSION
  8
CSLAYER1
 62
     7
  2
*D0001
 10
156.414062
 20
203.720215
 11
96.414063
 21
204.720215
 13
36.414062
 23
198.578754
 14
156.414062
 24
198.578754
 70
1
  0
TEXT
  8
CSLAYER1
 62
     7
 10
38.778029
 20
35.201331
 40
4.960742
 41
0.729057
  1
ホ%%dケットカタロク゛ Vol. 1 P37
 50
0.000000
 51
0.000000
  7
SX_FONT
 72
     5
 11
113.522386
 21
35.201331
  0
ENDSEC
  0
EOF
