  0
SECTION
  2
HEADER
  9
$ACADVER
  1
AC1006
  9
$INSBASE
 10
53.012736
 20
194.661865
 30
0.0
  9
$EXTMIN
 10
53.012736
 20
194.661865
  9
$EXTMAX
 10
263.012736
 20
491.661865
  9
$LIMMIN
 10
53.012736
 20
194.661865
  9
$LIMMAX
 10
263.012736
 20
491.661865
  9
$VIEWCTR
 10
158.012736
 20
343.161865
  9
$VIEWSIZE
 40
297.000000
  9
$SNAPMODE
 70
     0
  9
$SNAPUNIT
 10
1.0
 20
1.0
  9
$SNAPBASE
 10
0.0
 20
0.0
  9
$SNAPANG
 50
0.0
  9
$SNAPSTYLE
 70
     0
  9
$SNAPISOPAIR
 70
     0
  9
$GRIDMODE
 70
     0
  9
$GRIDUNIT
 10
0.0
 20
0.0
  9
$ORTHOMODE
 70
     0
  9
$REGENMODE
 70
     1
  9
$FILLMODE
 70
     1
  9
$QTEXTMODE
 70
     0
  9
$DRAGMODE
 70
     2
  9
$LTSCALE
 40
15.000000
  9
$OSMODE
 70
     0
  9
$ATTMODE
 70
     1
  9
$TEXTSIZE
 40
0.2
  9
$TRACEWID
 40
0.05
  9
$TEXTSTYLE
  7
STANDARD
  9
$CLAYER
  8
CSLAYER3
  9
$CELTYPE
  6
BYLAYER
  9
$CECOLOR
 62
   256
  9
$DIMSCALE
 40
1.0
  9
$DIMASZ
 40
0.18
  9
$DIMEXO
 40
0.0625
  9
$DIMDLI
 40
0.38
  9
$DIMRND
 40
0.0
  9
$DIMDLE
 40
0.0
  9
$DIMEXE
 40
0.18
  9
$DIMTP
 40
0.0
  9
$DIMTM
 40
0.0
  9
$DIMTXT
 40
0.18
  9
$DIMCEN
 40
0.09
  9
$DIMTSZ
 40
0.0
  9
$DIMTOL
 70
     0
  9
$DIMLIM
 70
     0
  9
$DIMTIH
 70
     1
  9
$DIMTOH
 70
     1
  9
$DIMSE1
 70
     0
  9
$DIMSE2
 70
     0
  9
$DIMTAD
 70
     0
  9
$DIMZIN
 70
     0
  9
$DIMBLK
  1

  9
$LUNITS
 70
     2
  9
$LUPREC
 70
     4
  9
$AXISMODE
 70
     0
  9
$AXISUNIT
 10
0.0
 20
0.0
  9
$SKETCHINC
 40
0.1
  9
$FILLETRAD
 40
0.0
  9
$AUNITS
 70
     0
  9
$AUPREC
 70
     0
  9
$MENU
  1
ACAD
  9
$ELEVATION
 40
0.0
  9
$THICKNESS
 40
0.0
  9
$VIEWDIR
 10
0.0
 20
0.0
 30
1.0
  9
$LIMCHECK
 70
     0
  9
$BLIPMODE
 70
     1
  9
$CHAMFERA
 40
0.0
  9
$CHAMFERB
 40
0.0
  9
$FASTZOOM
 70
     1
  9
$SKPOLY
 70
     0
  9
$TDCREATE
 40
0.000000
  9
$TDUPDATE
 40
0.000000
  9
$TDINDWG
 40
0.0
  9
$TDUSRTIMER
 40
0.0
  9
$USRTIMER
 70
     1
  9
$ANGBASE
 50
0.0
  9
$ANGDIR
 70
     0
  9
$PDMODE
 70
     0
  9
$PDSIZE
 40
0.0
  9
$PLINEWID
 40
0.0
  9
$COORDS
 70
     0
  9
$USERI1
 70
     0
  9
$USERI2
 70
     0
  9
$USERI3
 70
     0
  9
$USERI4
 70
     0
  9
$USERI5
 70
     0
  9
$USERR1
 40
0.0
  9
$USERR2
 40
0.0
  9
$USERR3
 40
0.0
  9
$USERR4
 40
0.0
  9
$USERR5
 40
0.0
  0
ENDSEC
  0
SECTION
  2
TABLES
  0
TABLE
  2
LTYPE
 70
     9
  0
LTYPE
  2
CONTINUOUS
 70
    64
  3
Solid line
 72
    65
 73
     0
 40
0.0
  0
LTYPE
  2
DASHED
 70
    64
  3
__ __ __ __ __ __ __ __ __ __ __ __ __ __ __
 72
    65
 73
     2
 40
0.75
 49
0.5
 49
-0.25
  0
LTYPE
  2
HIDDEN
 70
    64
  3
_ _ _ _ _ _ _ _ _ _ _ _ _ _ _ _ _ _ _ _ _ _ _
 72
    65
 73
     2
 40
0.375
 49
0.25
 49
-0.125
  0
LTYPE
  2
DOT
 70
    64
  3
...............................................
 72
    65
 73
     2
 40
0.25
 49
0.0
 49
-0.25
  0
LTYPE
  2
DASHDOT
 70
    64
  3
__ . __ . __ . __ . __ . __ . __ . __ . __ . __
 72
    65
 73
     4
 40
1.0
 49
0.5
 49
-0.25
 49
0.0
 49
-0.25
  0
LTYPE
  2
DIVIDE
 70
    64
  3
__ . . __ . . __ . . __ . . __ . . __ . . __
 72
    65
 73
     6
 40
1.25
 49
0.5
 49
-0.25
 49
0.0
 49
-0.25
 49
0.0
 49
-0.25
  0
LTYPE
  2
CENTER
 70
    64
  3
____ _ ____ _ ____ _ ____ _ ____ _ ____ _ ____ 
 72
    65
 73
     4
 40
2.0
 49
1.25
 49
-0.25
 49
0.25
 49
-0.25
  0
LTYPE
  2
PHANTOM
 70
    64
  3
______  __  __  ______  __  __  ______  __  __ 
 72
    65
 73
     6
 40
2.5
 49
1.25
 49
-0.25
 49
0.25
 49
-0.25
 49
0.25
 49
-0.25
  0
LTYPE
  2
BORDER
 70
    64
  3
__ __ . __ __ . __ __ . __ __ . __ __ . __ __ .
 72
    65
 73
     6
 40
1.75
 49
0.5
 49
-0.25
 49
0.5
 49
-0.25
 49
0.0
 49
-0.25
  0
ENDTAB
  0
TABLE
  2
LAYER
 70
    16
  0
LAYER
  2
CSLAYER1
 70
    64
 62
     7
  6
CONTINUOUS
  0
LAYER
  2
CSLAYER2
 70
    64
 62
     7
  6
CONTINUOUS
  0
LAYER
  2
CSLAYER3
 70
    64
 62
     7
  6
CONTINUOUS
  0
LAYER
  2
CSLAYER4
 70
    64
 62
     7
  6
CONTINUOUS
  0
LAYER
  2
CSLAYER5
 70
    64
 62
     7
  6
CONTINUOUS
  0
LAYER
  2
CSLAYER6
 70
    64
 62
     7
  6
CONTINUOUS
  0
LAYER
  2
CSLAYER7
 70
    64
 62
     7
  6
CONTINUOUS
  0
LAYER
  2
CSLAYER8
 70
    64
 62
     7
  6
CONTINUOUS
  0
LAYER
  2
CSLAYER9
 70
    64
 62
     7
  6
CONTINUOUS
  0
LAYER
  2
CSLAYER10
 70
    64
 62
     7
  6
CONTINUOUS
  0
LAYER
  2
CSLAYER11
 70
    64
 62
     7
  6
CONTINUOUS
  0
LAYER
  2
CSLAYER12
 70
    64
 62
     7
  6
CONTINUOUS
  0
LAYER
  2
CSLAYER13
 70
    64
 62
     7
  6
CONTINUOUS
  0
LAYER
  2
CSLAYER14
 70
    64
 62
     7
  6
CONTINUOUS
  0
LAYER
  2
CSLAYER15
 70
    64
 62
     7
  6
CONTINUOUS
  0
LAYER
  2
CSLAYER16
 70
    64
 62
     7
  6
CONTINUOUS
  0
ENDTAB
  0
TABLE
  2
STYLE
 70
     1
  0
STYLE
  2
SX_FONT
 70
     0
 40
1.0
 41
1.0
 50
0.0
 71
     0
 42
1.0
  3
monotxt
  4
bigfont
  0
ENDTAB
  0
TABLE
  2
VIEW
 70
     0
  0
ENDTAB
  0
ENDSEC
  0
SECTION
  2
BLOCKS
  0
BLOCK
  8
CSLAYER1
  2
*D0000
 70
    65
 10
0.0
 20
0.0
 30
0.0
  0
LINE
  8
CSLAYER1
  6
CONTINUOUS
 62
     7
 10
52.945313
 20
191.031250
 11
52.945313
 21
196.288108
  0
LINE
  8
CSLAYER1
  6
CONTINUOUS
 62
     7
 10
142.945313
 20
191.031250
 11
142.945313
 21
196.288108
  0
LINE
  8
CSLAYER1
  6
CONTINUOUS
 62
     7
 10
52.945313
 20
195.288108
 11
142.945313
 21
195.288108
  0
LINE
  8
CSLAYER1
  6
CONTINUOUS
 62
     7
 10
52.945313
 20
195.288108
 11
56.809016
 21
196.323385
  0
LINE
  8
CSLAYER1
  6
CONTINUOUS
 62
     7
 10
52.945313
 20
195.288108
 11
56.809016
 21
194.252832
  0
LINE
  8
CSLAYER1
  6
CONTINUOUS
 62
     7
 10
142.945313
 20
195.288108
 11
139.081609
 21
196.323385
  0
LINE
  8
CSLAYER1
  6
CONTINUOUS
 62
     7
 10
142.945313
 20
195.288108
 11
139.081609
 21
194.252832
  0
TEXT
  8
CSLAYER1
 62
     7
 10
94.945313
 20
196.288101
 40
4.000000
 41
0.900000
  1
90
 50
0.000000
 51
0.000000
  7
SX_FONT
 72
     5
 11
100.945313
 21
196.288101
  0
ENDBLK
  8
0
  0
BLOCK
  8
CSLAYER1
  2
*D0001
 70
    65
 10
0.0
 20
0.0
 30
0.0
  0
LINE
  8
CSLAYER1
  6
CONTINUOUS
 62
     7
 10
148.945313
 20
125.031250
 11
154.180543
 21
125.031250
  0
LINE
  8
CSLAYER1
  6
CONTINUOUS
 62
     7
 10
148.945313
 20
185.031250
 11
154.180543
 21
185.031250
  0
LINE
  8
CSLAYER1
  6
CONTINUOUS
 62
     7
 10
153.180543
 20
125.031250
 11
153.180543
 21
185.031250
  0
LINE
  8
CSLAYER1
  6
CONTINUOUS
 62
     7
 10
153.180543
 20
125.031250
 11
152.145267
 21
128.894953
  0
LINE
  8
CSLAYER1
  6
CONTINUOUS
 62
     7
 10
153.180543
 20
125.031250
 11
154.215820
 21
128.894953
  0
LINE
  8
CSLAYER1
  6
CONTINUOUS
 62
     7
 10
153.180543
 20
185.031250
 11
152.145267
 21
181.167547
  0
LINE
  8
CSLAYER1
  6
CONTINUOUS
 62
     7
 10
153.180543
 20
185.031250
 11
154.215820
 21
181.167547
  0
TEXT
  8
CSLAYER1
 62
     7
 10
158.419189
 20
151.919678
 40
4.000000
 41
0.900000
  1
60
 50
90.000000
 51
0.000000
  7
SX_FONT
 72
     5
 11
158.419189
 21
157.919678
  0
ENDBLK
  8
0
  0
ENDSEC
  0
SECTION
  2
ENTITIES
  0
LINE
  8
CSLAYER2
  6
CONTINUOUS
 62
     7
 10
142.945313
 20
125.031250
 11
142.945313
 21
185.031250
  0
LINE
  8
CSLAYER2
  6
CONTINUOUS
 62
     7
 10
132.945312
 20
181.697917
 11
132.945312
 21
185.031250
  0
LINE
  8
CSLAYER2
  6
CONTINUOUS
 62
     7
 10
142.945313
 20
185.031250
 11
132.945312
 21
185.031250
  0
LINE
  8
CSLAYER2
  6
CONTINUOUS
 62
     7
 10
132.945312
 20
181.697917
 11
129.611979
 21
181.697917
  0
LINE
  8
CSLAYER2
  6
CONTINUOUS
 62
     7
 10
117.890294
 20
167.945355
 11
89.657944
 21
162.623316
  0
ARC
  8
CSLAYER4
  6
CONTINUOUS
 62
     7
 10
114.958341
 20
182.315977
 40
14.666667
 50
281.531455
 51
357.584814
  0
ARC
  8
CSLAYER4
  6
CONTINUOUS
 62
     7
 10
57.611979
 20
147.697917
 40
11.333333
 50
270.000000
 51
360.000000
  0
ARC
  8
CSLAYER2
  6
CONTINUOUS
 62
     7
 10
92.579618
 20
152.364583
 40
10.666667
 50
105.896889
 51
180.000000
  0
LINE
  8
CSLAYER2
  6
CONTINUOUS
 62
     7
 10
73.611979
 20
147.697917
 11
73.611979
 21
152.364583
  0
LINE
  8
CSLAYER2
  6
CONTINUOUS
 62
     7
 10
73.611979
 20
152.364583
 11
81.912952
 21
152.364583
  0
LINE
  8
CSLAYER2
  6
CONTINUOUS
 62
     7
 10
68.945313
 20
147.697917
 11
73.611979
 21
147.697917
  0
LINE
  8
CSLAYER2
  6
CONTINUOUS
 62
     7
 10
52.945313
 20
125.031250
 11
142.945313
 21
125.031250
  0
LINE
  8
CSLAYER2
  6
CONTINUOUS
 62
     7
 10
52.945313
 20
131.697917
 11
52.945313
 21
125.031250
  0
LINE
  8
CSLAYER4
  6
CONTINUOUS
 62
     7
 10
52.945313
 20
131.697917
 11
57.611979
 21
131.697917
  0
LINE
  8
CSLAYER2
  6
CONTINUOUS
 62
     7
 10
57.611979
 20
136.364583
 11
57.611979
 21
131.697917
  0
TEXT
  8
CSLAYER1
 62
     7
 10
52.433365
 20
64.451546
 40
10.000000
 41
0.630000
  1
FM-2165
 50
0.000000
 51
0.000000
  7
SX_FONT
 72
     5
 11
94.433365
 21
64.451546
  0
DIMENSION
  8
CSLAYER1
 62
     7
  2
*D0000
 10
142.945313
 20
195.288108
 11
97.945313
 21
196.288101
 13
52.945313
 23
190.031250
 14
142.945313
 24
190.031250
 70
1
  0
DIMENSION
  8
CSLAYER1
 62
     7
  2
*D0001
 10
153.180543
 20
185.031250
 11
158.419189
 21
154.919678
 13
147.945313
 23
125.031250
 14
147.945313
 24
185.031250
 50
90.000000
 70
1
  0
TEXT
  8
CSLAYER1
 62
     7
 10
109.104584
 20
64.917641
 40
10.000000
 41
0.642857
  1
90x60
 50
0.000000
 51
0.000000
  7
SX_FONT
 72
     5
 11
139.104584
 21
64.917641
  0
TEXT
  8
CSLAYER1
 62
     7
 10
53.458603
 20
53.289631
 40
5.000000
 41
0.612766
  1
カタログ Vol. 1  P63
 50
0.000000
 51
0.000000
  7
SX_FONT
 72
     5
 11
101.458603
 21
53.289631
  0
TEXT
  8
CSLAYER1
 62
     7
 10
53.390936
 20
43.823634
 40
4.960742
 41
0.729057
  1
ホ%%dケットカタロク゛ Vol. 1 P36
 50
0.000000
 51
0.000000
  7
SX_FONT
 72
     5
 11
128.135294
 21
43.823634
  0
ENDSEC
  0
EOF
