  0
SECTION
  2
HEADER
  9
$ACADVER
  1
AC1006
  9
$INSBASE
 10
43.554067
 20
200.078633
 30
0.0
  9
$EXTMIN
 10
43.554067
 20
200.078633
  9
$EXTMAX
 10
253.554067
 20
497.078633
  9
$LIMMIN
 10
43.554067
 20
200.078633
  9
$LIMMAX
 10
253.554067
 20
497.078633
  9
$VIEWCTR
 10
148.554067
 20
348.578633
  9
$VIEWSIZE
 40
297.000000
  9
$SNAPMODE
 70
     0
  9
$SNAPUNIT
 10
1.0
 20
1.0
  9
$SNAPBASE
 10
0.0
 20
0.0
  9
$SNAPANG
 50
0.0
  9
$SNAPSTYLE
 70
     0
  9
$SNAPISOPAIR
 70
     0
  9
$GRIDMODE
 70
     0
  9
$GRIDUNIT
 10
0.0
 20
0.0
  9
$ORTHOMODE
 70
     0
  9
$REGENMODE
 70
     1
  9
$FILLMODE
 70
     1
  9
$QTEXTMODE
 70
     0
  9
$DRAGMODE
 70
     2
  9
$LTSCALE
 40
15.000000
  9
$OSMODE
 70
     0
  9
$ATTMODE
 70
     1
  9
$TEXTSIZE
 40
0.2
  9
$TRACEWID
 40
0.05
  9
$TEXTSTYLE
  7
STANDARD
  9
$CLAYER
  8
CSLAYER3
  9
$CELTYPE
  6
BYLAYER
  9
$CECOLOR
 62
   256
  9
$DIMSCALE
 40
1.0
  9
$DIMASZ
 40
0.18
  9
$DIMEXO
 40
0.0625
  9
$DIMDLI
 40
0.38
  9
$DIMRND
 40
0.0
  9
$DIMDLE
 40
0.0
  9
$DIMEXE
 40
0.18
  9
$DIMTP
 40
0.0
  9
$DIMTM
 40
0.0
  9
$DIMTXT
 40
0.18
  9
$DIMCEN
 40
0.09
  9
$DIMTSZ
 40
0.0
  9
$DIMTOL
 70
     0
  9
$DIMLIM
 70
     0
  9
$DIMTIH
 70
     1
  9
$DIMTOH
 70
     1
  9
$DIMSE1
 70
     0
  9
$DIMSE2
 70
     0
  9
$DIMTAD
 70
     0
  9
$DIMZIN
 70
     0
  9
$DIMBLK
  1

  9
$LUNITS
 70
     2
  9
$LUPREC
 70
     4
  9
$AXISMODE
 70
     0
  9
$AXISUNIT
 10
0.0
 20
0.0
  9
$SKETCHINC
 40
0.1
  9
$FILLETRAD
 40
0.0
  9
$AUNITS
 70
     0
  9
$AUPREC
 70
     0
  9
$MENU
  1
ACAD
  9
$ELEVATION
 40
0.0
  9
$THICKNESS
 40
0.0
  9
$VIEWDIR
 10
0.0
 20
0.0
 30
1.0
  9
$LIMCHECK
 70
     0
  9
$BLIPMODE
 70
     1
  9
$CHAMFERA
 40
0.0
  9
$CHAMFERB
 40
0.0
  9
$FASTZOOM
 70
     1
  9
$SKPOLY
 70
     0
  9
$TDCREATE
 40
0.000000
  9
$TDUPDATE
 40
0.000000
  9
$TDINDWG
 40
0.0
  9
$TDUSRTIMER
 40
0.0
  9
$USRTIMER
 70
     1
  9
$ANGBASE
 50
0.0
  9
$ANGDIR
 70
     0
  9
$PDMODE
 70
     0
  9
$PDSIZE
 40
0.0
  9
$PLINEWID
 40
0.0
  9
$COORDS
 70
     0
  9
$USERI1
 70
     0
  9
$USERI2
 70
     0
  9
$USERI3
 70
     0
  9
$USERI4
 70
     0
  9
$USERI5
 70
     0
  9
$USERR1
 40
0.0
  9
$USERR2
 40
0.0
  9
$USERR3
 40
0.0
  9
$USERR4
 40
0.0
  9
$USERR5
 40
0.0
  0
ENDSEC
  0
SECTION
  2
TABLES
  0
TABLE
  2
LTYPE
 70
     9
  0
LTYPE
  2
CONTINUOUS
 70
    64
  3
Solid line
 72
    65
 73
     0
 40
0.0
  0
LTYPE
  2
DASHED
 70
    64
  3
__ __ __ __ __ __ __ __ __ __ __ __ __ __ __
 72
    65
 73
     2
 40
0.75
 49
0.5
 49
-0.25
  0
LTYPE
  2
HIDDEN
 70
    64
  3
_ _ _ _ _ _ _ _ _ _ _ _ _ _ _ _ _ _ _ _ _ _ _
 72
    65
 73
     2
 40
0.375
 49
0.25
 49
-0.125
  0
LTYPE
  2
DOT
 70
    64
  3
...............................................
 72
    65
 73
     2
 40
0.25
 49
0.0
 49
-0.25
  0
LTYPE
  2
DASHDOT
 70
    64
  3
__ . __ . __ . __ . __ . __ . __ . __ . __ . __
 72
    65
 73
     4
 40
1.0
 49
0.5
 49
-0.25
 49
0.0
 49
-0.25
  0
LTYPE
  2
DIVIDE
 70
    64
  3
__ . . __ . . __ . . __ . . __ . . __ . . __
 72
    65
 73
     6
 40
1.25
 49
0.5
 49
-0.25
 49
0.0
 49
-0.25
 49
0.0
 49
-0.25
  0
LTYPE
  2
CENTER
 70
    64
  3
____ _ ____ _ ____ _ ____ _ ____ _ ____ _ ____ 
 72
    65
 73
     4
 40
2.0
 49
1.25
 49
-0.25
 49
0.25
 49
-0.25
  0
LTYPE
  2
PHANTOM
 70
    64
  3
______  __  __  ______  __  __  ______  __  __ 
 72
    65
 73
     6
 40
2.5
 49
1.25
 49
-0.25
 49
0.25
 49
-0.25
 49
0.25
 49
-0.25
  0
LTYPE
  2
BORDER
 70
    64
  3
__ __ . __ __ . __ __ . __ __ . __ __ . __ __ .
 72
    65
 73
     6
 40
1.75
 49
0.5
 49
-0.25
 49
0.5
 49
-0.25
 49
0.0
 49
-0.25
  0
ENDTAB
  0
TABLE
  2
LAYER
 70
    16
  0
LAYER
  2
CSLAYER1
 70
    64
 62
     7
  6
CONTINUOUS
  0
LAYER
  2
CSLAYER2
 70
    64
 62
     7
  6
CONTINUOUS
  0
LAYER
  2
CSLAYER3
 70
    64
 62
     7
  6
CONTINUOUS
  0
LAYER
  2
CSLAYER4
 70
    64
 62
     7
  6
CONTINUOUS
  0
LAYER
  2
CSLAYER5
 70
    64
 62
     7
  6
CONTINUOUS
  0
LAYER
  2
CSLAYER6
 70
    64
 62
     7
  6
CONTINUOUS
  0
LAYER
  2
CSLAYER7
 70
    64
 62
     7
  6
CONTINUOUS
  0
LAYER
  2
CSLAYER8
 70
    64
 62
     7
  6
CONTINUOUS
  0
LAYER
  2
CSLAYER9
 70
    64
 62
     7
  6
CONTINUOUS
  0
LAYER
  2
CSLAYER10
 70
    64
 62
     7
  6
CONTINUOUS
  0
LAYER
  2
CSLAYER11
 70
    64
 62
     7
  6
CONTINUOUS
  0
LAYER
  2
CSLAYER12
 70
    64
 62
     7
  6
CONTINUOUS
  0
LAYER
  2
CSLAYER13
 70
    64
 62
     7
  6
CONTINUOUS
  0
LAYER
  2
CSLAYER14
 70
    64
 62
     7
  6
CONTINUOUS
  0
LAYER
  2
CSLAYER15
 70
    64
 62
     7
  6
CONTINUOUS
  0
LAYER
  2
CSLAYER16
 70
    64
 62
     7
  6
CONTINUOUS
  0
ENDTAB
  0
TABLE
  2
STYLE
 70
     1
  0
STYLE
  2
SX_FONT
 70
     0
 40
1.0
 41
1.0
 50
0.0
 71
     0
 42
1.0
  3
monotxt
  4
bigfont
  0
ENDTAB
  0
TABLE
  2
VIEW
 70
     0
  0
ENDTAB
  0
ENDSEC
  0
SECTION
  2
BLOCKS
  0
BLOCK
  8
CSLAYER1
  2
*D0000
 70
    65
 10
0.0
 20
0.0
 30
0.0
  0
LINE
  8
CSLAYER1
  6
CONTINUOUS
 62
     7
 10
42.757813
 20
195.750000
 11
42.757813
 21
200.612325
  0
LINE
  8
CSLAYER1
  6
CONTINUOUS
 62
     7
 10
162.757813
 20
195.750000
 11
162.757813
 21
200.612325
  0
LINE
  8
CSLAYER1
  6
CONTINUOUS
 62
     7
 10
42.757813
 20
199.612325
 11
162.757813
 21
199.612325
  0
LINE
  8
CSLAYER1
  6
CONTINUOUS
 62
     7
 10
42.757813
 20
199.612325
 11
46.621516
 21
200.647601
  0
LINE
  8
CSLAYER1
  6
CONTINUOUS
 62
     7
 10
42.757813
 20
199.612325
 11
46.621516
 21
198.577049
  0
LINE
  8
CSLAYER1
  6
CONTINUOUS
 62
     7
 10
162.757813
 20
199.612325
 11
158.894109
 21
200.647601
  0
LINE
  8
CSLAYER1
  6
CONTINUOUS
 62
     7
 10
162.757813
 20
199.612325
 11
158.894109
 21
198.577049
  0
TEXT
  8
CSLAYER1
 62
     7
 10
98.257813
 20
200.612320
 40
4.000000
 41
0.843750
  1
120
 50
0.000000
 51
0.000000
  7
SX_FONT
 72
     5
 11
107.257813
 21
200.612320
  0
ENDBLK
  8
0
  0
BLOCK
  8
CSLAYER1
  2
*D0001
 70
    65
 10
0.0
 20
0.0
 30
0.0
  0
LINE
  8
CSLAYER1
  6
CONTINUOUS
 62
     7
 10
168.757813
 20
130.250000
 11
173.630201
 21
130.250000
  0
LINE
  8
CSLAYER1
  6
CONTINUOUS
 62
     7
 10
168.757813
 20
189.750000
 11
173.630201
 21
189.750000
  0
LINE
  8
CSLAYER1
  6
CONTINUOUS
 62
     7
 10
172.630201
 20
130.250000
 11
172.630201
 21
189.750000
  0
LINE
  8
CSLAYER1
  6
CONTINUOUS
 62
     7
 10
172.630201
 20
130.250000
 11
171.594925
 21
134.113703
  0
LINE
  8
CSLAYER1
  6
CONTINUOUS
 62
     7
 10
172.630201
 20
130.250000
 11
173.665478
 21
134.113703
  0
LINE
  8
CSLAYER1
  6
CONTINUOUS
 62
     7
 10
172.630201
 20
189.750000
 11
171.594925
 21
185.886297
  0
LINE
  8
CSLAYER1
  6
CONTINUOUS
 62
     7
 10
172.630201
 20
189.750000
 11
173.665478
 21
185.886297
  0
TEXT
  8
CSLAYER1
 62
     7
 10
177.596527
 20
156.881699
 40
4.000000
 41
0.900000
  1
60
 50
90.000000
 51
0.000000
  7
SX_FONT
 72
     5
 11
177.596527
 21
162.881699
  0
ENDBLK
  8
0
  0
ENDSEC
  0
SECTION
  2
ENTITIES
  0
LINE
  8
CSLAYER2
  6
CONTINUOUS
 62
     7
 10
42.757812
 20
130.250000
 11
162.757813
 21
130.250000
  0
LINE
  8
CSLAYER2
  6
CONTINUOUS
 62
     7
 10
145.207812
 20
189.750000
 11
162.757813
 21
189.750000
  0
ARC
  8
CSLAYER4
  6
CONTINUOUS
 62
     7
 10
109.710565
 20
179.539799
 40
18.008975
 50
275.610881
 51
355.254764
  0
ARC
  8
CSLAYER4
  6
CONTINUOUS
 62
     7
 10
133.773470
 20
184.284342
 40
6.240000
 50
-87.559991
 51
2.440009
  0
LINE
  8
CSLAYER2
  6
CONTINUOUS
 62
     7
 10
140.007813
 20
184.550000
 11
145.207812
 21
184.550000
  0
LINE
  8
CSLAYER4
  6
CONTINUOUS
 62
     7
 10
145.207812
 20
189.750000
 11
145.207812
 21
184.550000
  0
LINE
  8
CSLAYER4
  6
CONTINUOUS
 62
     7
 10
133.507813
 20
178.050000
 11
134.039128
 21
178.050000
  0
LINE
  8
CSLAYER2
  6
CONTINUOUS
 62
     7
 10
127.657812
 20
178.050000
 11
133.507813
 21
178.050000
  0
LINE
  8
CSLAYER2
  6
CONTINUOUS
 62
     7
 10
127.657812
 20
178.050000
 11
133.507813
 21
178.050000
  0
LINE
  8
CSLAYER2
  6
CONTINUOUS
 62
     7
 10
162.757813
 20
130.250000
 11
162.757813
 21
189.750000
  0
ARC
  8
CSLAYER4
  6
CONTINUOUS
 62
     7
 10
75.221808
 20
148.274403
 40
10.000000
 50
90.466928
 51
104.679520
  0
LINE
  8
CSLAYER2
  6
CONTINUOUS
 62
     7
 10
42.757812
 20
130.250000
 11
42.757813
 21
140.650000
  0
ARC
  8
CSLAYER4
  6
CONTINUOUS
 62
     7
 10
74.957479
 20
145.446285
 40
12.706082
 50
100.290455
 51
178.179212
  0
LINE
  8
CSLAYER2
  6
CONTINUOUS
 62
     7
 10
51.857813
 20
140.650000
 11
51.857813
 21
145.850000
  0
LINE
  8
CSLAYER2
  6
CONTINUOUS
 62
     7
 10
51.857813
 20
145.850000
 11
62.257813
 21
145.850000
  0
LINE
  8
CSLAYER2
  6
CONTINUOUS
 62
     7
 10
42.757813
 20
140.650000
 11
51.857813
 21
140.650000
  0
LINE
  8
CSLAYER4
  6
CONTINUOUS
 62
     7
 10
75.140314
 20
158.274071
 11
111.471337
 21
161.617107
  0
TEXT
  8
CSLAYER1
 62
     7
 10
42.537258
 20
69.667267
 40
10.000000
 41
0.630000
  1
FM-2155
 50
0.000000
 51
0.000000
  7
SX_FONT
 72
     5
 11
84.537258
 21
69.667267
  0
DIMENSION
  8
CSLAYER1
 62
     7
  2
*D0000
 10
162.757813
 20
199.612325
 11
102.757813
 21
200.612320
 13
42.757813
 23
194.750000
 14
162.757813
 24
194.750000
 70
1
  0
DIMENSION
  8
CSLAYER1
 62
     7
  2
*D0001
 10
172.630201
 20
189.750000
 11
177.596527
 21
159.881699
 13
167.757813
 23
130.250000
 14
167.757813
 24
189.750000
 50
90.000000
 70
1
  0
TEXT
  8
CSLAYER1
 62
     7
 10
97.786179
 20
70.187546
 40
10.000000
 41
0.635294
  1
120x60
 50
0.000000
 51
0.000000
  7
SX_FONT
 72
     5
 11
133.786179
 21
70.187546
  0
TEXT
  8
CSLAYER1
 62
     7
 10
43.502075
 20
58.043869
 40
5.000000
 41
0.612766
  1
カタログ Vol. 1  P61
 50
0.000000
 51
0.000000
  7
SX_FONT
 72
     5
 11
91.502075
 21
58.043869
  0
TEXT
  8
CSLAYER1
 62
     7
 10
43.577467
 20
48.192408
 40
4.960742
 41
0.729057
  1
ホ%%dケットカタロク゛ Vol. 1 P34
 50
0.000000
 51
0.000000
  7
SX_FONT
 72
     5
 11
118.321825
 21
48.192408
  0
ENDSEC
  0
EOF
