  0
SECTION
  2
HEADER
  9
$ACADVER
  1
AC1006
  9
$INSBASE
 10
52.935215
 20
132.636000
 30
0.0
  9
$EXTMIN
 10
52.935215
 20
132.636000
  9
$EXTMAX
 10
262.935215
 20
429.636000
  9
$LIMMIN
 10
52.935215
 20
132.636000
  9
$LIMMAX
 10
262.935215
 20
429.636000
  9
$VIEWCTR
 10
157.935215
 20
281.136000
  9
$VIEWSIZE
 40
297.000000
  9
$SNAPMODE
 70
     0
  9
$SNAPUNIT
 10
1.0
 20
1.0
  9
$SNAPBASE
 10
0.0
 20
0.0
  9
$SNAPANG
 50
0.0
  9
$SNAPSTYLE
 70
     0
  9
$SNAPISOPAIR
 70
     0
  9
$GRIDMODE
 70
     0
  9
$GRIDUNIT
 10
0.0
 20
0.0
  9
$ORTHOMODE
 70
     0
  9
$REGENMODE
 70
     1
  9
$FILLMODE
 70
     1
  9
$QTEXTMODE
 70
     0
  9
$DRAGMODE
 70
     2
  9
$LTSCALE
 40
15.000000
  9
$OSMODE
 70
     0
  9
$ATTMODE
 70
     1
  9
$TEXTSIZE
 40
0.2
  9
$TRACEWID
 40
0.05
  9
$TEXTSTYLE
  7
STANDARD
  9
$CLAYER
  8
CSLAYER3
  9
$CELTYPE
  6
BYLAYER
  9
$CECOLOR
 62
   256
  9
$DIMSCALE
 40
1.0
  9
$DIMASZ
 40
0.18
  9
$DIMEXO
 40
0.0625
  9
$DIMDLI
 40
0.38
  9
$DIMRND
 40
0.0
  9
$DIMDLE
 40
0.0
  9
$DIMEXE
 40
0.18
  9
$DIMTP
 40
0.0
  9
$DIMTM
 40
0.0
  9
$DIMTXT
 40
0.18
  9
$DIMCEN
 40
0.09
  9
$DIMTSZ
 40
0.0
  9
$DIMTOL
 70
     0
  9
$DIMLIM
 70
     0
  9
$DIMTIH
 70
     1
  9
$DIMTOH
 70
     1
  9
$DIMSE1
 70
     0
  9
$DIMSE2
 70
     0
  9
$DIMTAD
 70
     0
  9
$DIMZIN
 70
     0
  9
$DIMBLK
  1

  9
$LUNITS
 70
     2
  9
$LUPREC
 70
     4
  9
$AXISMODE
 70
     0
  9
$AXISUNIT
 10
0.0
 20
0.0
  9
$SKETCHINC
 40
0.1
  9
$FILLETRAD
 40
0.0
  9
$AUNITS
 70
     0
  9
$AUPREC
 70
     0
  9
$MENU
  1
ACAD
  9
$ELEVATION
 40
0.0
  9
$THICKNESS
 40
0.0
  9
$VIEWDIR
 10
0.0
 20
0.0
 30
1.0
  9
$LIMCHECK
 70
     0
  9
$BLIPMODE
 70
     1
  9
$CHAMFERA
 40
0.0
  9
$CHAMFERB
 40
0.0
  9
$FASTZOOM
 70
     1
  9
$SKPOLY
 70
     0
  9
$TDCREATE
 40
0.000000
  9
$TDUPDATE
 40
0.000000
  9
$TDINDWG
 40
0.0
  9
$TDUSRTIMER
 40
0.0
  9
$USRTIMER
 70
     1
  9
$ANGBASE
 50
0.0
  9
$ANGDIR
 70
     0
  9
$PDMODE
 70
     0
  9
$PDSIZE
 40
0.0
  9
$PLINEWID
 40
0.0
  9
$COORDS
 70
     0
  9
$USERI1
 70
     0
  9
$USERI2
 70
     0
  9
$USERI3
 70
     0
  9
$USERI4
 70
     0
  9
$USERI5
 70
     0
  9
$USERR1
 40
0.0
  9
$USERR2
 40
0.0
  9
$USERR3
 40
0.0
  9
$USERR4
 40
0.0
  9
$USERR5
 40
0.0
  0
ENDSEC
  0
SECTION
  2
TABLES
  0
TABLE
  2
LTYPE
 70
     9
  0
LTYPE
  2
CONTINUOUS
 70
    64
  3
Solid line
 72
    65
 73
     0
 40
0.0
  0
LTYPE
  2
DASHED
 70
    64
  3
__ __ __ __ __ __ __ __ __ __ __ __ __ __ __
 72
    65
 73
     2
 40
0.75
 49
0.5
 49
-0.25
  0
LTYPE
  2
HIDDEN
 70
    64
  3
_ _ _ _ _ _ _ _ _ _ _ _ _ _ _ _ _ _ _ _ _ _ _
 72
    65
 73
     2
 40
0.375
 49
0.25
 49
-0.125
  0
LTYPE
  2
DOT
 70
    64
  3
...............................................
 72
    65
 73
     2
 40
0.25
 49
0.0
 49
-0.25
  0
LTYPE
  2
DASHDOT
 70
    64
  3
__ . __ . __ . __ . __ . __ . __ . __ . __ . __
 72
    65
 73
     4
 40
1.0
 49
0.5
 49
-0.25
 49
0.0
 49
-0.25
  0
LTYPE
  2
DIVIDE
 70
    64
  3
__ . . __ . . __ . . __ . . __ . . __ . . __
 72
    65
 73
     6
 40
1.25
 49
0.5
 49
-0.25
 49
0.0
 49
-0.25
 49
0.0
 49
-0.25
  0
LTYPE
  2
CENTER
 70
    64
  3
____ _ ____ _ ____ _ ____ _ ____ _ ____ _ ____ 
 72
    65
 73
     4
 40
2.0
 49
1.25
 49
-0.25
 49
0.25
 49
-0.25
  0
LTYPE
  2
PHANTOM
 70
    64
  3
______  __  __  ______  __  __  ______  __  __ 
 72
    65
 73
     6
 40
2.5
 49
1.25
 49
-0.25
 49
0.25
 49
-0.25
 49
0.25
 49
-0.25
  0
LTYPE
  2
BORDER
 70
    64
  3
__ __ . __ __ . __ __ . __ __ . __ __ . __ __ .
 72
    65
 73
     6
 40
1.75
 49
0.5
 49
-0.25
 49
0.5
 49
-0.25
 49
0.0
 49
-0.25
  0
ENDTAB
  0
TABLE
  2
LAYER
 70
    16
  0
LAYER
  2
CSLAYER1
 70
    64
 62
     7
  6
CONTINUOUS
  0
LAYER
  2
CSLAYER2
 70
    64
 62
     7
  6
CONTINUOUS
  0
LAYER
  2
CSLAYER3
 70
    64
 62
     7
  6
CONTINUOUS
  0
LAYER
  2
CSLAYER4
 70
    64
 62
     7
  6
CONTINUOUS
  0
LAYER
  2
CSLAYER5
 70
    64
 62
     7
  6
CONTINUOUS
  0
LAYER
  2
CSLAYER6
 70
    64
 62
     7
  6
CONTINUOUS
  0
LAYER
  2
CSLAYER7
 70
    64
 62
     7
  6
CONTINUOUS
  0
LAYER
  2
CSLAYER8
 70
    64
 62
     7
  6
CONTINUOUS
  0
LAYER
  2
CSLAYER9
 70
    64
 62
     7
  6
CONTINUOUS
  0
LAYER
  2
CSLAYER10
 70
    64
 62
     7
  6
CONTINUOUS
  0
LAYER
  2
CSLAYER11
 70
    64
 62
     7
  6
CONTINUOUS
  0
LAYER
  2
CSLAYER12
 70
    64
 62
     7
  6
CONTINUOUS
  0
LAYER
  2
CSLAYER13
 70
    64
 62
     7
  6
CONTINUOUS
  0
LAYER
  2
CSLAYER14
 70
    64
 62
     7
  6
CONTINUOUS
  0
LAYER
  2
CSLAYER15
 70
    64
 62
     7
  6
CONTINUOUS
  0
LAYER
  2
CSLAYER16
 70
    64
 62
     7
  6
CONTINUOUS
  0
ENDTAB
  0
TABLE
  2
STYLE
 70
     1
  0
STYLE
  2
SX_FONT
 70
     0
 40
1.0
 41
1.0
 50
0.0
 71
     0
 42
1.0
  3
monotxt
  4
bigfont
  0
ENDTAB
  0
TABLE
  2
VIEW
 70
     0
  0
ENDTAB
  0
ENDSEC
  0
SECTION
  2
BLOCKS
  0
BLOCK
  8
CSLAYER1
  2
*D0000
 70
    65
 10
0.0
 20
0.0
 30
0.0
  0
LINE
  8
CSLAYER1
  6
CONTINUOUS
 62
     7
 10
53.148438
 20
176.312500
 11
53.148438
 21
181.413492
  0
LINE
  8
CSLAYER1
  6
CONTINUOUS
 62
     7
 10
143.148438
 20
176.312500
 11
143.148438
 21
181.413492
  0
LINE
  8
CSLAYER1
  6
CONTINUOUS
 62
     7
 10
53.148438
 20
180.413492
 11
143.148438
 21
180.413492
  0
LINE
  8
CSLAYER1
  6
CONTINUOUS
 62
     7
 10
53.148438
 20
180.413492
 11
57.012141
 21
181.448768
  0
LINE
  8
CSLAYER1
  6
CONTINUOUS
 62
     7
 10
53.148438
 20
180.413492
 11
57.012141
 21
179.378216
  0
LINE
  8
CSLAYER1
  6
CONTINUOUS
 62
     7
 10
143.148438
 20
180.413492
 11
139.284734
 21
181.448768
  0
LINE
  8
CSLAYER1
  6
CONTINUOUS
 62
     7
 10
143.148438
 20
180.413492
 11
139.284734
 21
179.378216
  0
TEXT
  8
CSLAYER1
 62
     7
 10
95.148438
 20
181.413498
 40
4.000000
 41
0.900000
  1
90
 50
0.000000
 51
0.000000
  7
SX_FONT
 72
     5
 11
101.148438
 21
181.413498
  0
ENDBLK
  8
0
  0
BLOCK
  8
CSLAYER1
  2
*D0001
 70
    65
 10
0.0
 20
0.0
 30
0.0
  0
LINE
  8
CSLAYER1
  6
CONTINUOUS
 62
     7
 10
149.148438
 20
125.687500
 11
154.360421
 21
125.687500
  0
LINE
  8
CSLAYER1
  6
CONTINUOUS
 62
     7
 10
149.148438
 20
170.312500
 11
154.360421
 21
170.312500
  0
LINE
  8
CSLAYER1
  6
CONTINUOUS
 62
     7
 10
153.360421
 20
125.687500
 11
153.360421
 21
170.312500
  0
LINE
  8
CSLAYER1
  6
CONTINUOUS
 62
     7
 10
153.360421
 20
125.687500
 11
152.325144
 21
129.551203
  0
LINE
  8
CSLAYER1
  6
CONTINUOUS
 62
     7
 10
153.360421
 20
125.687500
 11
154.395697
 21
129.551203
  0
LINE
  8
CSLAYER1
  6
CONTINUOUS
 62
     7
 10
153.360421
 20
170.312500
 11
152.325144
 21
166.448797
  0
LINE
  8
CSLAYER1
  6
CONTINUOUS
 62
     7
 10
153.360421
 20
170.312500
 11
154.395697
 21
166.448797
  0
TEXT
  8
CSLAYER1
 62
     7
 10
158.468643
 20
145.061417
 40
4.000000
 41
0.900000
  1
45
 50
90.000000
 51
0.000000
  7
SX_FONT
 72
     5
 11
158.468643
 21
151.061417
  0
ENDBLK
  8
0
  0
ENDSEC
  0
SECTION
  2
ENTITIES
  0
LINE
  8
CSLAYER2
  6
CONTINUOUS
 62
     7
 10
129.985937
 20
170.312500
 11
129.985937
 21
166.412500
  0
LINE
  8
CSLAYER2
  6
CONTINUOUS
 62
     7
 10
143.148438
 20
125.687500
 11
143.148438
 21
170.312500
  0
LINE
  8
CSLAYER2
  6
CONTINUOUS
 62
     7
 10
129.985937
 20
170.312500
 11
143.148438
 21
170.312500
  0
LINE
  8
CSLAYER4
  6
CONTINUOUS
 62
     7
 10
77.435314
 20
146.705553
 11
104.683581
 21
149.212830
  0
LINE
  8
CSLAYER2
  6
CONTINUOUS
 62
     7
 10
53.148438
 20
125.687500
 11
143.148438
 21
125.687500
  0
LINE
  8
CSLAYER2
  6
CONTINUOUS
 62
     7
 10
53.148437
 20
125.687500
 11
143.148438
 21
125.687500
  0
ARC
  8
CSLAYER4
  6
CONTINUOUS
 62
     7
 10
77.496434
 20
139.205802
 40
7.500000
 50
90.466928
 51
104.679520
  0
ARC
  8
CSLAYER4
  6
CONTINUOUS
 62
     7
 10
77.298188
 20
137.084713
 40
9.529562
 50
100.290455
 51
178.179212
  0
LINE
  8
CSLAYER4
  6
CONTINUOUS
 62
     7
 10
59.973437
 20
133.487500
 11
59.973437
 21
137.387500
  0
LINE
  8
CSLAYER4
  6
CONTINUOUS
 62
     7
 10
59.973437
 20
137.387500
 11
67.773438
 21
137.387500
  0
LINE
  8
CSLAYER4
  6
CONTINUOUS
 62
     7
 10
53.148438
 20
125.687500
 11
53.148438
 21
133.487500
  0
LINE
  8
CSLAYER4
  6
CONTINUOUS
 62
     7
 10
53.148438
 20
133.487500
 11
59.973437
 21
133.487500
  0
LINE
  8
CSLAYER2
  6
CONTINUOUS
 62
     7
 10
116.823437
 20
161.537500
 11
121.210937
 21
161.537500
  0
LINE
  8
CSLAYER2
  6
CONTINUOUS
 62
     7
 10
116.823437
 20
161.537500
 11
121.210937
 21
161.537500
  0
ARC
  8
CSLAYER4
  6
CONTINUOUS
 62
     7
 10
103.363002
 20
162.654849
 40
13.506731
 50
275.610881
 51
355.254764
  0
ARC
  8
CSLAYER2
  6
CONTINUOUS
 62
     7
 10
121.410181
 20
166.213257
 40
4.680000
 50
-87.559991
 51
2.440009
  0
LINE
  8
CSLAYER2
  6
CONTINUOUS
 62
     7
 10
126.085937
 20
166.412500
 11
129.985937
 21
166.412500
  0
LINE
  8
CSLAYER2
  6
CONTINUOUS
 62
     7
 10
121.210937
 20
161.537500
 11
121.609424
 21
161.537500
  0
TEXT
  8
CSLAYER1
 62
     7
 10
53.187988
 20
65.325851
 40
10.000000
 41
0.630000
  1
FM-2154
 50
0.000000
 51
0.000000
  7
SX_FONT
 72
     5
 11
95.187988
 21
65.325851
  0
DIMENSION
  8
CSLAYER1
 62
     7
  2
*D0000
 10
143.148438
 20
180.413492
 11
98.148438
 21
181.413498
 13
53.148438
 23
175.312500
 14
143.148438
 24
175.312500
 70
1
  0
DIMENSION
  8
CSLAYER1
 62
     7
  2
*D0001
 10
153.360421
 20
170.312500
 11
158.468643
 21
148.061417
 13
148.148438
 23
125.687500
 14
148.148438
 24
170.312500
 50
90.000000
 70
1
  0
TEXT
  8
CSLAYER1
 62
     7
 10
110.355492
 20
65.672699
 40
10.000000
 41
0.642857
  1
90x45
 50
0.000000
 51
0.000000
  7
SX_FONT
 72
     5
 11
140.355492
 21
65.672699
  0
TEXT
  8
CSLAYER1
 62
     7
 10
54.362656
 20
53.448090
 40
5.000000
 41
0.612766
  1
カタログ Vol. 1  P61
 50
0.000000
 51
0.000000
  7
SX_FONT
 72
     5
 11
102.362656
 21
53.448090
  0
TEXT
  8
CSLAYER1
 62
     7
 10
54.366522
 20
43.107840
 40
4.960742
 41
0.729057
  1
ホ%%dケットカタロク゛ Vol. 1 P34
 50
0.000000
 51
0.000000
  7
SX_FONT
 72
     5
 11
129.110880
 21
43.107840
  0
ENDSEC
  0
EOF
