  0
SECTION
  2
HEADER
  9
$ACADVER
  1
AC1006
  9
$INSBASE
 10
79.542955
 20
169.870826
 30
0.0
  9
$EXTMIN
 10
79.542955
 20
169.870826
  9
$EXTMAX
 10
289.542955
 20
466.870826
  9
$LIMMIN
 10
79.542955
 20
169.870826
  9
$LIMMAX
 10
289.542955
 20
466.870826
  9
$VIEWCTR
 10
184.542955
 20
318.370826
  9
$VIEWSIZE
 40
297.000000
  9
$SNAPMODE
 70
     0
  9
$SNAPUNIT
 10
1.0
 20
1.0
  9
$SNAPBASE
 10
0.0
 20
0.0
  9
$SNAPANG
 50
0.0
  9
$SNAPSTYLE
 70
     0
  9
$SNAPISOPAIR
 70
     0
  9
$GRIDMODE
 70
     0
  9
$GRIDUNIT
 10
0.0
 20
0.0
  9
$ORTHOMODE
 70
     0
  9
$REGENMODE
 70
     1
  9
$FILLMODE
 70
     1
  9
$QTEXTMODE
 70
     0
  9
$DRAGMODE
 70
     2
  9
$LTSCALE
 40
15.000000
  9
$OSMODE
 70
     0
  9
$ATTMODE
 70
     1
  9
$TEXTSIZE
 40
0.2
  9
$TRACEWID
 40
0.05
  9
$TEXTSTYLE
  7
STANDARD
  9
$CLAYER
  8
CSLAYER3
  9
$CELTYPE
  6
BYLAYER
  9
$CECOLOR
 62
   256
  9
$DIMSCALE
 40
1.0
  9
$DIMASZ
 40
0.18
  9
$DIMEXO
 40
0.0625
  9
$DIMDLI
 40
0.38
  9
$DIMRND
 40
0.0
  9
$DIMDLE
 40
0.0
  9
$DIMEXE
 40
0.18
  9
$DIMTP
 40
0.0
  9
$DIMTM
 40
0.0
  9
$DIMTXT
 40
0.18
  9
$DIMCEN
 40
0.09
  9
$DIMTSZ
 40
0.0
  9
$DIMTOL
 70
     0
  9
$DIMLIM
 70
     0
  9
$DIMTIH
 70
     1
  9
$DIMTOH
 70
     1
  9
$DIMSE1
 70
     0
  9
$DIMSE2
 70
     0
  9
$DIMTAD
 70
     0
  9
$DIMZIN
 70
     0
  9
$DIMBLK
  1

  9
$LUNITS
 70
     2
  9
$LUPREC
 70
     4
  9
$AXISMODE
 70
     0
  9
$AXISUNIT
 10
0.0
 20
0.0
  9
$SKETCHINC
 40
0.1
  9
$FILLETRAD
 40
0.0
  9
$AUNITS
 70
     0
  9
$AUPREC
 70
     0
  9
$MENU
  1
ACAD
  9
$ELEVATION
 40
0.0
  9
$THICKNESS
 40
0.0
  9
$VIEWDIR
 10
0.0
 20
0.0
 30
1.0
  9
$LIMCHECK
 70
     0
  9
$BLIPMODE
 70
     1
  9
$CHAMFERA
 40
0.0
  9
$CHAMFERB
 40
0.0
  9
$FASTZOOM
 70
     1
  9
$SKPOLY
 70
     0
  9
$TDCREATE
 40
0.000000
  9
$TDUPDATE
 40
0.000000
  9
$TDINDWG
 40
0.0
  9
$TDUSRTIMER
 40
0.0
  9
$USRTIMER
 70
     1
  9
$ANGBASE
 50
0.0
  9
$ANGDIR
 70
     0
  9
$PDMODE
 70
     0
  9
$PDSIZE
 40
0.0
  9
$PLINEWID
 40
0.0
  9
$COORDS
 70
     0
  9
$USERI1
 70
     0
  9
$USERI2
 70
     0
  9
$USERI3
 70
     0
  9
$USERI4
 70
     0
  9
$USERI5
 70
     0
  9
$USERR1
 40
0.0
  9
$USERR2
 40
0.0
  9
$USERR3
 40
0.0
  9
$USERR4
 40
0.0
  9
$USERR5
 40
0.0
  0
ENDSEC
  0
SECTION
  2
TABLES
  0
TABLE
  2
LTYPE
 70
     9
  0
LTYPE
  2
CONTINUOUS
 70
    64
  3
Solid line
 72
    65
 73
     0
 40
0.0
  0
LTYPE
  2
DASHED
 70
    64
  3
__ __ __ __ __ __ __ __ __ __ __ __ __ __ __
 72
    65
 73
     2
 40
0.75
 49
0.5
 49
-0.25
  0
LTYPE
  2
HIDDEN
 70
    64
  3
_ _ _ _ _ _ _ _ _ _ _ _ _ _ _ _ _ _ _ _ _ _ _
 72
    65
 73
     2
 40
0.375
 49
0.25
 49
-0.125
  0
LTYPE
  2
DOT
 70
    64
  3
...............................................
 72
    65
 73
     2
 40
0.25
 49
0.0
 49
-0.25
  0
LTYPE
  2
DASHDOT
 70
    64
  3
__ . __ . __ . __ . __ . __ . __ . __ . __ . __
 72
    65
 73
     4
 40
1.0
 49
0.5
 49
-0.25
 49
0.0
 49
-0.25
  0
LTYPE
  2
DIVIDE
 70
    64
  3
__ . . __ . . __ . . __ . . __ . . __ . . __
 72
    65
 73
     6
 40
1.25
 49
0.5
 49
-0.25
 49
0.0
 49
-0.25
 49
0.0
 49
-0.25
  0
LTYPE
  2
CENTER
 70
    64
  3
____ _ ____ _ ____ _ ____ _ ____ _ ____ _ ____ 
 72
    65
 73
     4
 40
2.0
 49
1.25
 49
-0.25
 49
0.25
 49
-0.25
  0
LTYPE
  2
PHANTOM
 70
    64
  3
______  __  __  ______  __  __  ______  __  __ 
 72
    65
 73
     6
 40
2.5
 49
1.25
 49
-0.25
 49
0.25
 49
-0.25
 49
0.25
 49
-0.25
  0
LTYPE
  2
BORDER
 70
    64
  3
__ __ . __ __ . __ __ . __ __ . __ __ . __ __ .
 72
    65
 73
     6
 40
1.75
 49
0.5
 49
-0.25
 49
0.5
 49
-0.25
 49
0.0
 49
-0.25
  0
ENDTAB
  0
TABLE
  2
LAYER
 70
    16
  0
LAYER
  2
CSLAYER1
 70
    64
 62
     7
  6
CONTINUOUS
  0
LAYER
  2
CSLAYER2
 70
    64
 62
     7
  6
CONTINUOUS
  0
LAYER
  2
CSLAYER3
 70
    64
 62
     7
  6
CONTINUOUS
  0
LAYER
  2
CSLAYER4
 70
    64
 62
     7
  6
CONTINUOUS
  0
LAYER
  2
CSLAYER5
 70
    64
 62
     7
  6
CONTINUOUS
  0
LAYER
  2
CSLAYER6
 70
    64
 62
     7
  6
CONTINUOUS
  0
LAYER
  2
CSLAYER7
 70
    64
 62
     7
  6
CONTINUOUS
  0
LAYER
  2
CSLAYER8
 70
    64
 62
     7
  6
CONTINUOUS
  0
LAYER
  2
CSLAYER9
 70
    64
 62
     7
  6
CONTINUOUS
  0
LAYER
  2
CSLAYER10
 70
    64
 62
     7
  6
CONTINUOUS
  0
LAYER
  2
CSLAYER11
 70
    64
 62
     7
  6
CONTINUOUS
  0
LAYER
  2
CSLAYER12
 70
    64
 62
     7
  6
CONTINUOUS
  0
LAYER
  2
CSLAYER13
 70
    64
 62
     7
  6
CONTINUOUS
  0
LAYER
  2
CSLAYER14
 70
    64
 62
     7
  6
CONTINUOUS
  0
LAYER
  2
CSLAYER15
 70
    64
 62
     7
  6
CONTINUOUS
  0
LAYER
  2
CSLAYER16
 70
    64
 62
     7
  6
CONTINUOUS
  0
ENDTAB
  0
TABLE
  2
STYLE
 70
     1
  0
STYLE
  2
SX_FONT
 70
     0
 40
1.0
 41
1.0
 50
0.0
 71
     0
 42
1.0
  3
monotxt
  4
bigfont
  0
ENDTAB
  0
TABLE
  2
VIEW
 70
     0
  0
ENDTAB
  0
ENDSEC
  0
SECTION
  2
BLOCKS
  0
BLOCK
  8
CSLAYER1
  2
*D0000
 70
    65
 10
0.0
 20
0.0
 30
0.0
  0
LINE
  8
CSLAYER1
  6
CONTINUOUS
 62
     7
 10
78.398438
 20
166.546875
 11
78.398438
 21
171.611265
  0
LINE
  8
CSLAYER1
  6
CONTINUOUS
 62
     7
 10
118.398438
 20
166.546875
 11
118.398438
 21
171.611265
  0
LINE
  8
CSLAYER1
  6
CONTINUOUS
 62
     7
 10
78.398438
 20
170.611265
 11
118.398438
 21
170.611265
  0
LINE
  8
CSLAYER1
  6
CONTINUOUS
 62
     7
 10
78.398438
 20
170.611265
 11
82.262141
 21
171.646542
  0
LINE
  8
CSLAYER1
  6
CONTINUOUS
 62
     7
 10
78.398438
 20
170.611265
 11
82.262141
 21
169.575989
  0
LINE
  8
CSLAYER1
  6
CONTINUOUS
 62
     7
 10
118.398438
 20
170.611265
 11
114.534734
 21
171.646542
  0
LINE
  8
CSLAYER1
  6
CONTINUOUS
 62
     7
 10
118.398438
 20
170.611265
 11
114.534734
 21
169.575989
  0
TEXT
  8
CSLAYER1
 62
     7
 10
95.398438
 20
171.611267
 40
4.000000
 41
0.900000
  1
40
 50
0.000000
 51
0.000000
  7
SX_FONT
 72
     5
 11
101.398438
 21
171.611267
  0
ENDBLK
  8
0
  0
BLOCK
  8
CSLAYER1
  2
*D0001
 70
    65
 10
0.0
 20
0.0
 30
0.0
  0
LINE
  8
CSLAYER1
  6
CONTINUOUS
 62
     7
 10
124.398438
 20
139.546875
 11
129.442069
 21
139.546875
  0
LINE
  8
CSLAYER1
  6
CONTINUOUS
 62
     7
 10
124.398438
 20
160.546875
 11
129.442069
 21
160.546875
  0
LINE
  8
CSLAYER1
  6
CONTINUOUS
 62
     7
 10
128.442069
 20
139.546875
 11
128.442069
 21
160.546875
  0
LINE
  8
CSLAYER1
  6
CONTINUOUS
 62
     7
 10
128.442069
 20
139.546875
 11
127.406793
 21
143.410578
  0
LINE
  8
CSLAYER1
  6
CONTINUOUS
 62
     7
 10
128.442069
 20
139.546875
 11
129.477345
 21
143.410578
  0
LINE
  8
CSLAYER1
  6
CONTINUOUS
 62
     7
 10
128.442069
 20
160.546875
 11
127.406793
 21
156.683172
  0
LINE
  8
CSLAYER1
  6
CONTINUOUS
 62
     7
 10
128.442069
 20
160.546875
 11
129.477345
 21
156.683172
  0
TEXT
  8
CSLAYER1
 62
     7
 10
133.458557
 20
146.792816
 40
4.000000
 41
0.900000
  1
21
 50
90.000000
 51
0.000000
  7
SX_FONT
 72
     5
 11
133.458557
 21
152.792816
  0
ENDBLK
  8
0
  0
ENDSEC
  0
SECTION
  2
ENTITIES
  0
LINE
  8
CSLAYER2
  6
CONTINUOUS
 62
     7
 10
78.398438
 20
139.546875
 11
118.398438
 21
139.546875
  0
LINE
  8
CSLAYER4
  6
CONTINUOUS
 62
     7
 10
78.398438
 20
144.013542
 11
81.431771
 21
144.013542
  0
LINE
  8
CSLAYER4
  6
CONTINUOUS
 62
     7
 10
78.398438
 20
139.546875
 11
78.398438
 21
144.013542
  0
LINE
  8
CSLAYER2
  6
CONTINUOUS
 62
     7
 10
118.398438
 20
139.546875
 11
118.398438
 21
160.380208
  0
ARC
  8
CSLAYER4
  6
CONTINUOUS
 62
     7
 10
100.716022
 20
156.976808
 40
6.002992
 50
275.610881
 51
355.254764
  0
ARC
  8
CSLAYER2
  6
CONTINUOUS
 62
     7
 10
108.736990
 20
158.558322
 40
2.080000
 50
-87.559991
 51
2.440009
  0
LINE
  8
CSLAYER2
  6
CONTINUOUS
 62
     7
 10
110.815104
 20
158.646875
 11
112.548437
 21
158.646875
  0
LINE
  8
CSLAYER2
  6
CONTINUOUS
 62
     7
 10
112.548437
 20
160.380208
 11
112.548437
 21
158.646875
  0
LINE
  8
CSLAYER2
  6
CONTINUOUS
 62
     7
 10
108.648438
 20
156.480208
 11
108.825543
 21
156.480208
  0
LINE
  8
CSLAYER2
  6
CONTINUOUS
 62
     7
 10
106.698438
 20
156.480208
 11
108.648438
 21
156.480208
  0
LINE
  8
CSLAYER2
  6
CONTINUOUS
 62
     7
 10
106.698438
 20
156.480208
 11
108.648438
 21
156.480208
  0
LINE
  8
CSLAYER2
  6
CONTINUOUS
 62
     7
 10
112.548437
 20
160.380208
 11
118.398438
 21
160.380208
  0
ARC
  8
CSLAYER4
  6
CONTINUOUS
 62
     7
 10
89.131660
 20
145.612303
 40
4.235361
 50
100.290455
 51
178.179212
  0
ARC
  8
CSLAYER4
  6
CONTINUOUS
 62
     7
 10
89.219769
 20
146.555009
 40
3.333333
 50
90.466928
 51
104.679520
  0
LINE
  8
CSLAYER4
  6
CONTINUOUS
 62
     7
 10
89.192605
 20
149.888232
 11
101.302946
 21
151.002577
  0
LINE
  8
CSLAYER4
  6
CONTINUOUS
 62
     7
 10
81.431771
 20
144.013542
 11
81.431771
 21
145.746875
  0
LINE
  8
CSLAYER4
  6
CONTINUOUS
 62
     7
 10
81.431771
 20
145.746875
 11
84.898438
 21
145.746875
  0
TEXT
  8
CSLAYER1
 62
     7
 10
78.069786
 20
79.126938
 40
10.000000
 41
0.630000
  1
FM-2152
 50
0.000000
 51
0.000000
  7
SX_FONT
 72
     5
 11
120.069786
 21
79.126938
  0
DIMENSION
  8
CSLAYER1
 62
     7
  2
*D0000
 10
118.398438
 20
170.611265
 11
98.398438
 21
171.611267
 13
78.398438
 23
165.546875
 14
118.398438
 24
165.546875
 70
1
  0
DIMENSION
  8
CSLAYER1
 62
     7
  2
*D0001
 10
128.442069
 20
160.546875
 11
133.458557
 21
149.792816
 13
123.398438
 23
139.546875
 14
123.398438
 24
160.546875
 50
90.000000
 70
1
  0
TEXT
  8
CSLAYER1
 62
     7
 10
134.982117
 20
79.061920
 40
10.000000
 41
0.642857
  1
40x21
 50
0.000000
 51
0.000000
  7
SX_FONT
 72
     5
 11
164.982117
 21
79.061920
  0
TEXT
  8
CSLAYER1
 62
     7
 10
79.220200
 20
67.305466
 40
5.000000
 41
0.612766
  1
カタログ Vol. 1  P60
 50
0.000000
 51
0.000000
  7
SX_FONT
 72
     5
 11
127.220200
 21
67.305466
  0
TEXT
  8
CSLAYER1
 62
     7
 10
78.894240
 20
57.473876
 40
4.960742
 41
0.729057
  1
ホ%%dケットカタロク゛ Vol. 1 P33
 50
0.000000
 51
0.000000
  7
SX_FONT
 72
     5
 11
153.638597
 21
57.473876
  0
ENDSEC
  0
EOF
