  0
SECTION
  2
HEADER
  9
$ACADVER
  1
AC1006
  9
$INSBASE
 10
71.013062
 20
185.157715
 30
0.0
  9
$EXTMIN
 10
71.013062
 20
185.157715
  9
$EXTMAX
 10
281.013062
 20
482.157715
  9
$LIMMIN
 10
71.013062
 20
185.157715
  9
$LIMMAX
 10
281.013062
 20
482.157715
  9
$VIEWCTR
 10
176.013062
 20
333.657715
  9
$VIEWSIZE
 40
297.000000
  9
$SNAPMODE
 70
     0
  9
$SNAPUNIT
 10
1.0
 20
1.0
  9
$SNAPBASE
 10
0.0
 20
0.0
  9
$SNAPANG
 50
0.0
  9
$SNAPSTYLE
 70
     0
  9
$SNAPISOPAIR
 70
     0
  9
$GRIDMODE
 70
     0
  9
$GRIDUNIT
 10
0.0
 20
0.0
  9
$ORTHOMODE
 70
     0
  9
$REGENMODE
 70
     1
  9
$FILLMODE
 70
     1
  9
$QTEXTMODE
 70
     0
  9
$DRAGMODE
 70
     2
  9
$LTSCALE
 40
15.000000
  9
$OSMODE
 70
     0
  9
$ATTMODE
 70
     1
  9
$TEXTSIZE
 40
0.2
  9
$TRACEWID
 40
0.05
  9
$TEXTSTYLE
  7
STANDARD
  9
$CLAYER
  8
CSLAYER3
  9
$CELTYPE
  6
BYLAYER
  9
$CECOLOR
 62
   256
  9
$DIMSCALE
 40
1.0
  9
$DIMASZ
 40
0.18
  9
$DIMEXO
 40
0.0625
  9
$DIMDLI
 40
0.38
  9
$DIMRND
 40
0.0
  9
$DIMDLE
 40
0.0
  9
$DIMEXE
 40
0.18
  9
$DIMTP
 40
0.0
  9
$DIMTM
 40
0.0
  9
$DIMTXT
 40
0.18
  9
$DIMCEN
 40
0.09
  9
$DIMTSZ
 40
0.0
  9
$DIMTOL
 70
     0
  9
$DIMLIM
 70
     0
  9
$DIMTIH
 70
     1
  9
$DIMTOH
 70
     1
  9
$DIMSE1
 70
     0
  9
$DIMSE2
 70
     0
  9
$DIMTAD
 70
     0
  9
$DIMZIN
 70
     0
  9
$DIMBLK
  1

  9
$LUNITS
 70
     2
  9
$LUPREC
 70
     4
  9
$AXISMODE
 70
     0
  9
$AXISUNIT
 10
0.0
 20
0.0
  9
$SKETCHINC
 40
0.1
  9
$FILLETRAD
 40
0.0
  9
$AUNITS
 70
     0
  9
$AUPREC
 70
     0
  9
$MENU
  1
ACAD
  9
$ELEVATION
 40
0.0
  9
$THICKNESS
 40
0.0
  9
$VIEWDIR
 10
0.0
 20
0.0
 30
1.0
  9
$LIMCHECK
 70
     0
  9
$BLIPMODE
 70
     1
  9
$CHAMFERA
 40
0.0
  9
$CHAMFERB
 40
0.0
  9
$FASTZOOM
 70
     1
  9
$SKPOLY
 70
     0
  9
$TDCREATE
 40
0.000000
  9
$TDUPDATE
 40
0.000000
  9
$TDINDWG
 40
0.0
  9
$TDUSRTIMER
 40
0.0
  9
$USRTIMER
 70
     1
  9
$ANGBASE
 50
0.0
  9
$ANGDIR
 70
     0
  9
$PDMODE
 70
     0
  9
$PDSIZE
 40
0.0
  9
$PLINEWID
 40
0.0
  9
$COORDS
 70
     0
  9
$USERI1
 70
     0
  9
$USERI2
 70
     0
  9
$USERI3
 70
     0
  9
$USERI4
 70
     0
  9
$USERI5
 70
     0
  9
$USERR1
 40
0.0
  9
$USERR2
 40
0.0
  9
$USERR3
 40
0.0
  9
$USERR4
 40
0.0
  9
$USERR5
 40
0.0
  0
ENDSEC
  0
SECTION
  2
TABLES
  0
TABLE
  2
LTYPE
 70
     9
  0
LTYPE
  2
CONTINUOUS
 70
    64
  3
Solid line
 72
    65
 73
     0
 40
0.0
  0
LTYPE
  2
DASHED
 70
    64
  3
__ __ __ __ __ __ __ __ __ __ __ __ __ __ __
 72
    65
 73
     2
 40
0.75
 49
0.5
 49
-0.25
  0
LTYPE
  2
HIDDEN
 70
    64
  3
_ _ _ _ _ _ _ _ _ _ _ _ _ _ _ _ _ _ _ _ _ _ _
 72
    65
 73
     2
 40
0.375
 49
0.25
 49
-0.125
  0
LTYPE
  2
DOT
 70
    64
  3
...............................................
 72
    65
 73
     2
 40
0.25
 49
0.0
 49
-0.25
  0
LTYPE
  2
DASHDOT
 70
    64
  3
__ . __ . __ . __ . __ . __ . __ . __ . __ . __
 72
    65
 73
     4
 40
1.0
 49
0.5
 49
-0.25
 49
0.0
 49
-0.25
  0
LTYPE
  2
DIVIDE
 70
    64
  3
__ . . __ . . __ . . __ . . __ . . __ . . __
 72
    65
 73
     6
 40
1.25
 49
0.5
 49
-0.25
 49
0.0
 49
-0.25
 49
0.0
 49
-0.25
  0
LTYPE
  2
CENTER
 70
    64
  3
____ _ ____ _ ____ _ ____ _ ____ _ ____ _ ____ 
 72
    65
 73
     4
 40
2.0
 49
1.25
 49
-0.25
 49
0.25
 49
-0.25
  0
LTYPE
  2
PHANTOM
 70
    64
  3
______  __  __  ______  __  __  ______  __  __ 
 72
    65
 73
     6
 40
2.5
 49
1.25
 49
-0.25
 49
0.25
 49
-0.25
 49
0.25
 49
-0.25
  0
LTYPE
  2
BORDER
 70
    64
  3
__ __ . __ __ . __ __ . __ __ . __ __ . __ __ .
 72
    65
 73
     6
 40
1.75
 49
0.5
 49
-0.25
 49
0.5
 49
-0.25
 49
0.0
 49
-0.25
  0
ENDTAB
  0
TABLE
  2
LAYER
 70
    16
  0
LAYER
  2
CSLAYER1
 70
    64
 62
     7
  6
CONTINUOUS
  0
LAYER
  2
CSLAYER2
 70
    64
 62
     7
  6
CONTINUOUS
  0
LAYER
  2
CSLAYER3
 70
    64
 62
     7
  6
CONTINUOUS
  0
LAYER
  2
CSLAYER4
 70
    64
 62
     7
  6
CONTINUOUS
  0
LAYER
  2
CSLAYER5
 70
    64
 62
     7
  6
CONTINUOUS
  0
LAYER
  2
CSLAYER6
 70
    64
 62
     7
  6
CONTINUOUS
  0
LAYER
  2
CSLAYER7
 70
    64
 62
     7
  6
CONTINUOUS
  0
LAYER
  2
CSLAYER8
 70
    64
 62
     7
  6
CONTINUOUS
  0
LAYER
  2
CSLAYER9
 70
    64
 62
     7
  6
CONTINUOUS
  0
LAYER
  2
CSLAYER10
 70
    64
 62
     7
  6
CONTINUOUS
  0
LAYER
  2
CSLAYER11
 70
    64
 62
     7
  6
CONTINUOUS
  0
LAYER
  2
CSLAYER12
 70
    64
 62
     7
  6
CONTINUOUS
  0
LAYER
  2
CSLAYER13
 70
    64
 62
     7
  6
CONTINUOUS
  0
LAYER
  2
CSLAYER14
 70
    64
 62
     7
  6
CONTINUOUS
  0
LAYER
  2
CSLAYER15
 70
    64
 62
     7
  6
CONTINUOUS
  0
LAYER
  2
CSLAYER16
 70
    64
 62
     7
  6
CONTINUOUS
  0
ENDTAB
  0
TABLE
  2
STYLE
 70
     1
  0
STYLE
  2
SX_FONT
 70
     0
 40
1.0
 41
1.0
 50
0.0
 71
     0
 42
1.0
  3
monotxt
  4
bigfont
  0
ENDTAB
  0
TABLE
  2
VIEW
 70
     0
  0
ENDTAB
  0
ENDSEC
  0
SECTION
  2
BLOCKS
  0
BLOCK
  8
CSLAYER1
  2
*D0000
 70
    65
 10
0.0
 20
0.0
 30
0.0
  0
LINE
  8
CSLAYER1
  6
CONTINUOUS
 62
     7
 10
72.148438
 20
180.609375
 11
72.148438
 21
185.567147
  0
LINE
  8
CSLAYER1
  6
CONTINUOUS
 62
     7
 10
132.148437
 20
180.609375
 11
132.148437
 21
185.567147
  0
LINE
  8
CSLAYER1
  6
CONTINUOUS
 62
     7
 10
72.148438
 20
184.567147
 11
132.148437
 21
184.567147
  0
LINE
  8
CSLAYER1
  6
CONTINUOUS
 62
     7
 10
72.148438
 20
184.567147
 11
76.012141
 21
185.602424
  0
LINE
  8
CSLAYER1
  6
CONTINUOUS
 62
     7
 10
72.148438
 20
184.567147
 11
76.012141
 21
183.531871
  0
LINE
  8
CSLAYER1
  6
CONTINUOUS
 62
     7
 10
132.148437
 20
184.567147
 11
128.284734
 21
185.602424
  0
LINE
  8
CSLAYER1
  6
CONTINUOUS
 62
     7
 10
132.148437
 20
184.567147
 11
128.284734
 21
183.531871
  0
TEXT
  8
CSLAYER1
 62
     7
 10
99.148438
 20
185.567154
 40
4.000000
 41
0.900000
  1
60
 50
0.000000
 51
0.000000
  7
SX_FONT
 72
     5
 11
105.148438
 21
185.567154
  0
ENDBLK
  8
0
  0
BLOCK
  8
CSLAYER1
  2
*D0001
 70
    65
 10
0.0
 20
0.0
 30
0.0
  0
LINE
  8
CSLAYER1
  6
CONTINUOUS
 62
     7
 10
138.148437
 20
144.609375
 11
143.170059
 21
144.609375
  0
LINE
  8
CSLAYER1
  6
CONTINUOUS
 62
     7
 10
138.148437
 20
174.609375
 11
143.170059
 21
174.609375
  0
LINE
  8
CSLAYER1
  6
CONTINUOUS
 62
     7
 10
142.170059
 20
144.609375
 11
142.170059
 21
174.609375
  0
LINE
  8
CSLAYER1
  6
CONTINUOUS
 62
     7
 10
142.170059
 20
144.609375
 11
141.134783
 21
148.473078
  0
LINE
  8
CSLAYER1
  6
CONTINUOUS
 62
     7
 10
142.170059
 20
144.609375
 11
143.205335
 21
148.473078
  0
LINE
  8
CSLAYER1
  6
CONTINUOUS
 62
     7
 10
142.170059
 20
174.609375
 11
141.134783
 21
170.745672
  0
LINE
  8
CSLAYER1
  6
CONTINUOUS
 62
     7
 10
142.170059
 20
174.609375
 11
143.205335
 21
170.745672
  0
TEXT
  8
CSLAYER1
 62
     7
 10
147.071884
 20
156.567810
 40
4.000000
 41
0.900000
  1
30
 50
90.000000
 51
0.000000
  7
SX_FONT
 72
     5
 11
147.071884
 21
162.567810
  0
ENDBLK
  8
0
  0
ENDSEC
  0
SECTION
  2
ENTITIES
  0
ARC
  8
CSLAYER2
  6
CONTINUOUS
 62
     7
 10
84.648438
 20
152.609375
 40
10.000000
 50
90.000000
 51
180.000000
  0
ARC
  8
CSLAYER2
  6
CONTINUOUS
 62
     7
 10
122.898438
 20
168.609375
 40
6.000000
 50
0.000000
 51
90.000000
  0
ARC
  8
CSLAYER2
  6
CONTINUOUS
 62
     7
 10
122.898438
 20
168.609375
 40
6.000000
 50
90.000000
 51
180.000000
  0
ARC
  8
CSLAYER2
  6
CONTINUOUS
 62
     7
 10
107.648438
 20
164.109375
 40
6.000000
 50
-90.000000
 51
0.000000
  0
LINE
  8
CSLAYER2
  6
CONTINUOUS
 62
     7
 10
87.932223
 20
162.054837
 11
93.849788
 21
159.997552
  0
ARC
  8
CSLAYER2
  6
CONTINUOUS
 62
     7
 10
107.648438
 20
164.109375
 40
6.000000
 50
195.029382
 51
270.000000
  0
ARC
  8
CSLAYER2
  6
CONTINUOUS
 62
     7
 10
84.648438
 20
152.609375
 40
10.000000
 50
70.829612
 51
90.000000
  0
ARC
  8
CSLAYER2
  6
CONTINUOUS
 62
     7
 10
96.148437
 20
166.609375
 40
7.000000
 50
250.829612
 51
270.000000
  0
ARC
  8
CSLAYER2
  6
CONTINUOUS
 62
     7
 10
96.148438
 20
166.609375
 40
7.000000
 50
270.000000
 51
324.590783
  0
LINE
  8
CSLAYER2
  6
CONTINUOUS
 62
     7
 10
113.648438
 20
164.109375
 11
113.648438
 21
168.609375
  0
LINE
  8
CSLAYER2
  6
CONTINUOUS
 62
     7
 10
113.648438
 20
168.609375
 11
116.898438
 21
168.609375
  0
LINE
  8
CSLAYER2
  6
CONTINUOUS
 62
     7
 10
128.898438
 20
168.609375
 11
132.148438
 21
168.609375
  0
LINE
  8
CSLAYER2
  6
CONTINUOUS
 62
     7
 10
132.148438
 20
168.609375
 11
132.148438
 21
144.609375
  0
LINE
  8
CSLAYER2
  6
CONTINUOUS
 62
     7
 10
132.148438
 20
144.609375
 11
72.148438
 21
144.609375
  0
LINE
  8
CSLAYER2
  6
CONTINUOUS
 62
     7
 10
72.148438
 20
144.609375
 11
72.148438
 21
152.609375
  0
LINE
  8
CSLAYER2
  6
CONTINUOUS
 62
     7
 10
72.148438
 20
152.609375
 11
74.648438
 21
152.609375
  0
TEXT
  8
CSLAYER1
 62
     7
 10
71.781975
 20
84.289619
 40
10.000000
 41
0.630000
  1
FM-2146
 50
0.000000
 51
0.000000
  7
SX_FONT
 72
     5
 11
113.781975
 21
84.289619
  0
DIMENSION
  8
CSLAYER1
 62
     7
  2
*D0000
 10
132.148437
 20
184.567147
 11
102.148438
 21
185.567154
 13
72.148438
 23
179.609375
 14
132.148437
 24
179.609375
 70
1
  0
DIMENSION
  8
CSLAYER1
 62
     7
  2
*D0001
 10
142.170059
 20
174.609375
 11
147.071884
 21
159.567810
 13
137.148437
 23
144.609375
 14
137.148437
 24
174.609375
 50
90.000000
 70
1
  0
TEXT
  8
CSLAYER1
 62
     7
 10
130.028748
 20
84.700974
 40
10.000000
 41
0.642857
  1
60x30
 50
0.000000
 51
0.000000
  7
SX_FONT
 72
     5
 11
160.028748
 21
84.700974
  0
TEXT
  8
CSLAYER1
 62
     7
 10
72.919632
 20
72.143158
 40
5.000000
 41
0.612766
  1
カタログ Vol. 1  P59
 50
0.000000
 51
0.000000
  7
SX_FONT
 72
     5
 11
120.919632
 21
72.143158
  0
TEXT
  8
CSLAYER1
 62
     7
 10
72.770506
 20
61.343928
 40
4.960742
 41
0.729057
  1
ホ%%dケットカタロク゛ Vol. 1 P32
 50
0.000000
 51
0.000000
  7
SX_FONT
 72
     5
 11
147.514864
 21
61.343928
  0
ENDSEC
  0
EOF
