  0
SECTION
  2
HEADER
  9
$ACADVER
  1
AC1006
  9
$INSBASE
 10
48.740479
 20
193.327148
 30
0.0
  9
$EXTMIN
 10
48.740479
 20
193.327148
  9
$EXTMAX
 10
258.740479
 20
490.327148
  9
$LIMMIN
 10
48.740479
 20
193.327148
  9
$LIMMAX
 10
258.740479
 20
490.327148
  9
$VIEWCTR
 10
153.740479
 20
341.827148
  9
$VIEWSIZE
 40
297.000000
  9
$SNAPMODE
 70
     0
  9
$SNAPUNIT
 10
1.0
 20
1.0
  9
$SNAPBASE
 10
0.0
 20
0.0
  9
$SNAPANG
 50
0.0
  9
$SNAPSTYLE
 70
     0
  9
$SNAPISOPAIR
 70
     0
  9
$GRIDMODE
 70
     0
  9
$GRIDUNIT
 10
0.0
 20
0.0
  9
$ORTHOMODE
 70
     0
  9
$REGENMODE
 70
     1
  9
$FILLMODE
 70
     1
  9
$QTEXTMODE
 70
     0
  9
$DRAGMODE
 70
     2
  9
$LTSCALE
 40
15.000000
  9
$OSMODE
 70
     0
  9
$ATTMODE
 70
     1
  9
$TEXTSIZE
 40
0.2
  9
$TRACEWID
 40
0.05
  9
$TEXTSTYLE
  7
STANDARD
  9
$CLAYER
  8
CSLAYER3
  9
$CELTYPE
  6
BYLAYER
  9
$CECOLOR
 62
   256
  9
$DIMSCALE
 40
1.0
  9
$DIMASZ
 40
0.18
  9
$DIMEXO
 40
0.0625
  9
$DIMDLI
 40
0.38
  9
$DIMRND
 40
0.0
  9
$DIMDLE
 40
0.0
  9
$DIMEXE
 40
0.18
  9
$DIMTP
 40
0.0
  9
$DIMTM
 40
0.0
  9
$DIMTXT
 40
0.18
  9
$DIMCEN
 40
0.09
  9
$DIMTSZ
 40
0.0
  9
$DIMTOL
 70
     0
  9
$DIMLIM
 70
     0
  9
$DIMTIH
 70
     1
  9
$DIMTOH
 70
     1
  9
$DIMSE1
 70
     0
  9
$DIMSE2
 70
     0
  9
$DIMTAD
 70
     0
  9
$DIMZIN
 70
     0
  9
$DIMBLK
  1

  9
$LUNITS
 70
     2
  9
$LUPREC
 70
     4
  9
$AXISMODE
 70
     0
  9
$AXISUNIT
 10
0.0
 20
0.0
  9
$SKETCHINC
 40
0.1
  9
$FILLETRAD
 40
0.0
  9
$AUNITS
 70
     0
  9
$AUPREC
 70
     0
  9
$MENU
  1
ACAD
  9
$ELEVATION
 40
0.0
  9
$THICKNESS
 40
0.0
  9
$VIEWDIR
 10
0.0
 20
0.0
 30
1.0
  9
$LIMCHECK
 70
     0
  9
$BLIPMODE
 70
     1
  9
$CHAMFERA
 40
0.0
  9
$CHAMFERB
 40
0.0
  9
$FASTZOOM
 70
     1
  9
$SKPOLY
 70
     0
  9
$TDCREATE
 40
0.000000
  9
$TDUPDATE
 40
0.000000
  9
$TDINDWG
 40
0.0
  9
$TDUSRTIMER
 40
0.0
  9
$USRTIMER
 70
     1
  9
$ANGBASE
 50
0.0
  9
$ANGDIR
 70
     0
  9
$PDMODE
 70
     0
  9
$PDSIZE
 40
0.0
  9
$PLINEWID
 40
0.0
  9
$COORDS
 70
     0
  9
$USERI1
 70
     0
  9
$USERI2
 70
     0
  9
$USERI3
 70
     0
  9
$USERI4
 70
     0
  9
$USERI5
 70
     0
  9
$USERR1
 40
0.0
  9
$USERR2
 40
0.0
  9
$USERR3
 40
0.0
  9
$USERR4
 40
0.0
  9
$USERR5
 40
0.0
  0
ENDSEC
  0
SECTION
  2
TABLES
  0
TABLE
  2
LTYPE
 70
     9
  0
LTYPE
  2
CONTINUOUS
 70
    64
  3
Solid line
 72
    65
 73
     0
 40
0.0
  0
LTYPE
  2
DASHED
 70
    64
  3
__ __ __ __ __ __ __ __ __ __ __ __ __ __ __
 72
    65
 73
     2
 40
0.75
 49
0.5
 49
-0.25
  0
LTYPE
  2
HIDDEN
 70
    64
  3
_ _ _ _ _ _ _ _ _ _ _ _ _ _ _ _ _ _ _ _ _ _ _
 72
    65
 73
     2
 40
0.375
 49
0.25
 49
-0.125
  0
LTYPE
  2
DOT
 70
    64
  3
...............................................
 72
    65
 73
     2
 40
0.25
 49
0.0
 49
-0.25
  0
LTYPE
  2
DASHDOT
 70
    64
  3
__ . __ . __ . __ . __ . __ . __ . __ . __ . __
 72
    65
 73
     4
 40
1.0
 49
0.5
 49
-0.25
 49
0.0
 49
-0.25
  0
LTYPE
  2
DIVIDE
 70
    64
  3
__ . . __ . . __ . . __ . . __ . . __ . . __
 72
    65
 73
     6
 40
1.25
 49
0.5
 49
-0.25
 49
0.0
 49
-0.25
 49
0.0
 49
-0.25
  0
LTYPE
  2
CENTER
 70
    64
  3
____ _ ____ _ ____ _ ____ _ ____ _ ____ _ ____ 
 72
    65
 73
     4
 40
2.0
 49
1.25
 49
-0.25
 49
0.25
 49
-0.25
  0
LTYPE
  2
PHANTOM
 70
    64
  3
______  __  __  ______  __  __  ______  __  __ 
 72
    65
 73
     6
 40
2.5
 49
1.25
 49
-0.25
 49
0.25
 49
-0.25
 49
0.25
 49
-0.25
  0
LTYPE
  2
BORDER
 70
    64
  3
__ __ . __ __ . __ __ . __ __ . __ __ . __ __ .
 72
    65
 73
     6
 40
1.75
 49
0.5
 49
-0.25
 49
0.5
 49
-0.25
 49
0.0
 49
-0.25
  0
ENDTAB
  0
TABLE
  2
LAYER
 70
    16
  0
LAYER
  2
CSLAYER1
 70
    64
 62
     7
  6
CONTINUOUS
  0
LAYER
  2
CSLAYER2
 70
    64
 62
     7
  6
CONTINUOUS
  0
LAYER
  2
CSLAYER3
 70
    64
 62
     7
  6
CONTINUOUS
  0
LAYER
  2
CSLAYER4
 70
    64
 62
     7
  6
CONTINUOUS
  0
LAYER
  2
CSLAYER5
 70
    64
 62
     7
  6
CONTINUOUS
  0
LAYER
  2
CSLAYER6
 70
    64
 62
     7
  6
CONTINUOUS
  0
LAYER
  2
CSLAYER7
 70
    64
 62
     7
  6
CONTINUOUS
  0
LAYER
  2
CSLAYER8
 70
    64
 62
     7
  6
CONTINUOUS
  0
LAYER
  2
CSLAYER9
 70
    64
 62
     7
  6
CONTINUOUS
  0
LAYER
  2
CSLAYER10
 70
    64
 62
     7
  6
CONTINUOUS
  0
LAYER
  2
CSLAYER11
 70
    64
 62
     7
  6
CONTINUOUS
  0
LAYER
  2
CSLAYER12
 70
    64
 62
     7
  6
CONTINUOUS
  0
LAYER
  2
CSLAYER13
 70
    64
 62
     7
  6
CONTINUOUS
  0
LAYER
  2
CSLAYER14
 70
    64
 62
     7
  6
CONTINUOUS
  0
LAYER
  2
CSLAYER15
 70
    64
 62
     7
  6
CONTINUOUS
  0
LAYER
  2
CSLAYER16
 70
    64
 62
     7
  6
CONTINUOUS
  0
ENDTAB
  0
TABLE
  2
STYLE
 70
     1
  0
STYLE
  2
SX_FONT
 70
     0
 40
1.0
 41
1.0
 50
0.0
 71
     0
 42
1.0
  3
monotxt
  4
bigfont
  0
ENDTAB
  0
TABLE
  2
VIEW
 70
     0
  0
ENDTAB
  0
ENDSEC
  0
SECTION
  2
BLOCKS
  0
BLOCK
  8
CSLAYER1
  2
*D0000
 70
    65
 10
0.0
 20
0.0
 30
0.0
  0
LINE
  8
CSLAYER1
  6
CONTINUOUS
 62
     7
 10
46.789063
 20
191.906250
 11
46.789063
 21
197.009050
  0
LINE
  8
CSLAYER1
  6
CONTINUOUS
 62
     7
 10
146.789063
 20
191.906250
 11
146.789063
 21
197.009050
  0
LINE
  8
CSLAYER1
  6
CONTINUOUS
 62
     7
 10
46.789063
 20
196.009050
 11
146.789063
 21
196.009050
  0
LINE
  8
CSLAYER1
  6
CONTINUOUS
 62
     7
 10
46.789063
 20
196.009050
 11
50.652766
 21
197.044326
  0
LINE
  8
CSLAYER1
  6
CONTINUOUS
 62
     7
 10
46.789063
 20
196.009050
 11
50.652766
 21
194.973774
  0
LINE
  8
CSLAYER1
  6
CONTINUOUS
 62
     7
 10
146.789063
 20
196.009050
 11
142.925359
 21
197.044326
  0
LINE
  8
CSLAYER1
  6
CONTINUOUS
 62
     7
 10
146.789063
 20
196.009050
 11
142.925359
 21
194.973774
  0
TEXT
  8
CSLAYER1
 62
     7
 10
92.289063
 20
197.009048
 40
4.000000
 41
0.843750
  1
100
 50
0.000000
 51
0.000000
  7
SX_FONT
 72
     5
 11
101.289063
 21
197.009048
  0
ENDBLK
  8
0
  0
BLOCK
  8
CSLAYER1
  2
*D0001
 70
    65
 10
0.0
 20
0.0
 30
0.0
  0
LINE
  8
CSLAYER1
  6
CONTINUOUS
 62
     7
 10
152.789063
 20
125.906250
 11
157.725054
 21
125.906250
  0
LINE
  8
CSLAYER1
  6
CONTINUOUS
 62
     7
 10
152.789063
 20
185.906250
 11
157.725054
 21
185.906250
  0
LINE
  8
CSLAYER1
  6
CONTINUOUS
 62
     7
 10
156.725054
 20
125.906250
 11
156.725054
 21
185.906250
  0
LINE
  8
CSLAYER1
  6
CONTINUOUS
 62
     7
 10
156.725054
 20
125.906250
 11
155.689778
 21
129.769953
  0
LINE
  8
CSLAYER1
  6
CONTINUOUS
 62
     7
 10
156.725054
 20
125.906250
 11
157.760330
 21
129.769953
  0
LINE
  8
CSLAYER1
  6
CONTINUOUS
 62
     7
 10
156.725054
 20
185.906250
 11
155.689778
 21
182.042547
  0
LINE
  8
CSLAYER1
  6
CONTINUOUS
 62
     7
 10
156.725054
 20
185.906250
 11
157.760330
 21
182.042547
  0
TEXT
  8
CSLAYER1
 62
     7
 10
161.755875
 20
152.482956
 40
4.000000
 41
0.900000
  1
60
 50
90.000000
 51
0.000000
  7
SX_FONT
 72
     5
 11
161.755875
 21
158.482956
  0
ENDBLK
  8
0
  0
ENDSEC
  0
SECTION
  2
ENTITIES
  0
LINE
  8
CSLAYER2
  6
CONTINUOUS
 62
     7
 10
146.789063
 20
125.906250
 11
146.789063
 21
180.539500
  0
LINE
  8
CSLAYER2
  6
CONTINUOUS
 62
     7
 10
118.789063
 20
167.906250
 11
118.789063
 21
173.906250
  0
ARC
  8
CSLAYER2
  6
CONTINUOUS
 62
     7
 10
136.789063
 20
173.906250
 40
12.000000
 50
33.557310
 51
180.000000
  0
LINE
  8
CSLAYER2
  6
CONTINUOUS
 62
     7
 10
118.789063
 20
173.906250
 11
124.789063
 21
173.906250
  0
LINE
  8
CSLAYER2
  6
CONTINUOUS
 62
     7
 10
46.789063
 20
125.906250
 11
146.789063
 21
125.906250
  0
ARC
  8
CSLAYER2
  6
CONTINUOUS
 62
     7
 10
78.294856
 20
141.791805
 40
16.000000
 50
54.693937
 51
162.903894
  0
LINE
  8
CSLAYER2
  6
CONTINUOUS
 62
     7
 10
46.789063
 20
135.906250
 11
46.789063
 21
125.906250
  0
ARC
  8
CSLAYER2
  6
CONTINUOUS
 62
     7
 10
56.789063
 20
148.406250
 40
6.500000
 50
270.000000
 51
342.903894
  0
LINE
  8
CSLAYER2
  6
CONTINUOUS
 62
     7
 10
56.789063
 20
135.906250
 11
56.789063
 21
141.906250
  0
LINE
  8
CSLAYER2
  6
CONTINUOUS
 62
     7
 10
46.789063
 20
135.906250
 11
56.789063
 21
135.906250
  0
ARC
  8
CSLAYER2
  6
CONTINUOUS
 62
     7
 10
96.789063
 20
167.906250
 40
16.000000
 50
234.693937
 51
360.000000
  0
LINE
  8
CSLAYER2
  6
CONTINUOUS
 62
     7
 10
112.789063
 20
167.906250
 11
118.789063
 21
167.906250
  0
TEXT
  8
CSLAYER1
 62
     7
 10
46.361259
 20
65.325851
 40
10.000000
 41
0.630000
  1
FM-2143
 50
0.000000
 51
0.000000
  7
SX_FONT
 72
     5
 11
88.361259
 21
65.325851
  0
DIMENSION
  8
CSLAYER1
 62
     7
  2
*D0000
 10
146.789063
 20
196.009050
 11
96.789063
 21
197.009048
 13
46.789063
 23
190.906250
 14
146.789063
 24
190.906250
 70
1
  0
DIMENSION
  8
CSLAYER1
 62
     7
  2
*D0001
 10
156.725054
 20
185.906250
 11
161.755875
 21
155.482956
 13
151.789063
 23
125.906250
 14
151.789063
 24
185.906250
 50
90.000000
 70
1
  0
TEXT
  8
CSLAYER1
 62
     7
 10
99.918793
 20
65.560989
 40
10.000000
 41
0.635294
  1
100x60
 50
0.000000
 51
0.000000
  7
SX_FONT
 72
     5
 11
135.918793
 21
65.560989
  0
TEXT
  8
CSLAYER1
 62
     7
 10
47.364677
 20
53.924953
 40
5.000000
 41
0.612766
  1
カタログ Vol. 1  P58
 50
0.000000
 51
0.000000
  7
SX_FONT
 72
     5
 11
95.364677
 21
53.924953
  0
TEXT
  8
CSLAYER1
 62
     7
 10
47.386420
 20
42.678664
 40
4.960742
 41
0.729057
  1
ホ%%dケットカタロク゛ Vol. 1 P31
 50
0.000000
 51
0.000000
  7
SX_FONT
 72
     5
 11
122.130777
 21
42.678664
  0
ENDSEC
  0
EOF
