  0
SECTION
  2
HEADER
  9
$ACADVER
  1
AC1006
  9
$INSBASE
 10
83.269450
 20
164.387695
 30
0.0
  9
$EXTMIN
 10
83.269450
 20
164.387695
  9
$EXTMAX
 10
293.269450
 20
461.387695
  9
$LIMMIN
 10
83.269450
 20
164.387695
  9
$LIMMAX
 10
293.269450
 20
461.387695
  9
$VIEWCTR
 10
188.269450
 20
312.887695
  9
$VIEWSIZE
 40
297.000000
  9
$SNAPMODE
 70
     0
  9
$SNAPUNIT
 10
1.0
 20
1.0
  9
$SNAPBASE
 10
0.0
 20
0.0
  9
$SNAPANG
 50
0.0
  9
$SNAPSTYLE
 70
     0
  9
$SNAPISOPAIR
 70
     0
  9
$GRIDMODE
 70
     0
  9
$GRIDUNIT
 10
0.0
 20
0.0
  9
$ORTHOMODE
 70
     0
  9
$REGENMODE
 70
     1
  9
$FILLMODE
 70
     1
  9
$QTEXTMODE
 70
     0
  9
$DRAGMODE
 70
     2
  9
$LTSCALE
 40
15.000000
  9
$OSMODE
 70
     0
  9
$ATTMODE
 70
     1
  9
$TEXTSIZE
 40
0.2
  9
$TRACEWID
 40
0.05
  9
$TEXTSTYLE
  7
STANDARD
  9
$CLAYER
  8
CSLAYER3
  9
$CELTYPE
  6
BYLAYER
  9
$CECOLOR
 62
   256
  9
$DIMSCALE
 40
1.0
  9
$DIMASZ
 40
0.18
  9
$DIMEXO
 40
0.0625
  9
$DIMDLI
 40
0.38
  9
$DIMRND
 40
0.0
  9
$DIMDLE
 40
0.0
  9
$DIMEXE
 40
0.18
  9
$DIMTP
 40
0.0
  9
$DIMTM
 40
0.0
  9
$DIMTXT
 40
0.18
  9
$DIMCEN
 40
0.09
  9
$DIMTSZ
 40
0.0
  9
$DIMTOL
 70
     0
  9
$DIMLIM
 70
     0
  9
$DIMTIH
 70
     1
  9
$DIMTOH
 70
     1
  9
$DIMSE1
 70
     0
  9
$DIMSE2
 70
     0
  9
$DIMTAD
 70
     0
  9
$DIMZIN
 70
     0
  9
$DIMBLK
  1

  9
$LUNITS
 70
     2
  9
$LUPREC
 70
     4
  9
$AXISMODE
 70
     0
  9
$AXISUNIT
 10
0.0
 20
0.0
  9
$SKETCHINC
 40
0.1
  9
$FILLETRAD
 40
0.0
  9
$AUNITS
 70
     0
  9
$AUPREC
 70
     0
  9
$MENU
  1
ACAD
  9
$ELEVATION
 40
0.0
  9
$THICKNESS
 40
0.0
  9
$VIEWDIR
 10
0.0
 20
0.0
 30
1.0
  9
$LIMCHECK
 70
     0
  9
$BLIPMODE
 70
     1
  9
$CHAMFERA
 40
0.0
  9
$CHAMFERB
 40
0.0
  9
$FASTZOOM
 70
     1
  9
$SKPOLY
 70
     0
  9
$TDCREATE
 40
0.000000
  9
$TDUPDATE
 40
0.000000
  9
$TDINDWG
 40
0.0
  9
$TDUSRTIMER
 40
0.0
  9
$USRTIMER
 70
     1
  9
$ANGBASE
 50
0.0
  9
$ANGDIR
 70
     0
  9
$PDMODE
 70
     0
  9
$PDSIZE
 40
0.0
  9
$PLINEWID
 40
0.0
  9
$COORDS
 70
     0
  9
$USERI1
 70
     0
  9
$USERI2
 70
     0
  9
$USERI3
 70
     0
  9
$USERI4
 70
     0
  9
$USERI5
 70
     0
  9
$USERR1
 40
0.0
  9
$USERR2
 40
0.0
  9
$USERR3
 40
0.0
  9
$USERR4
 40
0.0
  9
$USERR5
 40
0.0
  0
ENDSEC
  0
SECTION
  2
TABLES
  0
TABLE
  2
LTYPE
 70
     9
  0
LTYPE
  2
CONTINUOUS
 70
    64
  3
Solid line
 72
    65
 73
     0
 40
0.0
  0
LTYPE
  2
DASHED
 70
    64
  3
__ __ __ __ __ __ __ __ __ __ __ __ __ __ __
 72
    65
 73
     2
 40
0.75
 49
0.5
 49
-0.25
  0
LTYPE
  2
HIDDEN
 70
    64
  3
_ _ _ _ _ _ _ _ _ _ _ _ _ _ _ _ _ _ _ _ _ _ _
 72
    65
 73
     2
 40
0.375
 49
0.25
 49
-0.125
  0
LTYPE
  2
DOT
 70
    64
  3
...............................................
 72
    65
 73
     2
 40
0.25
 49
0.0
 49
-0.25
  0
LTYPE
  2
DASHDOT
 70
    64
  3
__ . __ . __ . __ . __ . __ . __ . __ . __ . __
 72
    65
 73
     4
 40
1.0
 49
0.5
 49
-0.25
 49
0.0
 49
-0.25
  0
LTYPE
  2
DIVIDE
 70
    64
  3
__ . . __ . . __ . . __ . . __ . . __ . . __
 72
    65
 73
     6
 40
1.25
 49
0.5
 49
-0.25
 49
0.0
 49
-0.25
 49
0.0
 49
-0.25
  0
LTYPE
  2
CENTER
 70
    64
  3
____ _ ____ _ ____ _ ____ _ ____ _ ____ _ ____ 
 72
    65
 73
     4
 40
2.0
 49
1.25
 49
-0.25
 49
0.25
 49
-0.25
  0
LTYPE
  2
PHANTOM
 70
    64
  3
______  __  __  ______  __  __  ______  __  __ 
 72
    65
 73
     6
 40
2.5
 49
1.25
 49
-0.25
 49
0.25
 49
-0.25
 49
0.25
 49
-0.25
  0
LTYPE
  2
BORDER
 70
    64
  3
__ __ . __ __ . __ __ . __ __ . __ __ . __ __ .
 72
    65
 73
     6
 40
1.75
 49
0.5
 49
-0.25
 49
0.5
 49
-0.25
 49
0.0
 49
-0.25
  0
ENDTAB
  0
TABLE
  2
LAYER
 70
    16
  0
LAYER
  2
CSLAYER1
 70
    64
 62
     7
  6
CONTINUOUS
  0
LAYER
  2
CSLAYER2
 70
    64
 62
     7
  6
CONTINUOUS
  0
LAYER
  2
CSLAYER3
 70
    64
 62
     7
  6
CONTINUOUS
  0
LAYER
  2
CSLAYER4
 70
    64
 62
     7
  6
CONTINUOUS
  0
LAYER
  2
CSLAYER5
 70
    64
 62
     7
  6
CONTINUOUS
  0
LAYER
  2
CSLAYER6
 70
    64
 62
     7
  6
CONTINUOUS
  0
LAYER
  2
CSLAYER7
 70
    64
 62
     7
  6
CONTINUOUS
  0
LAYER
  2
CSLAYER8
 70
    64
 62
     7
  6
CONTINUOUS
  0
LAYER
  2
CSLAYER9
 70
    64
 62
     7
  6
CONTINUOUS
  0
LAYER
  2
CSLAYER10
 70
    64
 62
     7
  6
CONTINUOUS
  0
LAYER
  2
CSLAYER11
 70
    64
 62
     7
  6
CONTINUOUS
  0
LAYER
  2
CSLAYER12
 70
    64
 62
     7
  6
CONTINUOUS
  0
LAYER
  2
CSLAYER13
 70
    64
 62
     7
  6
CONTINUOUS
  0
LAYER
  2
CSLAYER14
 70
    64
 62
     7
  6
CONTINUOUS
  0
LAYER
  2
CSLAYER15
 70
    64
 62
     7
  6
CONTINUOUS
  0
LAYER
  2
CSLAYER16
 70
    64
 62
     7
  6
CONTINUOUS
  0
ENDTAB
  0
TABLE
  2
STYLE
 70
     1
  0
STYLE
  2
SX_FONT
 70
     0
 40
1.0
 41
1.0
 50
0.0
 71
     0
 42
1.0
  3
monotxt
  4
bigfont
  0
ENDTAB
  0
TABLE
  2
VIEW
 70
     0
  0
ENDTAB
  0
ENDSEC
  0
SECTION
  2
BLOCKS
  0
BLOCK
  8
CSLAYER1
  2
*D0000
 70
    65
 10
0.0
 20
0.0
 30
0.0
  0
LINE
  8
CSLAYER1
  6
CONTINUOUS
 62
     7
 10
124.054688
 20
132.718750
 11
129.236393
 21
132.718750
  0
LINE
  8
CSLAYER1
  6
CONTINUOUS
 62
     7
 10
124.054688
 20
153.718750
 11
129.236393
 21
153.718750
  0
LINE
  8
CSLAYER1
  6
CONTINUOUS
 62
     7
 10
128.236393
 20
132.718750
 11
128.236393
 21
153.718750
  0
LINE
  8
CSLAYER1
  6
CONTINUOUS
 62
     7
 10
128.236393
 20
132.718750
 11
127.201117
 21
136.582453
  0
LINE
  8
CSLAYER1
  6
CONTINUOUS
 62
     7
 10
128.236393
 20
132.718750
 11
129.271669
 21
136.582453
  0
LINE
  8
CSLAYER1
  6
CONTINUOUS
 62
     7
 10
128.236393
 20
153.718750
 11
127.201117
 21
149.855047
  0
LINE
  8
CSLAYER1
  6
CONTINUOUS
 62
     7
 10
128.236393
 20
153.718750
 11
129.271669
 21
149.855047
  0
TEXT
  8
CSLAYER1
 62
     7
 10
133.247147
 20
139.789795
 40
4.000000
 41
0.900000
  1
21
 50
90.000000
 51
0.000000
  7
SX_FONT
 72
     5
 11
133.247147
 21
145.789795
  0
ENDBLK
  8
0
  0
BLOCK
  8
CSLAYER1
  2
*D0001
 70
    65
 10
0.0
 20
0.0
 30
0.0
  0
LINE
  8
CSLAYER1
  6
CONTINUOUS
 62
     7
 10
83.054688
 20
159.718750
 11
83.054688
 21
164.486413
  0
LINE
  8
CSLAYER1
  6
CONTINUOUS
 62
     7
 10
118.054688
 20
159.718750
 11
118.054688
 21
164.486413
  0
LINE
  8
CSLAYER1
  6
CONTINUOUS
 62
     7
 10
83.054688
 20
163.486413
 11
118.054688
 21
163.486413
  0
LINE
  8
CSLAYER1
  6
CONTINUOUS
 62
     7
 10
83.054688
 20
163.486413
 11
86.918391
 21
164.521689
  0
LINE
  8
CSLAYER1
  6
CONTINUOUS
 62
     7
 10
83.054688
 20
163.486413
 11
86.918391
 21
162.451137
  0
LINE
  8
CSLAYER1
  6
CONTINUOUS
 62
     7
 10
118.054688
 20
163.486413
 11
114.190984
 21
164.521689
  0
LINE
  8
CSLAYER1
  6
CONTINUOUS
 62
     7
 10
118.054688
 20
163.486413
 11
114.190984
 21
162.451137
  0
TEXT
  8
CSLAYER1
 62
     7
 10
97.554688
 20
164.486420
 40
4.000000
 41
0.900000
  1
35
 50
0.000000
 51
0.000000
  7
SX_FONT
 72
     5
 11
103.554688
 21
164.486420
  0
ENDBLK
  8
0
  0
ENDSEC
  0
SECTION
  2
ENTITIES
  0
ARC
  8
CSLAYER2
  6
CONTINUOUS
 62
     7
 10
93.590307
 20
138.718750
 40
5.500000
 50
50.718909
 51
166.063933
  0
LINE
  8
CSLAYER2
  6
CONTINUOUS
 62
     7
 10
83.054688
 20
132.718750
 11
118.054688
 21
132.718750
  0
LINE
  8
CSLAYER2
  6
CONTINUOUS
 62
     7
 10
86.554688
 20
136.218750
 11
86.554688
 21
138.718750
  0
LINE
  8
CSLAYER2
  6
CONTINUOUS
 62
     7
 10
83.054688
 20
136.218750
 11
83.054688
 21
132.718750
  0
LINE
  8
CSLAYER2
  6
CONTINUOUS
 62
     7
 10
83.054688
 20
136.218750
 11
86.554688
 21
136.218750
  0
ARC
  8
CSLAYER2
  6
CONTINUOUS
 62
     7
 10
86.554688
 20
140.468750
 40
1.750000
 50
270.000000
 51
346.132295
  0
LINE
  8
CSLAYER2
  6
CONTINUOUS
 62
     7
 10
118.054688
 20
132.718750
 11
118.054688
 21
152.364501
  0
ARC
  8
CSLAYER2
  6
CONTINUOUS
 62
     7
 10
100.554688
 20
147.233291
 40
5.500000
 50
230.718909
 51
359.848519
  0
ARC
  8
CSLAYER2
  6
CONTINUOUS
 62
     7
 10
115.054688
 20
149.718750
 40
4.000000
 50
41.409622
 51
180.000000
  0
LINE
  8
CSLAYER2
  6
CONTINUOUS
 62
     7
 10
111.054688
 20
149.218750
 11
111.054688
 21
149.718750
  0
LINE
  8
CSLAYER2
  6
CONTINUOUS
 62
     7
 10
108.554688
 20
147.218750
 11
108.554688
 21
149.218750
  0
LINE
  8
CSLAYER2
  6
CONTINUOUS
 62
     7
 10
106.054668
 20
147.218750
 11
108.554688
 21
147.218750
  0
LINE
  8
CSLAYER2
  6
CONTINUOUS
 62
     7
 10
111.054688
 20
149.218750
 11
108.554688
 21
149.218750
  0
TEXT
  8
CSLAYER1
 62
     7
 10
83.064781
 20
72.363274
 40
10.000000
 41
0.630000
  1
FM-2141
 50
0.000000
 51
0.000000
  7
SX_FONT
 72
     5
 11
125.064781
 21
72.363274
  0
DIMENSION
  8
CSLAYER1
 62
     7
  2
*D0000
 10
128.236393
 20
153.718750
 11
133.247147
 21
142.789795
 13
123.054688
 23
132.718750
 14
123.054688
 24
153.718750
 50
90.000000
 70
1
  0
DIMENSION
  8
CSLAYER1
 62
     7
  2
*D0001
 10
118.054688
 20
163.486413
 11
100.554688
 21
164.486420
 13
83.054688
 23
158.718750
 14
118.054688
 24
158.718750
 70
1
  0
TEXT
  8
CSLAYER1
 62
     7
 10
139.576538
 20
72.798851
 40
10.000000
 41
0.642857
  1
35x21
 50
0.000000
 51
0.000000
  7
SX_FONT
 72
     5
 11
169.576538
 21
72.798851
  0
TEXT
  8
CSLAYER1
 62
     7
 10
83.986862
 20
60.878727
 40
5.000000
 41
0.612766
  1
カタログ Vol. 1  P58
 50
0.000000
 51
0.000000
  7
SX_FONT
 72
     5
 11
131.986862
 21
60.878727
  0
TEXT
  8
CSLAYER1
 62
     7
 10
84.026488
 20
50.715316
 40
4.960742
 41
0.729057
  1
ホ%%dケットカタロク゛ Vol. 1 P31
 50
0.000000
 51
0.000000
  7
SX_FONT
 72
     5
 11
158.770845
 21
50.715316
  0
ENDSEC
  0
EOF
