  0
SECTION
  2
HEADER
  9
$ACADVER
  1
AC1006
  9
$INSBASE
 10
68.289175
 20
180.915501
 30
0.0
  9
$EXTMIN
 10
68.289175
 20
180.915501
  9
$EXTMAX
 10
278.289175
 20
477.915501
  9
$LIMMIN
 10
68.289175
 20
180.915501
  9
$LIMMAX
 10
278.289175
 20
477.915501
  9
$VIEWCTR
 10
173.289175
 20
329.415501
  9
$VIEWSIZE
 40
297.000000
  9
$SNAPMODE
 70
     0
  9
$SNAPUNIT
 10
1.0
 20
1.0
  9
$SNAPBASE
 10
0.0
 20
0.0
  9
$SNAPANG
 50
0.0
  9
$SNAPSTYLE
 70
     0
  9
$SNAPISOPAIR
 70
     0
  9
$GRIDMODE
 70
     0
  9
$GRIDUNIT
 10
0.0
 20
0.0
  9
$ORTHOMODE
 70
     0
  9
$REGENMODE
 70
     1
  9
$FILLMODE
 70
     1
  9
$QTEXTMODE
 70
     0
  9
$DRAGMODE
 70
     2
  9
$LTSCALE
 40
15.000000
  9
$OSMODE
 70
     0
  9
$ATTMODE
 70
     1
  9
$TEXTSIZE
 40
0.2
  9
$TRACEWID
 40
0.05
  9
$TEXTSTYLE
  7
STANDARD
  9
$CLAYER
  8
CSLAYER3
  9
$CELTYPE
  6
BYLAYER
  9
$CECOLOR
 62
   256
  9
$DIMSCALE
 40
1.0
  9
$DIMASZ
 40
0.18
  9
$DIMEXO
 40
0.0625
  9
$DIMDLI
 40
0.38
  9
$DIMRND
 40
0.0
  9
$DIMDLE
 40
0.0
  9
$DIMEXE
 40
0.18
  9
$DIMTP
 40
0.0
  9
$DIMTM
 40
0.0
  9
$DIMTXT
 40
0.18
  9
$DIMCEN
 40
0.09
  9
$DIMTSZ
 40
0.0
  9
$DIMTOL
 70
     0
  9
$DIMLIM
 70
     0
  9
$DIMTIH
 70
     1
  9
$DIMTOH
 70
     1
  9
$DIMSE1
 70
     0
  9
$DIMSE2
 70
     0
  9
$DIMTAD
 70
     0
  9
$DIMZIN
 70
     0
  9
$DIMBLK
  1

  9
$LUNITS
 70
     2
  9
$LUPREC
 70
     4
  9
$AXISMODE
 70
     0
  9
$AXISUNIT
 10
0.0
 20
0.0
  9
$SKETCHINC
 40
0.1
  9
$FILLETRAD
 40
0.0
  9
$AUNITS
 70
     0
  9
$AUPREC
 70
     0
  9
$MENU
  1
ACAD
  9
$ELEVATION
 40
0.0
  9
$THICKNESS
 40
0.0
  9
$VIEWDIR
 10
0.0
 20
0.0
 30
1.0
  9
$LIMCHECK
 70
     0
  9
$BLIPMODE
 70
     1
  9
$CHAMFERA
 40
0.0
  9
$CHAMFERB
 40
0.0
  9
$FASTZOOM
 70
     1
  9
$SKPOLY
 70
     0
  9
$TDCREATE
 40
0.000000
  9
$TDUPDATE
 40
0.000000
  9
$TDINDWG
 40
0.0
  9
$TDUSRTIMER
 40
0.0
  9
$USRTIMER
 70
     1
  9
$ANGBASE
 50
0.0
  9
$ANGDIR
 70
     0
  9
$PDMODE
 70
     0
  9
$PDSIZE
 40
0.0
  9
$PLINEWID
 40
0.0
  9
$COORDS
 70
     0
  9
$USERI1
 70
     0
  9
$USERI2
 70
     0
  9
$USERI3
 70
     0
  9
$USERI4
 70
     0
  9
$USERI5
 70
     0
  9
$USERR1
 40
0.0
  9
$USERR2
 40
0.0
  9
$USERR3
 40
0.0
  9
$USERR4
 40
0.0
  9
$USERR5
 40
0.0
  0
ENDSEC
  0
SECTION
  2
TABLES
  0
TABLE
  2
LTYPE
 70
     9
  0
LTYPE
  2
CONTINUOUS
 70
    64
  3
Solid line
 72
    65
 73
     0
 40
0.0
  0
LTYPE
  2
DASHED
 70
    64
  3
__ __ __ __ __ __ __ __ __ __ __ __ __ __ __
 72
    65
 73
     2
 40
0.75
 49
0.5
 49
-0.25
  0
LTYPE
  2
HIDDEN
 70
    64
  3
_ _ _ _ _ _ _ _ _ _ _ _ _ _ _ _ _ _ _ _ _ _ _
 72
    65
 73
     2
 40
0.375
 49
0.25
 49
-0.125
  0
LTYPE
  2
DOT
 70
    64
  3
...............................................
 72
    65
 73
     2
 40
0.25
 49
0.0
 49
-0.25
  0
LTYPE
  2
DASHDOT
 70
    64
  3
__ . __ . __ . __ . __ . __ . __ . __ . __ . __
 72
    65
 73
     4
 40
1.0
 49
0.5
 49
-0.25
 49
0.0
 49
-0.25
  0
LTYPE
  2
DIVIDE
 70
    64
  3
__ . . __ . . __ . . __ . . __ . . __ . . __
 72
    65
 73
     6
 40
1.25
 49
0.5
 49
-0.25
 49
0.0
 49
-0.25
 49
0.0
 49
-0.25
  0
LTYPE
  2
CENTER
 70
    64
  3
____ _ ____ _ ____ _ ____ _ ____ _ ____ _ ____ 
 72
    65
 73
     4
 40
2.0
 49
1.25
 49
-0.25
 49
0.25
 49
-0.25
  0
LTYPE
  2
PHANTOM
 70
    64
  3
______  __  __  ______  __  __  ______  __  __ 
 72
    65
 73
     6
 40
2.5
 49
1.25
 49
-0.25
 49
0.25
 49
-0.25
 49
0.25
 49
-0.25
  0
LTYPE
  2
BORDER
 70
    64
  3
__ __ . __ __ . __ __ . __ __ . __ __ . __ __ .
 72
    65
 73
     6
 40
1.75
 49
0.5
 49
-0.25
 49
0.5
 49
-0.25
 49
0.0
 49
-0.25
  0
ENDTAB
  0
TABLE
  2
LAYER
 70
    16
  0
LAYER
  2
CSLAYER1
 70
    64
 62
     7
  6
CONTINUOUS
  0
LAYER
  2
CSLAYER2
 70
    64
 62
     7
  6
CONTINUOUS
  0
LAYER
  2
CSLAYER3
 70
    64
 62
     7
  6
CONTINUOUS
  0
LAYER
  2
CSLAYER4
 70
    64
 62
     7
  6
CONTINUOUS
  0
LAYER
  2
CSLAYER5
 70
    64
 62
     7
  6
CONTINUOUS
  0
LAYER
  2
CSLAYER6
 70
    64
 62
     7
  6
CONTINUOUS
  0
LAYER
  2
CSLAYER7
 70
    64
 62
     7
  6
CONTINUOUS
  0
LAYER
  2
CSLAYER8
 70
    64
 62
     7
  6
CONTINUOUS
  0
LAYER
  2
CSLAYER9
 70
    64
 62
     7
  6
CONTINUOUS
  0
LAYER
  2
CSLAYER10
 70
    64
 62
     7
  6
CONTINUOUS
  0
LAYER
  2
CSLAYER11
 70
    64
 62
     7
  6
CONTINUOUS
  0
LAYER
  2
CSLAYER12
 70
    64
 62
     7
  6
CONTINUOUS
  0
LAYER
  2
CSLAYER13
 70
    64
 62
     7
  6
CONTINUOUS
  0
LAYER
  2
CSLAYER14
 70
    64
 62
     7
  6
CONTINUOUS
  0
LAYER
  2
CSLAYER15
 70
    64
 62
     7
  6
CONTINUOUS
  0
LAYER
  2
CSLAYER16
 70
    64
 62
     7
  6
CONTINUOUS
  0
ENDTAB
  0
TABLE
  2
STYLE
 70
     1
  0
STYLE
  2
SX_FONT
 70
     0
 40
1.0
 41
1.0
 50
0.0
 71
     0
 42
1.0
  3
monotxt
  4
bigfont
  0
ENDTAB
  0
TABLE
  2
VIEW
 70
     0
  0
ENDTAB
  0
ENDSEC
  0
SECTION
  2
BLOCKS
  0
BLOCK
  8
CSLAYER1
  2
*D0000
 70
    65
 10
0.0
 20
0.0
 30
0.0
  0
LINE
  8
CSLAYER1
  6
CONTINUOUS
 62
     7
 10
68.445313
 20
177.171875
 11
68.445313
 21
182.097168
  0
LINE
  8
CSLAYER1
  6
CONTINUOUS
 62
     7
 10
128.445313
 20
177.171875
 11
128.445313
 21
182.097168
  0
LINE
  8
CSLAYER1
  6
CONTINUOUS
 62
     7
 10
68.445313
 20
181.097168
 11
128.445313
 21
181.097168
  0
LINE
  8
CSLAYER1
  6
CONTINUOUS
 62
     7
 10
68.445313
 20
181.097168
 11
72.309016
 21
182.132444
  0
LINE
  8
CSLAYER1
  6
CONTINUOUS
 62
     7
 10
68.445313
 20
181.097168
 11
72.309016
 21
180.061892
  0
LINE
  8
CSLAYER1
  6
CONTINUOUS
 62
     7
 10
128.445313
 20
181.097168
 11
124.581609
 21
182.132444
  0
LINE
  8
CSLAYER1
  6
CONTINUOUS
 62
     7
 10
128.445313
 20
181.097168
 11
124.581609
 21
180.061892
  0
TEXT
  8
CSLAYER1
 62
     7
 10
95.445313
 20
182.097168
 40
4.000000
 41
0.900000
  1
60
 50
0.000000
 51
0.000000
  7
SX_FONT
 72
     5
 11
101.445313
 21
182.097168
  0
ENDBLK
  8
0
  0
BLOCK
  8
CSLAYER1
  2
*D0001
 70
    65
 10
0.0
 20
0.0
 30
0.0
  0
LINE
  8
CSLAYER1
  6
CONTINUOUS
 62
     7
 10
134.445313
 20
131.171875
 11
139.435639
 21
131.171875
  0
LINE
  8
CSLAYER1
  6
CONTINUOUS
 62
     7
 10
134.445313
 20
171.171875
 11
139.435639
 21
171.171875
  0
LINE
  8
CSLAYER1
  6
CONTINUOUS
 62
     7
 10
138.435639
 20
131.171875
 11
138.435639
 21
171.171875
  0
LINE
  8
CSLAYER1
  6
CONTINUOUS
 62
     7
 10
138.435639
 20
131.171875
 11
137.400363
 21
135.035578
  0
LINE
  8
CSLAYER1
  6
CONTINUOUS
 62
     7
 10
138.435639
 20
131.171875
 11
139.470915
 21
135.035578
  0
LINE
  8
CSLAYER1
  6
CONTINUOUS
 62
     7
 10
138.435639
 20
171.171875
 11
137.400363
 21
167.308172
  0
LINE
  8
CSLAYER1
  6
CONTINUOUS
 62
     7
 10
138.435639
 20
171.171875
 11
139.470915
 21
167.308172
  0
TEXT
  8
CSLAYER1
 62
     7
 10
143.827652
 20
147.950912
 40
4.000000
 41
0.900000
  1
40
 50
90.000000
 51
0.000000
  7
SX_FONT
 72
     5
 11
143.827652
 21
153.950912
  0
ENDBLK
  8
0
  0
ENDSEC
  0
SECTION
  2
ENTITIES
  0
LINE
  8
CSLAYER2
  6
CONTINUOUS
 62
     7
 10
82.445313
 20
143.171875
 11
84.945313
 21
143.171875
  0
LINE
  8
CSLAYER2
  6
CONTINUOUS
 62
     7
 10
75.445313
 20
143.171875
 11
72.945313
 21
143.171875
  0
ARC
  8
CSLAYER2
  6
CONTINUOUS
 62
     7
 10
78.945313
 20
143.171875
 40
3.500000
 50
0.000000
 51
90.000000
  0
ARC
  8
CSLAYER2
  6
CONTINUOUS
 62
     7
 10
78.945313
 20
143.171875
 40
3.500000
 50
90.000000
 51
180.000000
  0
ARC
  8
CSLAYER2
  6
CONTINUOUS
 62
     7
 10
68.445312
 20
140.171875
 40
3.000000
 50
270.000000
 51
314.075995
  0
ARC
  8
CSLAYER2
  6
CONTINUOUS
 62
     7
 10
64.967253
 20
143.763964
 40
8.000000
 50
314.075995
 51
355.755594
  0
LINE
  8
CSLAYER2
  6
CONTINUOUS
 62
     7
 10
115.445313
 20
164.171875
 11
115.445313
 21
164.671875
  0
LINE
  8
CSLAYER2
  6
CONTINUOUS
 62
     7
 10
112.445313
 20
164.171875
 11
115.445313
 21
164.171875
  0
LINE
  8
CSLAYER2
  6
CONTINUOUS
 62
     7
 10
68.445313
 20
137.171875
 11
68.445313
 21
131.171875
  0
LINE
  8
CSLAYER2
  6
CONTINUOUS
 62
     7
 10
68.445313
 20
131.171875
 11
128.445313
 21
131.171875
  0
LINE
  8
CSLAYER2
  6
CONTINUOUS
 62
     7
 10
128.445313
 20
131.171875
 11
128.445313
 21
164.671875
  0
ARC
  8
CSLAYER2
  6
CONTINUOUS
 62
     7
 10
63.357608
 20
173.679624
 40
50.000000
 50
325.273502
 51
349.038172
  0
ARC
  8
CSLAYER2
  6
CONTINUOUS
 62
     7
 10
90.443915
 20
145.572993
 40
6.000000
 50
203.589824
 51
251.779509
  0
ARC
  8
CSLAYER2
  6
CONTINUOUS
 62
     7
 10
92.945313
 20
153.171875
 40
14.000000
 50
251.779509
 51
270.000000
  0
ARC
  8
CSLAYER2
  6
CONTINUOUS
 62
     7
 10
92.945313
 20
153.171875
 40
14.000000
 50
270.000000
 51
325.273502
  0
ARC
  8
CSLAYER2
  6
CONTINUOUS
 62
     7
 10
121.945313
 20
164.671875
 40
6.500000
 50
0.000000
 51
90.000000
  0
ARC
  8
CSLAYER2
  6
CONTINUOUS
 62
     7
 10
121.945313
 20
164.671875
 40
6.500000
 50
90.000000
 51
180.000000
  0
TEXT
  8
CSLAYER1
 62
     7
 10
68.514091
 20
80.580284
 40
10.000000
 41
0.630000
  1
FM-2140
 50
0.000000
 51
0.000000
  7
SX_FONT
 72
     5
 11
110.514091
 21
80.580284
  0
DIMENSION
  8
CSLAYER1
 62
     7
  2
*D0000
 10
128.445313
 20
181.097168
 11
98.445313
 21
182.097168
 13
68.445313
 23
176.171875
 14
128.445313
 24
176.171875
 70
1
  0
DIMENSION
  8
CSLAYER1
 62
     7
  2
*D0001
 10
138.435639
 20
171.171875
 11
143.827652
 21
150.950912
 13
133.445313
 23
131.171875
 14
133.445313
 24
171.171875
 50
90.000000
 70
1
  0
TEXT
  8
CSLAYER1
 62
     7
 10
125.660812
 20
80.343796
 40
10.000000
 41
0.642857
  1
60x40
 50
0.000000
 51
0.000000
  7
SX_FONT
 72
     5
 11
155.660812
 21
80.343796
  0
TEXT
  8
CSLAYER1
 62
     7
 10
69.932274
 20
68.153893
 40
5.000000
 41
0.612766
  1
カタログ Vol. 1  P58
 50
0.000000
 51
0.000000
  7
SX_FONT
 72
     5
 11
117.932274
 21
68.153893
  0
TEXT
  8
CSLAYER1
 62
     7
 10
69.919256
 20
57.533484
 40
4.960742
 41
0.729057
  1
ホ%%dケットカタロク゛ Vol. 1 P31
 50
0.000000
 51
0.000000
  7
SX_FONT
 72
     5
 11
144.663614
 21
57.533484
  0
ENDSEC
  0
EOF
