  0
SECTION
  2
HEADER
  9
$ACADVER
  1
AC1006
  9
$INSBASE
 10
78.211670
 20
182.031738
 30
0.0
  9
$EXTMIN
 10
78.211670
 20
182.031738
  9
$EXTMAX
 10
288.211670
 20
479.031738
  9
$LIMMIN
 10
78.211670
 20
182.031738
  9
$LIMMAX
 10
288.211670
 20
479.031738
  9
$VIEWCTR
 10
183.211670
 20
330.531738
  9
$VIEWSIZE
 40
297.000000
  9
$SNAPMODE
 70
     0
  9
$SNAPUNIT
 10
1.0
 20
1.0
  9
$SNAPBASE
 10
0.0
 20
0.0
  9
$SNAPANG
 50
0.0
  9
$SNAPSTYLE
 70
     0
  9
$SNAPISOPAIR
 70
     0
  9
$GRIDMODE
 70
     0
  9
$GRIDUNIT
 10
0.0
 20
0.0
  9
$ORTHOMODE
 70
     0
  9
$REGENMODE
 70
     1
  9
$FILLMODE
 70
     1
  9
$QTEXTMODE
 70
     0
  9
$DRAGMODE
 70
     2
  9
$LTSCALE
 40
15.000000
  9
$OSMODE
 70
     0
  9
$ATTMODE
 70
     1
  9
$TEXTSIZE
 40
0.2
  9
$TRACEWID
 40
0.05
  9
$TEXTSTYLE
  7
STANDARD
  9
$CLAYER
  8
CSLAYER3
  9
$CELTYPE
  6
BYLAYER
  9
$CECOLOR
 62
   256
  9
$DIMSCALE
 40
1.0
  9
$DIMASZ
 40
0.18
  9
$DIMEXO
 40
0.0625
  9
$DIMDLI
 40
0.38
  9
$DIMRND
 40
0.0
  9
$DIMDLE
 40
0.0
  9
$DIMEXE
 40
0.18
  9
$DIMTP
 40
0.0
  9
$DIMTM
 40
0.0
  9
$DIMTXT
 40
0.18
  9
$DIMCEN
 40
0.09
  9
$DIMTSZ
 40
0.0
  9
$DIMTOL
 70
     0
  9
$DIMLIM
 70
     0
  9
$DIMTIH
 70
     1
  9
$DIMTOH
 70
     1
  9
$DIMSE1
 70
     0
  9
$DIMSE2
 70
     0
  9
$DIMTAD
 70
     0
  9
$DIMZIN
 70
     0
  9
$DIMBLK
  1

  9
$LUNITS
 70
     2
  9
$LUPREC
 70
     4
  9
$AXISMODE
 70
     0
  9
$AXISUNIT
 10
0.0
 20
0.0
  9
$SKETCHINC
 40
0.1
  9
$FILLETRAD
 40
0.0
  9
$AUNITS
 70
     0
  9
$AUPREC
 70
     0
  9
$MENU
  1
ACAD
  9
$ELEVATION
 40
0.0
  9
$THICKNESS
 40
0.0
  9
$VIEWDIR
 10
0.0
 20
0.0
 30
1.0
  9
$LIMCHECK
 70
     0
  9
$BLIPMODE
 70
     1
  9
$CHAMFERA
 40
0.0
  9
$CHAMFERB
 40
0.0
  9
$FASTZOOM
 70
     1
  9
$SKPOLY
 70
     0
  9
$TDCREATE
 40
0.000000
  9
$TDUPDATE
 40
0.000000
  9
$TDINDWG
 40
0.0
  9
$TDUSRTIMER
 40
0.0
  9
$USRTIMER
 70
     1
  9
$ANGBASE
 50
0.0
  9
$ANGDIR
 70
     0
  9
$PDMODE
 70
     0
  9
$PDSIZE
 40
0.0
  9
$PLINEWID
 40
0.0
  9
$COORDS
 70
     0
  9
$USERI1
 70
     0
  9
$USERI2
 70
     0
  9
$USERI3
 70
     0
  9
$USERI4
 70
     0
  9
$USERI5
 70
     0
  9
$USERR1
 40
0.0
  9
$USERR2
 40
0.0
  9
$USERR3
 40
0.0
  9
$USERR4
 40
0.0
  9
$USERR5
 40
0.0
  0
ENDSEC
  0
SECTION
  2
TABLES
  0
TABLE
  2
LTYPE
 70
     9
  0
LTYPE
  2
CONTINUOUS
 70
    64
  3
Solid line
 72
    65
 73
     0
 40
0.0
  0
LTYPE
  2
DASHED
 70
    64
  3
__ __ __ __ __ __ __ __ __ __ __ __ __ __ __
 72
    65
 73
     2
 40
0.75
 49
0.5
 49
-0.25
  0
LTYPE
  2
HIDDEN
 70
    64
  3
_ _ _ _ _ _ _ _ _ _ _ _ _ _ _ _ _ _ _ _ _ _ _
 72
    65
 73
     2
 40
0.375
 49
0.25
 49
-0.125
  0
LTYPE
  2
DOT
 70
    64
  3
...............................................
 72
    65
 73
     2
 40
0.25
 49
0.0
 49
-0.25
  0
LTYPE
  2
DASHDOT
 70
    64
  3
__ . __ . __ . __ . __ . __ . __ . __ . __ . __
 72
    65
 73
     4
 40
1.0
 49
0.5
 49
-0.25
 49
0.0
 49
-0.25
  0
LTYPE
  2
DIVIDE
 70
    64
  3
__ . . __ . . __ . . __ . . __ . . __ . . __
 72
    65
 73
     6
 40
1.25
 49
0.5
 49
-0.25
 49
0.0
 49
-0.25
 49
0.0
 49
-0.25
  0
LTYPE
  2
CENTER
 70
    64
  3
____ _ ____ _ ____ _ ____ _ ____ _ ____ _ ____ 
 72
    65
 73
     4
 40
2.0
 49
1.25
 49
-0.25
 49
0.25
 49
-0.25
  0
LTYPE
  2
PHANTOM
 70
    64
  3
______  __  __  ______  __  __  ______  __  __ 
 72
    65
 73
     6
 40
2.5
 49
1.25
 49
-0.25
 49
0.25
 49
-0.25
 49
0.25
 49
-0.25
  0
LTYPE
  2
BORDER
 70
    64
  3
__ __ . __ __ . __ __ . __ __ . __ __ . __ __ .
 72
    65
 73
     6
 40
1.75
 49
0.5
 49
-0.25
 49
0.5
 49
-0.25
 49
0.0
 49
-0.25
  0
ENDTAB
  0
TABLE
  2
LAYER
 70
    16
  0
LAYER
  2
CSLAYER1
 70
    64
 62
     7
  6
CONTINUOUS
  0
LAYER
  2
CSLAYER2
 70
    64
 62
     7
  6
CONTINUOUS
  0
LAYER
  2
CSLAYER3
 70
    64
 62
     7
  6
CONTINUOUS
  0
LAYER
  2
CSLAYER4
 70
    64
 62
     7
  6
CONTINUOUS
  0
LAYER
  2
CSLAYER5
 70
    64
 62
     7
  6
CONTINUOUS
  0
LAYER
  2
CSLAYER6
 70
    64
 62
     7
  6
CONTINUOUS
  0
LAYER
  2
CSLAYER7
 70
    64
 62
     7
  6
CONTINUOUS
  0
LAYER
  2
CSLAYER8
 70
    64
 62
     7
  6
CONTINUOUS
  0
LAYER
  2
CSLAYER9
 70
    64
 62
     7
  6
CONTINUOUS
  0
LAYER
  2
CSLAYER10
 70
    64
 62
     7
  6
CONTINUOUS
  0
LAYER
  2
CSLAYER11
 70
    64
 62
     7
  6
CONTINUOUS
  0
LAYER
  2
CSLAYER12
 70
    64
 62
     7
  6
CONTINUOUS
  0
LAYER
  2
CSLAYER13
 70
    64
 62
     7
  6
CONTINUOUS
  0
LAYER
  2
CSLAYER14
 70
    64
 62
     7
  6
CONTINUOUS
  0
LAYER
  2
CSLAYER15
 70
    64
 62
     7
  6
CONTINUOUS
  0
LAYER
  2
CSLAYER16
 70
    64
 62
     7
  6
CONTINUOUS
  0
ENDTAB
  0
TABLE
  2
STYLE
 70
     1
  0
STYLE
  2
SX_FONT
 70
     0
 40
1.0
 41
1.0
 50
0.0
 71
     0
 42
1.0
  3
monotxt
  4
bigfont
  0
ENDTAB
  0
TABLE
  2
VIEW
 70
     0
  0
ENDTAB
  0
ENDSEC
  0
SECTION
  2
BLOCKS
  0
BLOCK
  8
CSLAYER1
  2
*D0000
 70
    65
 10
0.0
 20
0.0
 30
0.0
  0
LINE
  8
CSLAYER1
  6
CONTINUOUS
 62
     7
 10
77.445313
 20
178.546875
 11
77.445313
 21
183.262428
  0
LINE
  8
CSLAYER1
  6
CONTINUOUS
 62
     7
 10
122.445313
 20
178.546875
 11
122.445313
 21
183.262428
  0
LINE
  8
CSLAYER1
  6
CONTINUOUS
 62
     7
 10
77.445313
 20
182.262428
 11
122.445313
 21
182.262428
  0
LINE
  8
CSLAYER1
  6
CONTINUOUS
 62
     7
 10
77.445313
 20
182.262428
 11
81.309016
 21
183.297704
  0
LINE
  8
CSLAYER1
  6
CONTINUOUS
 62
     7
 10
77.445313
 20
182.262428
 11
81.309016
 21
181.227151
  0
LINE
  8
CSLAYER1
  6
CONTINUOUS
 62
     7
 10
122.445313
 20
182.262428
 11
118.581609
 21
183.297704
  0
LINE
  8
CSLAYER1
  6
CONTINUOUS
 62
     7
 10
122.445313
 20
182.262428
 11
118.581609
 21
181.227151
  0
TEXT
  8
CSLAYER1
 62
     7
 10
96.945313
 20
183.262421
 40
4.000000
 41
0.900000
  1
45
 50
0.000000
 51
0.000000
  7
SX_FONT
 72
     5
 11
102.945313
 21
183.262421
  0
ENDBLK
  8
0
  0
BLOCK
  8
CSLAYER1
  2
*D0001
 70
    65
 10
0.0
 20
0.0
 30
0.0
  0
LINE
  8
CSLAYER1
  6
CONTINUOUS
 62
     7
 10
128.445313
 20
142.546875
 11
133.175056
 21
142.546875
  0
LINE
  8
CSLAYER1
  6
CONTINUOUS
 62
     7
 10
128.445313
 20
172.546875
 11
133.175056
 21
172.546875
  0
LINE
  8
CSLAYER1
  6
CONTINUOUS
 62
     7
 10
132.175056
 20
142.546875
 11
132.175056
 21
172.546875
  0
LINE
  8
CSLAYER1
  6
CONTINUOUS
 62
     7
 10
132.175056
 20
142.546875
 11
131.139780
 21
146.410578
  0
LINE
  8
CSLAYER1
  6
CONTINUOUS
 62
     7
 10
132.175056
 20
142.546875
 11
133.210332
 21
146.410578
  0
LINE
  8
CSLAYER1
  6
CONTINUOUS
 62
     7
 10
132.175056
 20
172.546875
 11
131.139780
 21
168.683172
  0
LINE
  8
CSLAYER1
  6
CONTINUOUS
 62
     7
 10
132.175056
 20
172.546875
 11
133.210332
 21
168.683172
  0
TEXT
  8
CSLAYER1
 62
     7
 10
136.804565
 20
154.165634
 40
4.000000
 41
0.900000
  1
30
 50
90.000000
 51
0.000000
  7
SX_FONT
 72
     5
 11
136.804565
 21
160.165634
  0
ENDBLK
  8
0
  0
ENDSEC
  0
SECTION
  2
ENTITIES
  0
LINE
  8
CSLAYER2
  6
CONTINUOUS
 62
     7
 10
80.945313
 20
151.546875
 11
82.945313
 21
151.546875
  0
LINE
  8
CSLAYER2
  6
CONTINUOUS
 62
     7
 10
87.945313
 20
151.546875
 11
89.945313
 21
151.546875
  0
ARC
  8
CSLAYER2
  6
CONTINUOUS
 62
     7
 10
85.445313
 20
151.546875
 40
2.500000
 50
0.000000
 51
90.000000
  0
ARC
  8
CSLAYER2
  6
CONTINUOUS
 62
     7
 10
85.445313
 20
151.546875
 40
2.500000
 50
90.000000
 51
180.000000
  0
ARC
  8
CSLAYER2
  6
CONTINUOUS
 62
     7
 10
77.445312
 20
149.546875
 40
2.500000
 50
270.000000
 51
322.989401
  0
ARC
  8
CSLAYER2
  6
CONTINUOUS
 62
     7
 10
73.053430
 20
152.857670
 40
8.000000
 50
322.989401
 51
350.569600
  0
ARC
  8
CSLAYER2
  6
CONTINUOUS
 62
     7
 10
117.445313
 20
167.546875
 40
5.000000
 50
0.000000
 51
90.000000
  0
ARC
  8
CSLAYER2
  6
CONTINUOUS
 62
     7
 10
117.445313
 20
167.546875
 40
5.000000
 50
90.000000
 51
180.000000
  0
ARC
  8
CSLAYER2
  6
CONTINUOUS
 62
     7
 10
93.674712
 20
152.993104
 40
4.000000
 50
201.195860
 51
247.763324
  0
ARC
  8
CSLAYER2
  6
CONTINUOUS
 62
     7
 10
95.945313
 20
158.546875
 40
10.000000
 50
247.763324
 51
270.000000
  0
LINE
  8
CSLAYER2
  6
CONTINUOUS
 62
     7
 10
110.445313
 20
167.546875
 11
112.445313
 21
167.546875
  0
ARC
  8
CSLAYER2
  6
CONTINUOUS
 62
     7
 10
95.945313
 20
158.546875
 40
10.000000
 50
270.000000
 51
328.306972
  0
ARC
  8
CSLAYER2
  6
CONTINUOUS
 62
     7
 10
61.910311
 20
179.561600
 40
50.000000
 50
328.306972
 51
346.096077
  0
LINE
  8
CSLAYER2
  6
CONTINUOUS
 62
     7
 10
77.445313
 20
147.046875
 11
77.445313
 21
142.546875
  0
LINE
  8
CSLAYER2
  6
CONTINUOUS
 62
     7
 10
77.445313
 20
142.546875
 11
122.445313
 21
142.546875
  0
LINE
  8
CSLAYER2
  6
CONTINUOUS
 62
     7
 10
122.445313
 20
142.546875
 11
122.445313
 21
167.546875
  0
TEXT
  8
CSLAYER1
 62
     7
 10
77.434845
 20
82.172661
 40
10.000000
 41
0.630000
  1
FM-2139
 50
0.000000
 51
0.000000
  7
SX_FONT
 72
     5
 11
119.434845
 21
82.172661
  0
DIMENSION
  8
CSLAYER1
 62
     7
  2
*D0000
 10
122.445313
 20
182.262428
 11
99.945313
 21
183.262421
 13
77.445313
 23
177.546875
 14
122.445313
 24
177.546875
 70
1
  0
DIMENSION
  8
CSLAYER1
 62
     7
  2
*D0001
 10
132.175056
 20
172.546875
 11
136.804565
 21
157.165634
 13
127.445313
 23
142.546875
 14
127.445313
 24
172.546875
 50
90.000000
 70
1
  0
TEXT
  8
CSLAYER1
 62
     7
 10
134.994354
 20
82.614113
 40
10.000000
 41
0.642857
  1
45x30
 50
0.000000
 51
0.000000
  7
SX_FONT
 72
     5
 11
164.994354
 21
82.614113
  0
TEXT
  8
CSLAYER1
 62
     7
 10
78.490005
 20
69.906364
 40
5.000000
 41
0.612766
  1
カタログ Vol. 1  P58
 50
0.000000
 51
0.000000
  7
SX_FONT
 72
     5
 11
126.490005
 21
69.906364
  0
TEXT
  8
CSLAYER1
 62
     7
 10
78.237555
 20
59.909858
 40
4.960742
 41
0.729057
  1
ホ%%dケットカタロク゛ Vol. 1 P31
 50
0.000000
 51
0.000000
  7
SX_FONT
 72
     5
 11
152.981912
 21
59.909858
  0
ENDSEC
  0
EOF
