  0
SECTION
  2
HEADER
  9
$ACADVER
  1
AC1006
  9
$INSBASE
 10
89.307902
 20
169.919922
 30
0.0
  9
$EXTMIN
 10
89.307902
 20
169.919922
  9
$EXTMAX
 10
299.307902
 20
466.919922
  9
$LIMMIN
 10
89.307902
 20
169.919922
  9
$LIMMAX
 10
299.307902
 20
466.919922
  9
$VIEWCTR
 10
194.307902
 20
318.419922
  9
$VIEWSIZE
 40
297.000000
  9
$SNAPMODE
 70
     0
  9
$SNAPUNIT
 10
1.0
 20
1.0
  9
$SNAPBASE
 10
0.0
 20
0.0
  9
$SNAPANG
 50
0.0
  9
$SNAPSTYLE
 70
     0
  9
$SNAPISOPAIR
 70
     0
  9
$GRIDMODE
 70
     0
  9
$GRIDUNIT
 10
0.0
 20
0.0
  9
$ORTHOMODE
 70
     0
  9
$REGENMODE
 70
     1
  9
$FILLMODE
 70
     1
  9
$QTEXTMODE
 70
     0
  9
$DRAGMODE
 70
     2
  9
$LTSCALE
 40
15.000000
  9
$OSMODE
 70
     0
  9
$ATTMODE
 70
     1
  9
$TEXTSIZE
 40
0.2
  9
$TRACEWID
 40
0.05
  9
$TEXTSTYLE
  7
STANDARD
  9
$CLAYER
  8
CSLAYER3
  9
$CELTYPE
  6
BYLAYER
  9
$CECOLOR
 62
   256
  9
$DIMSCALE
 40
1.0
  9
$DIMASZ
 40
0.18
  9
$DIMEXO
 40
0.0625
  9
$DIMDLI
 40
0.38
  9
$DIMRND
 40
0.0
  9
$DIMDLE
 40
0.0
  9
$DIMEXE
 40
0.18
  9
$DIMTP
 40
0.0
  9
$DIMTM
 40
0.0
  9
$DIMTXT
 40
0.18
  9
$DIMCEN
 40
0.09
  9
$DIMTSZ
 40
0.0
  9
$DIMTOL
 70
     0
  9
$DIMLIM
 70
     0
  9
$DIMTIH
 70
     1
  9
$DIMTOH
 70
     1
  9
$DIMSE1
 70
     0
  9
$DIMSE2
 70
     0
  9
$DIMTAD
 70
     0
  9
$DIMZIN
 70
     0
  9
$DIMBLK
  1

  9
$LUNITS
 70
     2
  9
$LUPREC
 70
     4
  9
$AXISMODE
 70
     0
  9
$AXISUNIT
 10
0.0
 20
0.0
  9
$SKETCHINC
 40
0.1
  9
$FILLETRAD
 40
0.0
  9
$AUNITS
 70
     0
  9
$AUPREC
 70
     0
  9
$MENU
  1
ACAD
  9
$ELEVATION
 40
0.0
  9
$THICKNESS
 40
0.0
  9
$VIEWDIR
 10
0.0
 20
0.0
 30
1.0
  9
$LIMCHECK
 70
     0
  9
$BLIPMODE
 70
     1
  9
$CHAMFERA
 40
0.0
  9
$CHAMFERB
 40
0.0
  9
$FASTZOOM
 70
     1
  9
$SKPOLY
 70
     0
  9
$TDCREATE
 40
0.000000
  9
$TDUPDATE
 40
0.000000
  9
$TDINDWG
 40
0.0
  9
$TDUSRTIMER
 40
0.0
  9
$USRTIMER
 70
     1
  9
$ANGBASE
 50
0.0
  9
$ANGDIR
 70
     0
  9
$PDMODE
 70
     0
  9
$PDSIZE
 40
0.0
  9
$PLINEWID
 40
0.0
  9
$COORDS
 70
     0
  9
$USERI1
 70
     0
  9
$USERI2
 70
     0
  9
$USERI3
 70
     0
  9
$USERI4
 70
     0
  9
$USERI5
 70
     0
  9
$USERR1
 40
0.0
  9
$USERR2
 40
0.0
  9
$USERR3
 40
0.0
  9
$USERR4
 40
0.0
  9
$USERR5
 40
0.0
  0
ENDSEC
  0
SECTION
  2
TABLES
  0
TABLE
  2
LTYPE
 70
     9
  0
LTYPE
  2
CONTINUOUS
 70
    64
  3
Solid line
 72
    65
 73
     0
 40
0.0
  0
LTYPE
  2
DASHED
 70
    64
  3
__ __ __ __ __ __ __ __ __ __ __ __ __ __ __
 72
    65
 73
     2
 40
0.75
 49
0.5
 49
-0.25
  0
LTYPE
  2
HIDDEN
 70
    64
  3
_ _ _ _ _ _ _ _ _ _ _ _ _ _ _ _ _ _ _ _ _ _ _
 72
    65
 73
     2
 40
0.375
 49
0.25
 49
-0.125
  0
LTYPE
  2
DOT
 70
    64
  3
...............................................
 72
    65
 73
     2
 40
0.25
 49
0.0
 49
-0.25
  0
LTYPE
  2
DASHDOT
 70
    64
  3
__ . __ . __ . __ . __ . __ . __ . __ . __ . __
 72
    65
 73
     4
 40
1.0
 49
0.5
 49
-0.25
 49
0.0
 49
-0.25
  0
LTYPE
  2
DIVIDE
 70
    64
  3
__ . . __ . . __ . . __ . . __ . . __ . . __
 72
    65
 73
     6
 40
1.25
 49
0.5
 49
-0.25
 49
0.0
 49
-0.25
 49
0.0
 49
-0.25
  0
LTYPE
  2
CENTER
 70
    64
  3
____ _ ____ _ ____ _ ____ _ ____ _ ____ _ ____ 
 72
    65
 73
     4
 40
2.0
 49
1.25
 49
-0.25
 49
0.25
 49
-0.25
  0
LTYPE
  2
PHANTOM
 70
    64
  3
______  __  __  ______  __  __  ______  __  __ 
 72
    65
 73
     6
 40
2.5
 49
1.25
 49
-0.25
 49
0.25
 49
-0.25
 49
0.25
 49
-0.25
  0
LTYPE
  2
BORDER
 70
    64
  3
__ __ . __ __ . __ __ . __ __ . __ __ . __ __ .
 72
    65
 73
     6
 40
1.75
 49
0.5
 49
-0.25
 49
0.5
 49
-0.25
 49
0.0
 49
-0.25
  0
ENDTAB
  0
TABLE
  2
LAYER
 70
    16
  0
LAYER
  2
CSLAYER1
 70
    64
 62
     7
  6
CONTINUOUS
  0
LAYER
  2
CSLAYER2
 70
    64
 62
     7
  6
CONTINUOUS
  0
LAYER
  2
CSLAYER3
 70
    64
 62
     7
  6
CONTINUOUS
  0
LAYER
  2
CSLAYER4
 70
    64
 62
     7
  6
CONTINUOUS
  0
LAYER
  2
CSLAYER5
 70
    64
 62
     7
  6
CONTINUOUS
  0
LAYER
  2
CSLAYER6
 70
    64
 62
     7
  6
CONTINUOUS
  0
LAYER
  2
CSLAYER7
 70
    64
 62
     7
  6
CONTINUOUS
  0
LAYER
  2
CSLAYER8
 70
    64
 62
     7
  6
CONTINUOUS
  0
LAYER
  2
CSLAYER9
 70
    64
 62
     7
  6
CONTINUOUS
  0
LAYER
  2
CSLAYER10
 70
    64
 62
     7
  6
CONTINUOUS
  0
LAYER
  2
CSLAYER11
 70
    64
 62
     7
  6
CONTINUOUS
  0
LAYER
  2
CSLAYER12
 70
    64
 62
     7
  6
CONTINUOUS
  0
LAYER
  2
CSLAYER13
 70
    64
 62
     7
  6
CONTINUOUS
  0
LAYER
  2
CSLAYER14
 70
    64
 62
     7
  6
CONTINUOUS
  0
LAYER
  2
CSLAYER15
 70
    64
 62
     7
  6
CONTINUOUS
  0
LAYER
  2
CSLAYER16
 70
    64
 62
     7
  6
CONTINUOUS
  0
ENDTAB
  0
TABLE
  2
STYLE
 70
     1
  0
STYLE
  2
SX_FONT
 70
     0
 40
1.0
 41
1.0
 50
0.0
 71
     0
 42
1.0
  3
monotxt
  4
bigfont
  0
ENDTAB
  0
TABLE
  2
VIEW
 70
     0
  0
ENDTAB
  0
ENDSEC
  0
SECTION
  2
BLOCKS
  0
BLOCK
  8
CSLAYER1
  2
*D0000
 70
    65
 10
0.0
 20
0.0
 30
0.0
  0
LINE
  8
CSLAYER1
  6
CONTINUOUS
 62
     7
 10
89.070313
 20
165.968750
 11
89.070313
 21
171.004987
  0
LINE
  8
CSLAYER1
  6
CONTINUOUS
 62
     7
 10
119.070313
 20
165.968750
 11
119.070313
 21
171.004987
  0
LINE
  8
CSLAYER1
  6
CONTINUOUS
 62
     7
 10
89.070313
 20
170.004987
 11
119.070313
 21
170.004987
  0
LINE
  8
CSLAYER1
  6
CONTINUOUS
 62
     7
 10
89.070313
 20
170.004987
 11
92.934016
 21
171.040263
  0
LINE
  8
CSLAYER1
  6
CONTINUOUS
 62
     7
 10
89.070313
 20
170.004987
 11
92.934016
 21
168.969710
  0
LINE
  8
CSLAYER1
  6
CONTINUOUS
 62
     7
 10
119.070313
 20
170.004987
 11
115.206609
 21
171.040263
  0
LINE
  8
CSLAYER1
  6
CONTINUOUS
 62
     7
 10
119.070313
 20
170.004987
 11
115.206609
 21
168.969710
  0
TEXT
  8
CSLAYER1
 62
     7
 10
101.070313
 20
171.004990
 40
4.000000
 41
0.900000
  1
30
 50
0.000000
 51
0.000000
  7
SX_FONT
 72
     5
 11
107.070313
 21
171.004990
  0
ENDBLK
  8
0
  0
BLOCK
  8
CSLAYER1
  2
*D0001
 70
    65
 10
0.0
 20
0.0
 30
0.0
  0
LINE
  8
CSLAYER1
  6
CONTINUOUS
 62
     7
 10
125.070313
 20
139.968750
 11
130.252591
 21
139.968750
  0
LINE
  8
CSLAYER1
  6
CONTINUOUS
 62
     7
 10
125.070313
 20
159.968750
 11
130.252591
 21
159.968750
  0
LINE
  8
CSLAYER1
  6
CONTINUOUS
 62
     7
 10
129.252591
 20
139.968750
 11
129.252591
 21
159.968750
  0
LINE
  8
CSLAYER1
  6
CONTINUOUS
 62
     7
 10
129.252591
 20
139.968750
 11
128.217315
 21
143.832453
  0
LINE
  8
CSLAYER1
  6
CONTINUOUS
 62
     7
 10
129.252591
 20
139.968750
 11
130.287867
 21
143.832453
  0
LINE
  8
CSLAYER1
  6
CONTINUOUS
 62
     7
 10
129.252591
 20
159.968750
 11
128.217315
 21
156.105047
  0
LINE
  8
CSLAYER1
  6
CONTINUOUS
 62
     7
 10
129.252591
 20
159.968750
 11
130.287867
 21
156.105047
  0
TEXT
  8
CSLAYER1
 62
     7
 10
134.329285
 20
146.698227
 40
4.000000
 41
0.900000
  1
20
 50
90.000000
 51
0.000000
  7
SX_FONT
 72
     5
 11
134.329285
 21
152.698227
  0
ENDBLK
  8
0
  0
ENDSEC
  0
SECTION
  2
ENTITIES
  0
LINE
  8
CSLAYER2
  6
CONTINUOUS
 62
     7
 10
91.570313
 20
145.968750
 11
93.070313
 21
145.968750
  0
LINE
  8
CSLAYER2
  6
CONTINUOUS
 62
     7
 10
96.070313
 20
145.968750
 11
97.570313
 21
145.968750
  0
ARC
  8
CSLAYER2
  6
CONTINUOUS
 62
     7
 10
94.570313
 20
145.968750
 40
1.500000
 50
0.000000
 51
90.000000
  0
ARC
  8
CSLAYER2
  6
CONTINUOUS
 62
     7
 10
94.570313
 20
145.968750
 40
1.500000
 50
90.000000
 51
180.000000
  0
ARC
  8
CSLAYER2
  6
CONTINUOUS
 62
     7
 10
89.070312
 20
144.768750
 40
1.800000
 50
270.000000
 51
322.902972
  0
ARC
  8
CSLAYER2
  6
CONTINUOUS
 62
     7
 10
85.720329
 20
147.302050
 40
6.000000
 50
322.902972
 51
347.160740
  0
ARC
  8
CSLAYER2
  6
CONTINUOUS
 62
     7
 10
115.820313
 20
156.718750
 40
3.250000
 50
0.000000
 51
90.000000
  0
ARC
  8
CSLAYER2
  6
CONTINUOUS
 62
     7
 10
115.820313
 20
156.718750
 40
3.250000
 50
90.000000
 51
180.000000
  0
LINE
  8
CSLAYER2
  6
CONTINUOUS
 62
     7
 10
111.070313
 20
156.718750
 11
112.570313
 21
156.718750
  0
ARC
  8
CSLAYER2
  6
CONTINUOUS
 62
     7
 10
100.319614
 20
147.169309
 40
3.000000
 50
203.589824
 51
251.779509
  0
ARC
  8
CSLAYER2
  6
CONTINUOUS
 62
     7
 10
101.570313
 20
150.968750
 40
7.000000
 50
251.779509
 51
270.000000
  0
ARC
  8
CSLAYER2
  6
CONTINUOUS
 62
     7
 10
101.570313
 20
150.968750
 40
7.000000
 50
270.000000
 51
333.121132
  0
ARC
  8
CSLAYER2
  6
CONTINUOUS
 62
     7
 10
72.135489
 20
165.888240
 40
40.000000
 50
333.121132
 51
346.747830
  0
LINE
  8
CSLAYER2
  6
CONTINUOUS
 62
     7
 10
89.070313
 20
142.968750
 11
89.070313
 21
139.968750
  0
LINE
  8
CSLAYER2
  6
CONTINUOUS
 62
     7
 10
89.070313
 20
139.968750
 11
119.070313
 21
139.968750
  0
LINE
  8
CSLAYER2
  6
CONTINUOUS
 62
     7
 10
119.070313
 20
139.968750
 11
119.070313
 21
156.718750
  0
TEXT
  8
CSLAYER1
 62
     7
 10
89.249397
 20
79.442261
 40
10.000000
 41
0.630000
  1
FM-2138
 50
0.000000
 51
0.000000
  7
SX_FONT
 72
     5
 11
131.249397
 21
79.442261
  0
DIMENSION
  8
CSLAYER1
 62
     7
  2
*D0000
 10
119.070313
 20
170.004987
 11
104.070313
 21
171.004990
 13
89.070313
 23
164.968750
 14
119.070313
 24
164.968750
 70
1
  0
DIMENSION
  8
CSLAYER1
 62
     7
  2
*D0001
 10
129.252591
 20
159.968750
 11
134.329285
 21
149.698227
 13
124.070313
 23
139.968750
 14
124.070313
 24
159.968750
 50
90.000000
 70
1
  0
TEXT
  8
CSLAYER1
 62
     7
 10
145.477768
 20
79.121651
 40
10.000000
 41
0.642857
  1
30x20
 50
0.000000
 51
0.000000
  7
SX_FONT
 72
     5
 11
175.477768
 21
79.121651
  0
TEXT
  8
CSLAYER1
 62
     7
 10
89.998070
 20
67.544945
 40
5.000000
 41
0.612766
  1
カタログ Vol. 1  P58
 50
0.000000
 51
0.000000
  7
SX_FONT
 72
     5
 11
137.998070
 21
67.544945
  0
TEXT
  8
CSLAYER1
 62
     7
 10
90.243605
 20
56.814711
 40
4.960742
 41
0.729057
  1
ホ%%dケットカタロク゛ Vol. 1 P31
 50
0.000000
 51
0.000000
  7
SX_FONT
 72
     5
 11
164.987962
 21
56.814711
  0
ENDSEC
  0
EOF
