  0
SECTION
  2
HEADER
  9
$ACADVER
  1
AC1006
  9
$INSBASE
 10
41.903571
 20
193.587714
 30
0.0
  9
$EXTMIN
 10
41.903571
 20
193.587714
  9
$EXTMAX
 10
251.903571
 20
490.587714
  9
$LIMMIN
 10
41.903571
 20
193.587714
  9
$LIMMAX
 10
251.903571
 20
490.587714
  9
$VIEWCTR
 10
146.903571
 20
342.087714
  9
$VIEWSIZE
 40
297.000000
  9
$SNAPMODE
 70
     0
  9
$SNAPUNIT
 10
1.0
 20
1.0
  9
$SNAPBASE
 10
0.0
 20
0.0
  9
$SNAPANG
 50
0.0
  9
$SNAPSTYLE
 70
     0
  9
$SNAPISOPAIR
 70
     0
  9
$GRIDMODE
 70
     0
  9
$GRIDUNIT
 10
0.0
 20
0.0
  9
$ORTHOMODE
 70
     0
  9
$REGENMODE
 70
     1
  9
$FILLMODE
 70
     1
  9
$QTEXTMODE
 70
     0
  9
$DRAGMODE
 70
     2
  9
$LTSCALE
 40
15.000000
  9
$OSMODE
 70
     0
  9
$ATTMODE
 70
     1
  9
$TEXTSIZE
 40
0.2
  9
$TRACEWID
 40
0.05
  9
$TEXTSTYLE
  7
STANDARD
  9
$CLAYER
  8
CSLAYER3
  9
$CELTYPE
  6
BYLAYER
  9
$CECOLOR
 62
   256
  9
$DIMSCALE
 40
1.0
  9
$DIMASZ
 40
0.18
  9
$DIMEXO
 40
0.0625
  9
$DIMDLI
 40
0.38
  9
$DIMRND
 40
0.0
  9
$DIMDLE
 40
0.0
  9
$DIMEXE
 40
0.18
  9
$DIMTP
 40
0.0
  9
$DIMTM
 40
0.0
  9
$DIMTXT
 40
0.18
  9
$DIMCEN
 40
0.09
  9
$DIMTSZ
 40
0.0
  9
$DIMTOL
 70
     0
  9
$DIMLIM
 70
     0
  9
$DIMTIH
 70
     1
  9
$DIMTOH
 70
     1
  9
$DIMSE1
 70
     0
  9
$DIMSE2
 70
     0
  9
$DIMTAD
 70
     0
  9
$DIMZIN
 70
     0
  9
$DIMBLK
  1

  9
$LUNITS
 70
     2
  9
$LUPREC
 70
     4
  9
$AXISMODE
 70
     0
  9
$AXISUNIT
 10
0.0
 20
0.0
  9
$SKETCHINC
 40
0.1
  9
$FILLETRAD
 40
0.0
  9
$AUNITS
 70
     0
  9
$AUPREC
 70
     0
  9
$MENU
  1
ACAD
  9
$ELEVATION
 40
0.0
  9
$THICKNESS
 40
0.0
  9
$VIEWDIR
 10
0.0
 20
0.0
 30
1.0
  9
$LIMCHECK
 70
     0
  9
$BLIPMODE
 70
     1
  9
$CHAMFERA
 40
0.0
  9
$CHAMFERB
 40
0.0
  9
$FASTZOOM
 70
     1
  9
$SKPOLY
 70
     0
  9
$TDCREATE
 40
0.000000
  9
$TDUPDATE
 40
0.000000
  9
$TDINDWG
 40
0.0
  9
$TDUSRTIMER
 40
0.0
  9
$USRTIMER
 70
     1
  9
$ANGBASE
 50
0.0
  9
$ANGDIR
 70
     0
  9
$PDMODE
 70
     0
  9
$PDSIZE
 40
0.0
  9
$PLINEWID
 40
0.0
  9
$COORDS
 70
     0
  9
$USERI1
 70
     0
  9
$USERI2
 70
     0
  9
$USERI3
 70
     0
  9
$USERI4
 70
     0
  9
$USERI5
 70
     0
  9
$USERR1
 40
0.0
  9
$USERR2
 40
0.0
  9
$USERR3
 40
0.0
  9
$USERR4
 40
0.0
  9
$USERR5
 40
0.0
  0
ENDSEC
  0
SECTION
  2
TABLES
  0
TABLE
  2
LTYPE
 70
     9
  0
LTYPE
  2
CONTINUOUS
 70
    64
  3
Solid line
 72
    65
 73
     0
 40
0.0
  0
LTYPE
  2
DASHED
 70
    64
  3
__ __ __ __ __ __ __ __ __ __ __ __ __ __ __
 72
    65
 73
     2
 40
0.75
 49
0.5
 49
-0.25
  0
LTYPE
  2
HIDDEN
 70
    64
  3
_ _ _ _ _ _ _ _ _ _ _ _ _ _ _ _ _ _ _ _ _ _ _
 72
    65
 73
     2
 40
0.375
 49
0.25
 49
-0.125
  0
LTYPE
  2
DOT
 70
    64
  3
...............................................
 72
    65
 73
     2
 40
0.25
 49
0.0
 49
-0.25
  0
LTYPE
  2
DASHDOT
 70
    64
  3
__ . __ . __ . __ . __ . __ . __ . __ . __ . __
 72
    65
 73
     4
 40
1.0
 49
0.5
 49
-0.25
 49
0.0
 49
-0.25
  0
LTYPE
  2
DIVIDE
 70
    64
  3
__ . . __ . . __ . . __ . . __ . . __ . . __
 72
    65
 73
     6
 40
1.25
 49
0.5
 49
-0.25
 49
0.0
 49
-0.25
 49
0.0
 49
-0.25
  0
LTYPE
  2
CENTER
 70
    64
  3
____ _ ____ _ ____ _ ____ _ ____ _ ____ _ ____ 
 72
    65
 73
     4
 40
2.0
 49
1.25
 49
-0.25
 49
0.25
 49
-0.25
  0
LTYPE
  2
PHANTOM
 70
    64
  3
______  __  __  ______  __  __  ______  __  __ 
 72
    65
 73
     6
 40
2.5
 49
1.25
 49
-0.25
 49
0.25
 49
-0.25
 49
0.25
 49
-0.25
  0
LTYPE
  2
BORDER
 70
    64
  3
__ __ . __ __ . __ __ . __ __ . __ __ . __ __ .
 72
    65
 73
     6
 40
1.75
 49
0.5
 49
-0.25
 49
0.5
 49
-0.25
 49
0.0
 49
-0.25
  0
ENDTAB
  0
TABLE
  2
LAYER
 70
    16
  0
LAYER
  2
CSLAYER1
 70
    64
 62
     7
  6
CONTINUOUS
  0
LAYER
  2
CSLAYER2
 70
    64
 62
     7
  6
CONTINUOUS
  0
LAYER
  2
CSLAYER3
 70
    64
 62
     7
  6
CONTINUOUS
  0
LAYER
  2
CSLAYER4
 70
    64
 62
     7
  6
CONTINUOUS
  0
LAYER
  2
CSLAYER5
 70
    64
 62
     7
  6
CONTINUOUS
  0
LAYER
  2
CSLAYER6
 70
    64
 62
     7
  6
CONTINUOUS
  0
LAYER
  2
CSLAYER7
 70
    64
 62
     7
  6
CONTINUOUS
  0
LAYER
  2
CSLAYER8
 70
    64
 62
     7
  6
CONTINUOUS
  0
LAYER
  2
CSLAYER9
 70
    64
 62
     7
  6
CONTINUOUS
  0
LAYER
  2
CSLAYER10
 70
    64
 62
     7
  6
CONTINUOUS
  0
LAYER
  2
CSLAYER11
 70
    64
 62
     7
  6
CONTINUOUS
  0
LAYER
  2
CSLAYER12
 70
    64
 62
     7
  6
CONTINUOUS
  0
LAYER
  2
CSLAYER13
 70
    64
 62
     7
  6
CONTINUOUS
  0
LAYER
  2
CSLAYER14
 70
    64
 62
     7
  6
CONTINUOUS
  0
LAYER
  2
CSLAYER15
 70
    64
 62
     7
  6
CONTINUOUS
  0
LAYER
  2
CSLAYER16
 70
    64
 62
     7
  6
CONTINUOUS
  0
ENDTAB
  0
TABLE
  2
STYLE
 70
     1
  0
STYLE
  2
SX_FONT
 70
     0
 40
1.0
 41
1.0
 50
0.0
 71
     0
 42
1.0
  3
monotxt
  4
bigfont
  0
ENDTAB
  0
TABLE
  2
VIEW
 70
     0
  0
ENDTAB
  0
ENDSEC
  0
SECTION
  2
BLOCKS
  0
BLOCK
  8
CSLAYER1
  2
*D0000
 70
    65
 10
0.0
 20
0.0
 30
0.0
  0
LINE
  8
CSLAYER1
  6
CONTINUOUS
 62
     7
 10
40.023438
 20
191.031250
 11
40.023438
 21
196.649296
  0
LINE
  8
CSLAYER1
  6
CONTINUOUS
 62
     7
 10
160.023438
 20
191.031250
 11
160.023438
 21
196.649296
  0
LINE
  8
CSLAYER1
  6
CONTINUOUS
 62
     7
 10
40.023438
 20
195.649296
 11
160.023438
 21
195.649296
  0
LINE
  8
CSLAYER1
  6
CONTINUOUS
 62
     7
 10
40.023438
 20
195.649296
 11
43.887141
 21
196.684572
  0
LINE
  8
CSLAYER1
  6
CONTINUOUS
 62
     7
 10
40.023438
 20
195.649296
 11
43.887141
 21
194.614020
  0
LINE
  8
CSLAYER1
  6
CONTINUOUS
 62
     7
 10
160.023438
 20
195.649296
 11
156.159734
 21
196.684572
  0
LINE
  8
CSLAYER1
  6
CONTINUOUS
 62
     7
 10
160.023438
 20
195.649296
 11
156.159734
 21
194.614020
  0
TEXT
  8
CSLAYER1
 62
     7
 10
95.523438
 20
196.649292
 40
4.000000
 41
0.843750
  1
120
 50
0.000000
 51
0.000000
  7
SX_FONT
 72
     5
 11
104.523438
 21
196.649292
  0
ENDBLK
  8
0
  0
BLOCK
  8
CSLAYER1
  2
*D0001
 70
    65
 10
0.0
 20
0.0
 30
0.0
  0
LINE
  8
CSLAYER1
  6
CONTINUOUS
 62
     7
 10
166.023438
 20
130.031250
 11
171.397862
 21
130.031250
  0
LINE
  8
CSLAYER1
  6
CONTINUOUS
 62
     7
 10
166.023438
 20
185.031250
 11
171.397862
 21
185.031250
  0
LINE
  8
CSLAYER1
  6
CONTINUOUS
 62
     7
 10
170.397862
 20
130.031250
 11
170.397862
 21
185.031250
  0
LINE
  8
CSLAYER1
  6
CONTINUOUS
 62
     7
 10
170.397862
 20
130.031250
 11
169.362586
 21
133.894953
  0
LINE
  8
CSLAYER1
  6
CONTINUOUS
 62
     7
 10
170.397862
 20
130.031250
 11
171.433138
 21
133.894953
  0
LINE
  8
CSLAYER1
  6
CONTINUOUS
 62
     7
 10
170.397862
 20
185.031250
 11
169.362586
 21
181.167547
  0
LINE
  8
CSLAYER1
  6
CONTINUOUS
 62
     7
 10
170.397862
 20
185.031250
 11
171.433138
 21
181.167547
  0
TEXT
  8
CSLAYER1
 62
     7
 10
175.787003
 20
154.655823
 40
4.000000
 41
0.900000
  1
55
 50
90.000000
 51
0.000000
  7
SX_FONT
 72
     5
 11
175.787003
 21
160.655823
  0
ENDBLK
  8
0
  0
ENDSEC
  0
SECTION
  2
ENTITIES
  0
ARC
  8
CSLAYER2
  6
CONTINUOUS
 62
     7
 10
54.523438
 20
147.531250
 40
7.500000
 50
0.000000
 51
90.000000
  0
ARC
  8
CSLAYER2
  6
CONTINUOUS
 62
     7
 10
54.523438
 20
147.531250
 40
7.500000
 50
90.000000
 51
180.000000
  0
ARC
  8
CSLAYER2
  6
CONTINUOUS
 62
     7
 10
123.523438
 20
200.531250
 40
25.000000
 50
270.000000
 51
301.052189
  0
ARC
  8
CSLAYER2
  6
CONTINUOUS
 62
     7
 10
131.260717
 20
187.680783
 40
10.000000
 50
301.052189
 51
322.938102
  0
LINE
  8
CSLAYER2
  6
CONTINUOUS
 62
     7
 10
62.023438
 20
147.531250
 11
65.023438
 21
147.531250
  0
LINE
  8
CSLAYER2
  6
CONTINUOUS
 62
     7
 10
97.644438
 20
163.448979
 11
95.282759
 21
160.865866
  0
ARC
  8
CSLAYER2
  6
CONTINUOUS
 62
     7
 10
65.023438
 20
188.531250
 40
41.000000
 50
270.000000
 51
317.564061
  0
ARC
  8
CSLAYER2
  6
CONTINUOUS
 62
     7
 10
120.523438
 20
142.531250
 40
31.000000
 50
90.000000
 51
137.564061
  0
ARC
  8
CSLAYER2
  6
CONTINUOUS
 62
     7
 10
146.023438
 20
176.531250
 40
8.500000
 50
0.000000
 51
90.000000
  0
ARC
  8
CSLAYER2
  6
CONTINUOUS
 62
     7
 10
146.023438
 20
176.531250
 40
8.500000
 50
90.000000
 51
142.938102
  0
LINE
  8
CSLAYER2
  6
CONTINUOUS
 62
     7
 10
120.523438
 20
173.531250
 11
123.523438
 21
173.531250
  0
LINE
  8
CSLAYER2
  6
CONTINUOUS
 62
     7
 10
123.523438
 20
173.531250
 11
123.523438
 21
175.531250
  0
LINE
  8
CSLAYER2
  6
CONTINUOUS
 62
     7
 10
154.523438
 20
176.531250
 11
160.023438
 21
176.531250
  0
LINE
  8
CSLAYER2
  6
CONTINUOUS
 62
     7
 10
160.023438
 20
176.531250
 11
160.023438
 21
130.031250
  0
LINE
  8
CSLAYER2
  6
CONTINUOUS
 62
     7
 10
160.023438
 20
130.031250
 11
40.023438
 21
130.031250
  0
LINE
  8
CSLAYER2
  6
CONTINUOUS
 62
     7
 10
40.023438
 20
130.031250
 11
40.023438
 21
147.531250
  0
LINE
  8
CSLAYER2
  6
CONTINUOUS
 62
     7
 10
40.023438
 20
147.531250
 11
47.023438
 21
147.531250
  0
TEXT
  8
CSLAYER1
 62
     7
 10
40.181274
 20
69.408447
 40
10.000000
 41
0.630000
  1
FM-2137
 50
0.000000
 51
0.000000
  7
SX_FONT
 72
     5
 11
82.181274
 21
69.408447
  0
DIMENSION
  8
CSLAYER1
 62
     7
  2
*D0000
 10
160.023438
 20
195.649296
 11
100.023438
 21
196.649292
 13
40.023438
 23
190.031250
 14
160.023438
 24
190.031250
 70
1
  0
DIMENSION
  8
CSLAYER1
 62
     7
  2
*D0001
 10
170.397862
 20
185.031250
 11
175.787003
 21
157.655823
 13
165.023438
 23
130.031250
 14
165.023438
 24
185.031250
 50
90.000000
 70
1
  0
TEXT
  8
CSLAYER1
 62
     7
 10
93.461548
 20
69.677475
 40
10.000000
 41
0.635294
  1
120x55
 50
0.000000
 51
0.000000
  7
SX_FONT
 72
     5
 11
129.461548
 21
69.677475
  0
TEXT
  8
CSLAYER1
 62
     7
 10
40.973701
 20
57.590847
 40
5.000000
 41
0.612766
  1
カタログ Vol. 1  P57
 50
0.000000
 51
0.000000
  7
SX_FONT
 72
     5
 11
88.973701
 21
57.590847
  0
TEXT
  8
CSLAYER1
 62
     7
 10
40.721251
 20
47.312194
 40
4.960742
 41
0.729057
  1
ホ%%dケットカタロク゛ Vol. 1 P30
 50
0.000000
 51
0.000000
  7
SX_FONT
 72
     5
 11
115.465608
 21
47.312194
  0
ENDSEC
  0
EOF
