  0
SECTION
  2
HEADER
  9
$ACADVER
  1
AC1006
  9
$INSBASE
 10
58.570482
 20
192.639610
 30
0.0
  9
$EXTMIN
 10
58.570482
 20
192.639610
  9
$EXTMAX
 10
268.570482
 20
489.639610
  9
$LIMMIN
 10
58.570482
 20
192.639610
  9
$LIMMAX
 10
268.570482
 20
489.639610
  9
$VIEWCTR
 10
163.570482
 20
341.139610
  9
$VIEWSIZE
 40
297.000000
  9
$SNAPMODE
 70
     0
  9
$SNAPUNIT
 10
1.0
 20
1.0
  9
$SNAPBASE
 10
0.0
 20
0.0
  9
$SNAPANG
 50
0.0
  9
$SNAPSTYLE
 70
     0
  9
$SNAPISOPAIR
 70
     0
  9
$GRIDMODE
 70
     0
  9
$GRIDUNIT
 10
0.0
 20
0.0
  9
$ORTHOMODE
 70
     0
  9
$REGENMODE
 70
     1
  9
$FILLMODE
 70
     1
  9
$QTEXTMODE
 70
     0
  9
$DRAGMODE
 70
     2
  9
$LTSCALE
 40
15.000000
  9
$OSMODE
 70
     0
  9
$ATTMODE
 70
     1
  9
$TEXTSIZE
 40
0.2
  9
$TRACEWID
 40
0.05
  9
$TEXTSTYLE
  7
STANDARD
  9
$CLAYER
  8
CSLAYER3
  9
$CELTYPE
  6
BYLAYER
  9
$CECOLOR
 62
   256
  9
$DIMSCALE
 40
1.0
  9
$DIMASZ
 40
0.18
  9
$DIMEXO
 40
0.0625
  9
$DIMDLI
 40
0.38
  9
$DIMRND
 40
0.0
  9
$DIMDLE
 40
0.0
  9
$DIMEXE
 40
0.18
  9
$DIMTP
 40
0.0
  9
$DIMTM
 40
0.0
  9
$DIMTXT
 40
0.18
  9
$DIMCEN
 40
0.09
  9
$DIMTSZ
 40
0.0
  9
$DIMTOL
 70
     0
  9
$DIMLIM
 70
     0
  9
$DIMTIH
 70
     1
  9
$DIMTOH
 70
     1
  9
$DIMSE1
 70
     0
  9
$DIMSE2
 70
     0
  9
$DIMTAD
 70
     0
  9
$DIMZIN
 70
     0
  9
$DIMBLK
  1

  9
$LUNITS
 70
     2
  9
$LUPREC
 70
     4
  9
$AXISMODE
 70
     0
  9
$AXISUNIT
 10
0.0
 20
0.0
  9
$SKETCHINC
 40
0.1
  9
$FILLETRAD
 40
0.0
  9
$AUNITS
 70
     0
  9
$AUPREC
 70
     0
  9
$MENU
  1
ACAD
  9
$ELEVATION
 40
0.0
  9
$THICKNESS
 40
0.0
  9
$VIEWDIR
 10
0.0
 20
0.0
 30
1.0
  9
$LIMCHECK
 70
     0
  9
$BLIPMODE
 70
     1
  9
$CHAMFERA
 40
0.0
  9
$CHAMFERB
 40
0.0
  9
$FASTZOOM
 70
     1
  9
$SKPOLY
 70
     0
  9
$TDCREATE
 40
0.000000
  9
$TDUPDATE
 40
0.000000
  9
$TDINDWG
 40
0.0
  9
$TDUSRTIMER
 40
0.0
  9
$USRTIMER
 70
     1
  9
$ANGBASE
 50
0.0
  9
$ANGDIR
 70
     0
  9
$PDMODE
 70
     0
  9
$PDSIZE
 40
0.0
  9
$PLINEWID
 40
0.0
  9
$COORDS
 70
     0
  9
$USERI1
 70
     0
  9
$USERI2
 70
     0
  9
$USERI3
 70
     0
  9
$USERI4
 70
     0
  9
$USERI5
 70
     0
  9
$USERR1
 40
0.0
  9
$USERR2
 40
0.0
  9
$USERR3
 40
0.0
  9
$USERR4
 40
0.0
  9
$USERR5
 40
0.0
  0
ENDSEC
  0
SECTION
  2
TABLES
  0
TABLE
  2
LTYPE
 70
     9
  0
LTYPE
  2
CONTINUOUS
 70
    64
  3
Solid line
 72
    65
 73
     0
 40
0.0
  0
LTYPE
  2
DASHED
 70
    64
  3
__ __ __ __ __ __ __ __ __ __ __ __ __ __ __
 72
    65
 73
     2
 40
0.75
 49
0.5
 49
-0.25
  0
LTYPE
  2
HIDDEN
 70
    64
  3
_ _ _ _ _ _ _ _ _ _ _ _ _ _ _ _ _ _ _ _ _ _ _
 72
    65
 73
     2
 40
0.375
 49
0.25
 49
-0.125
  0
LTYPE
  2
DOT
 70
    64
  3
...............................................
 72
    65
 73
     2
 40
0.25
 49
0.0
 49
-0.25
  0
LTYPE
  2
DASHDOT
 70
    64
  3
__ . __ . __ . __ . __ . __ . __ . __ . __ . __
 72
    65
 73
     4
 40
1.0
 49
0.5
 49
-0.25
 49
0.0
 49
-0.25
  0
LTYPE
  2
DIVIDE
 70
    64
  3
__ . . __ . . __ . . __ . . __ . . __ . . __
 72
    65
 73
     6
 40
1.25
 49
0.5
 49
-0.25
 49
0.0
 49
-0.25
 49
0.0
 49
-0.25
  0
LTYPE
  2
CENTER
 70
    64
  3
____ _ ____ _ ____ _ ____ _ ____ _ ____ _ ____ 
 72
    65
 73
     4
 40
2.0
 49
1.25
 49
-0.25
 49
0.25
 49
-0.25
  0
LTYPE
  2
PHANTOM
 70
    64
  3
______  __  __  ______  __  __  ______  __  __ 
 72
    65
 73
     6
 40
2.5
 49
1.25
 49
-0.25
 49
0.25
 49
-0.25
 49
0.25
 49
-0.25
  0
LTYPE
  2
BORDER
 70
    64
  3
__ __ . __ __ . __ __ . __ __ . __ __ . __ __ .
 72
    65
 73
     6
 40
1.75
 49
0.5
 49
-0.25
 49
0.5
 49
-0.25
 49
0.0
 49
-0.25
  0
ENDTAB
  0
TABLE
  2
LAYER
 70
    16
  0
LAYER
  2
CSLAYER1
 70
    64
 62
     7
  6
CONTINUOUS
  0
LAYER
  2
CSLAYER2
 70
    64
 62
     7
  6
CONTINUOUS
  0
LAYER
  2
CSLAYER3
 70
    64
 62
     7
  6
CONTINUOUS
  0
LAYER
  2
CSLAYER4
 70
    64
 62
     7
  6
CONTINUOUS
  0
LAYER
  2
CSLAYER5
 70
    64
 62
     7
  6
CONTINUOUS
  0
LAYER
  2
CSLAYER6
 70
    64
 62
     7
  6
CONTINUOUS
  0
LAYER
  2
CSLAYER7
 70
    64
 62
     7
  6
CONTINUOUS
  0
LAYER
  2
CSLAYER8
 70
    64
 62
     7
  6
CONTINUOUS
  0
LAYER
  2
CSLAYER9
 70
    64
 62
     7
  6
CONTINUOUS
  0
LAYER
  2
CSLAYER10
 70
    64
 62
     7
  6
CONTINUOUS
  0
LAYER
  2
CSLAYER11
 70
    64
 62
     7
  6
CONTINUOUS
  0
LAYER
  2
CSLAYER12
 70
    64
 62
     7
  6
CONTINUOUS
  0
LAYER
  2
CSLAYER13
 70
    64
 62
     7
  6
CONTINUOUS
  0
LAYER
  2
CSLAYER14
 70
    64
 62
     7
  6
CONTINUOUS
  0
LAYER
  2
CSLAYER15
 70
    64
 62
     7
  6
CONTINUOUS
  0
LAYER
  2
CSLAYER16
 70
    64
 62
     7
  6
CONTINUOUS
  0
ENDTAB
  0
TABLE
  2
STYLE
 70
     1
  0
STYLE
  2
SX_FONT
 70
     0
 40
1.0
 41
1.0
 50
0.0
 71
     0
 42
1.0
  3
monotxt
  4
bigfont
  0
ENDTAB
  0
TABLE
  2
VIEW
 70
     0
  0
ENDTAB
  0
ENDSEC
  0
SECTION
  2
BLOCKS
  0
BLOCK
  8
CSLAYER1
  2
*D0000
 70
    65
 10
0.0
 20
0.0
 30
0.0
  0
LINE
  8
CSLAYER1
  6
CONTINUOUS
 62
     7
 10
58.148438
 20
190.031250
 11
58.148438
 21
195.267611
  0
LINE
  8
CSLAYER1
  6
CONTINUOUS
 62
     7
 10
143.148438
 20
190.031250
 11
143.148438
 21
195.267611
  0
LINE
  8
CSLAYER1
  6
CONTINUOUS
 62
     7
 10
58.148438
 20
194.267611
 11
143.148438
 21
194.267611
  0
LINE
  8
CSLAYER1
  6
CONTINUOUS
 62
     7
 10
58.148438
 20
194.267611
 11
62.012141
 21
195.302887
  0
LINE
  8
CSLAYER1
  6
CONTINUOUS
 62
     7
 10
58.148438
 20
194.267611
 11
62.012141
 21
193.232334
  0
LINE
  8
CSLAYER1
  6
CONTINUOUS
 62
     7
 10
143.148438
 20
194.267611
 11
139.284734
 21
195.302887
  0
LINE
  8
CSLAYER1
  6
CONTINUOUS
 62
     7
 10
143.148438
 20
194.267611
 11
139.284734
 21
193.232334
  0
TEXT
  8
CSLAYER1
 62
     7
 10
97.648438
 20
195.267609
 40
4.000000
 41
0.900000
  1
85
 50
0.000000
 51
0.000000
  7
SX_FONT
 72
     5
 11
103.648438
 21
195.267609
  0
ENDBLK
  8
0
  0
BLOCK
  8
CSLAYER1
  2
*D0001
 70
    65
 10
0.0
 20
0.0
 30
0.0
  0
LINE
  8
CSLAYER1
  6
CONTINUOUS
 62
     7
 10
149.148438
 20
144.031250
 11
154.377620
 21
144.031250
  0
LINE
  8
CSLAYER1
  6
CONTINUOUS
 62
     7
 10
149.148438
 20
184.031250
 11
154.377620
 21
184.031250
  0
LINE
  8
CSLAYER1
  6
CONTINUOUS
 62
     7
 10
153.377620
 20
144.031250
 11
153.377620
 21
184.031250
  0
LINE
  8
CSLAYER1
  6
CONTINUOUS
 62
     7
 10
153.377620
 20
144.031250
 11
152.342344
 21
147.894953
  0
LINE
  8
CSLAYER1
  6
CONTINUOUS
 62
     7
 10
153.377620
 20
144.031250
 11
154.412896
 21
147.894953
  0
LINE
  8
CSLAYER1
  6
CONTINUOUS
 62
     7
 10
153.377620
 20
184.031250
 11
152.342344
 21
180.167547
  0
LINE
  8
CSLAYER1
  6
CONTINUOUS
 62
     7
 10
153.377620
 20
184.031250
 11
154.412896
 21
180.167547
  0
TEXT
  8
CSLAYER1
 62
     7
 10
158.252213
 20
160.737244
 40
4.000000
 41
0.900000
  1
40
 50
90.000000
 51
0.000000
  7
SX_FONT
 72
     5
 11
158.252213
 21
166.737244
  0
ENDBLK
  8
0
  0
ENDSEC
  0
SECTION
  2
ENTITIES
  0
ARC
  8
CSLAYER2
  6
CONTINUOUS
 62
     7
 10
118.148438
 20
190.031250
 40
13.000000
 50
270.000000
 51
324.237948
  0
LINE
  8
CSLAYER2
  6
CONTINUOUS
 62
     7
 10
115.648438
 20
175.531250
 11
118.148438
 21
175.531250
  0
LINE
  8
CSLAYER2
  6
CONTINUOUS
 62
     7
 10
118.148438
 20
175.531250
 11
118.148438
 21
177.031250
  0
LINE
  8
CSLAYER2
  6
CONTINUOUS
 62
     7
 10
140.148438
 20
177.031250
 11
143.148438
 21
177.031250
  0
LINE
  8
CSLAYER2
  6
CONTINUOUS
 62
     7
 10
143.148438
 20
177.031250
 11
143.148438
 21
144.031250
  0
LINE
  8
CSLAYER2
  6
CONTINUOUS
 62
     7
 10
143.148438
 20
144.031250
 11
58.148438
 21
144.031250
  0
LINE
  8
CSLAYER2
  6
CONTINUOUS
 62
     7
 10
58.148438
 20
144.031250
 11
58.148438
 21
157.031250
  0
LINE
  8
CSLAYER2
  6
CONTINUOUS
 62
     7
 10
58.148438
 20
157.031250
 11
63.232358
 21
157.031250
  0
ARC
  8
CSLAYER2
  6
CONTINUOUS
 62
     7
 10
123.366756
 20
126.130566
 40
50.000000
 50
98.880050
 51
111.458169
  0
ARC
  8
CSLAYER2
  6
CONTINUOUS
 62
     7
 10
109.648438
 20
161.031250
 40
12.500000
 50
111.458169
 51
139.306259
  0
ARC
  8
CSLAYER2
  6
CONTINUOUS
 62
     7
 10
73.633673
 20
192.001990
 40
35.000000
 50
272.342976
 51
319.306259
  0
ARC
  8
CSLAYER2
  6
CONTINUOUS
 62
     7
 10
133.148437
 20
177.031250
 40
7.000000
 50
0.000000
 51
90.000000
  0
ARC
  8
CSLAYER2
  6
CONTINUOUS
 62
     7
 10
133.148437
 20
177.031250
 40
7.000000
 50
90.000000
 51
129.485029
  0
ARC
  8
CSLAYER2
  6
CONTINUOUS
 62
     7
 10
69.148438
 20
156.031250
 40
6.000000
 50
9.594068
 51
90.000000
  0
ARC
  8
CSLAYER2
  6
CONTINUOUS
 62
     7
 10
69.148438
 20
156.031250
 40
6.000000
 50
90.000000
 51
170.405932
  0
TEXT
  8
CSLAYER1
 62
     7
 10
58.263962
 20
83.462616
 40
10.000000
 41
0.630000
  1
FM-2136
 50
0.000000
 51
0.000000
  7
SX_FONT
 72
     5
 11
100.263962
 21
83.462616
  0
DIMENSION
  8
CSLAYER1
 62
     7
  2
*D0000
 10
143.148438
 20
194.267611
 11
100.648438
 21
195.267609
 13
58.148438
 23
189.031250
 14
143.148438
 24
189.031250
 70
1
  0
DIMENSION
  8
CSLAYER1
 62
     7
  2
*D0001
 10
153.377620
 20
184.031250
 11
158.252213
 21
163.737244
 13
148.148438
 23
144.031250
 14
148.148438
 24
184.031250
 50
90.000000
 70
1
  0
TEXT
  8
CSLAYER1
 62
     7
 10
115.336105
 20
83.754295
 40
10.000000
 41
0.642857
  1
85x40
 50
0.000000
 51
0.000000
  7
SX_FONT
 72
     5
 11
145.336105
 21
83.754295
  0
TEXT
  8
CSLAYER1
 62
     7
 10
59.230644
 20
72.078087
 40
5.000000
 41
0.612766
  1
カタログ Vol. 1  P57
 50
0.000000
 51
0.000000
  7
SX_FONT
 72
     5
 11
107.230644
 21
72.078087
  0
TEXT
  8
CSLAYER1
 62
     7
 10
59.210669
 20
61.034461
 40
4.960742
 41
0.729057
  1
ホ%%dケットカタロク゛ Vol. 1 P30
 50
0.000000
 51
0.000000
  7
SX_FONT
 72
     5
 11
133.955026
 21
61.034461
  0
ENDSEC
  0
EOF
