  0
SECTION
  2
HEADER
  9
$ACADVER
  1
AC1006
  9
$INSBASE
 10
65.199300
 20
182.192871
 30
0.0
  9
$EXTMIN
 10
65.199300
 20
182.192871
  9
$EXTMAX
 10
275.199300
 20
479.192871
  9
$LIMMIN
 10
65.199300
 20
182.192871
  9
$LIMMAX
 10
275.199300
 20
479.192871
  9
$VIEWCTR
 10
170.199300
 20
330.692871
  9
$VIEWSIZE
 40
297.000000
  9
$SNAPMODE
 70
     0
  9
$SNAPUNIT
 10
1.0
 20
1.0
  9
$SNAPBASE
 10
0.0
 20
0.0
  9
$SNAPANG
 50
0.0
  9
$SNAPSTYLE
 70
     0
  9
$SNAPISOPAIR
 70
     0
  9
$GRIDMODE
 70
     0
  9
$GRIDUNIT
 10
0.0
 20
0.0
  9
$ORTHOMODE
 70
     0
  9
$REGENMODE
 70
     1
  9
$FILLMODE
 70
     1
  9
$QTEXTMODE
 70
     0
  9
$DRAGMODE
 70
     2
  9
$LTSCALE
 40
15.000000
  9
$OSMODE
 70
     0
  9
$ATTMODE
 70
     1
  9
$TEXTSIZE
 40
0.2
  9
$TRACEWID
 40
0.05
  9
$TEXTSTYLE
  7
STANDARD
  9
$CLAYER
  8
CSLAYER3
  9
$CELTYPE
  6
BYLAYER
  9
$CECOLOR
 62
   256
  9
$DIMSCALE
 40
1.0
  9
$DIMASZ
 40
0.18
  9
$DIMEXO
 40
0.0625
  9
$DIMDLI
 40
0.38
  9
$DIMRND
 40
0.0
  9
$DIMDLE
 40
0.0
  9
$DIMEXE
 40
0.18
  9
$DIMTP
 40
0.0
  9
$DIMTM
 40
0.0
  9
$DIMTXT
 40
0.18
  9
$DIMCEN
 40
0.09
  9
$DIMTSZ
 40
0.0
  9
$DIMTOL
 70
     0
  9
$DIMLIM
 70
     0
  9
$DIMTIH
 70
     1
  9
$DIMTOH
 70
     1
  9
$DIMSE1
 70
     0
  9
$DIMSE2
 70
     0
  9
$DIMTAD
 70
     0
  9
$DIMZIN
 70
     0
  9
$DIMBLK
  1

  9
$LUNITS
 70
     2
  9
$LUPREC
 70
     4
  9
$AXISMODE
 70
     0
  9
$AXISUNIT
 10
0.0
 20
0.0
  9
$SKETCHINC
 40
0.1
  9
$FILLETRAD
 40
0.0
  9
$AUNITS
 70
     0
  9
$AUPREC
 70
     0
  9
$MENU
  1
ACAD
  9
$ELEVATION
 40
0.0
  9
$THICKNESS
 40
0.0
  9
$VIEWDIR
 10
0.0
 20
0.0
 30
1.0
  9
$LIMCHECK
 70
     0
  9
$BLIPMODE
 70
     1
  9
$CHAMFERA
 40
0.0
  9
$CHAMFERB
 40
0.0
  9
$FASTZOOM
 70
     1
  9
$SKPOLY
 70
     0
  9
$TDCREATE
 40
0.000000
  9
$TDUPDATE
 40
0.000000
  9
$TDINDWG
 40
0.0
  9
$TDUSRTIMER
 40
0.0
  9
$USRTIMER
 70
     1
  9
$ANGBASE
 50
0.0
  9
$ANGDIR
 70
     0
  9
$PDMODE
 70
     0
  9
$PDSIZE
 40
0.0
  9
$PLINEWID
 40
0.0
  9
$COORDS
 70
     0
  9
$USERI1
 70
     0
  9
$USERI2
 70
     0
  9
$USERI3
 70
     0
  9
$USERI4
 70
     0
  9
$USERI5
 70
     0
  9
$USERR1
 40
0.0
  9
$USERR2
 40
0.0
  9
$USERR3
 40
0.0
  9
$USERR4
 40
0.0
  9
$USERR5
 40
0.0
  0
ENDSEC
  0
SECTION
  2
TABLES
  0
TABLE
  2
LTYPE
 70
     9
  0
LTYPE
  2
CONTINUOUS
 70
    64
  3
Solid line
 72
    65
 73
     0
 40
0.0
  0
LTYPE
  2
DASHED
 70
    64
  3
__ __ __ __ __ __ __ __ __ __ __ __ __ __ __
 72
    65
 73
     2
 40
0.75
 49
0.5
 49
-0.25
  0
LTYPE
  2
HIDDEN
 70
    64
  3
_ _ _ _ _ _ _ _ _ _ _ _ _ _ _ _ _ _ _ _ _ _ _
 72
    65
 73
     2
 40
0.375
 49
0.25
 49
-0.125
  0
LTYPE
  2
DOT
 70
    64
  3
...............................................
 72
    65
 73
     2
 40
0.25
 49
0.0
 49
-0.25
  0
LTYPE
  2
DASHDOT
 70
    64
  3
__ . __ . __ . __ . __ . __ . __ . __ . __ . __
 72
    65
 73
     4
 40
1.0
 49
0.5
 49
-0.25
 49
0.0
 49
-0.25
  0
LTYPE
  2
DIVIDE
 70
    64
  3
__ . . __ . . __ . . __ . . __ . . __ . . __
 72
    65
 73
     6
 40
1.25
 49
0.5
 49
-0.25
 49
0.0
 49
-0.25
 49
0.0
 49
-0.25
  0
LTYPE
  2
CENTER
 70
    64
  3
____ _ ____ _ ____ _ ____ _ ____ _ ____ _ ____ 
 72
    65
 73
     4
 40
2.0
 49
1.25
 49
-0.25
 49
0.25
 49
-0.25
  0
LTYPE
  2
PHANTOM
 70
    64
  3
______  __  __  ______  __  __  ______  __  __ 
 72
    65
 73
     6
 40
2.5
 49
1.25
 49
-0.25
 49
0.25
 49
-0.25
 49
0.25
 49
-0.25
  0
LTYPE
  2
BORDER
 70
    64
  3
__ __ . __ __ . __ __ . __ __ . __ __ . __ __ .
 72
    65
 73
     6
 40
1.75
 49
0.5
 49
-0.25
 49
0.5
 49
-0.25
 49
0.0
 49
-0.25
  0
ENDTAB
  0
TABLE
  2
LAYER
 70
    16
  0
LAYER
  2
CSLAYER1
 70
    64
 62
     7
  6
CONTINUOUS
  0
LAYER
  2
CSLAYER2
 70
    64
 62
     7
  6
CONTINUOUS
  0
LAYER
  2
CSLAYER3
 70
    64
 62
     7
  6
CONTINUOUS
  0
LAYER
  2
CSLAYER4
 70
    64
 62
     7
  6
CONTINUOUS
  0
LAYER
  2
CSLAYER5
 70
    64
 62
     7
  6
CONTINUOUS
  0
LAYER
  2
CSLAYER6
 70
    64
 62
     7
  6
CONTINUOUS
  0
LAYER
  2
CSLAYER7
 70
    64
 62
     7
  6
CONTINUOUS
  0
LAYER
  2
CSLAYER8
 70
    64
 62
     7
  6
CONTINUOUS
  0
LAYER
  2
CSLAYER9
 70
    64
 62
     7
  6
CONTINUOUS
  0
LAYER
  2
CSLAYER10
 70
    64
 62
     7
  6
CONTINUOUS
  0
LAYER
  2
CSLAYER11
 70
    64
 62
     7
  6
CONTINUOUS
  0
LAYER
  2
CSLAYER12
 70
    64
 62
     7
  6
CONTINUOUS
  0
LAYER
  2
CSLAYER13
 70
    64
 62
     7
  6
CONTINUOUS
  0
LAYER
  2
CSLAYER14
 70
    64
 62
     7
  6
CONTINUOUS
  0
LAYER
  2
CSLAYER15
 70
    64
 62
     7
  6
CONTINUOUS
  0
LAYER
  2
CSLAYER16
 70
    64
 62
     7
  6
CONTINUOUS
  0
ENDTAB
  0
TABLE
  2
STYLE
 70
     1
  0
STYLE
  2
SX_FONT
 70
     0
 40
1.0
 41
1.0
 50
0.0
 71
     0
 42
1.0
  3
monotxt
  4
bigfont
  0
ENDTAB
  0
TABLE
  2
VIEW
 70
     0
  0
ENDTAB
  0
ENDSEC
  0
SECTION
  2
BLOCKS
  0
BLOCK
  8
CSLAYER1
  2
*D0000
 70
    65
 10
0.0
 20
0.0
 30
0.0
  0
LINE
  8
CSLAYER1
  6
CONTINUOUS
 62
     7
 10
64.257813
 20
172.968750
 11
64.257813
 21
182.867025
  0
LINE
  8
CSLAYER1
  6
CONTINUOUS
 62
     7
 10
124.257813
 20
172.968750
 11
124.257813
 21
182.867025
  0
LINE
  8
CSLAYER1
  6
CONTINUOUS
 62
     7
 10
64.257813
 20
181.867025
 11
124.257813
 21
181.867025
  0
LINE
  8
CSLAYER1
  6
CONTINUOUS
 62
     7
 10
64.257813
 20
181.867025
 11
68.121516
 21
182.902301
  0
LINE
  8
CSLAYER1
  6
CONTINUOUS
 62
     7
 10
64.257813
 20
181.867025
 11
68.121516
 21
180.831749
  0
LINE
  8
CSLAYER1
  6
CONTINUOUS
 62
     7
 10
124.257813
 20
181.867025
 11
120.394109
 21
182.902301
  0
LINE
  8
CSLAYER1
  6
CONTINUOUS
 62
     7
 10
124.257813
 20
181.867025
 11
120.394109
 21
180.831749
  0
TEXT
  8
CSLAYER1
 62
     7
 10
91.257813
 20
182.867020
 40
4.000000
 41
0.900000
  1
60
 50
0.000000
 51
0.000000
  7
SX_FONT
 72
     5
 11
97.257813
 21
182.867020
  0
ENDBLK
  8
0
  0
BLOCK
  8
CSLAYER1
  2
*D0001
 70
    65
 10
0.0
 20
0.0
 30
0.0
  0
LINE
  8
CSLAYER1
  6
CONTINUOUS
 62
     7
 10
125.257813
 20
141.968750
 11
135.115804
 21
141.968750
  0
LINE
  8
CSLAYER1
  6
CONTINUOUS
 62
     7
 10
125.257813
 20
171.968750
 11
135.115804
 21
171.968750
  0
LINE
  8
CSLAYER1
  6
CONTINUOUS
 62
     7
 10
134.115804
 20
141.968750
 11
134.115804
 21
171.968750
  0
LINE
  8
CSLAYER1
  6
CONTINUOUS
 62
     7
 10
134.115804
 20
141.968750
 11
133.080528
 21
145.832453
  0
LINE
  8
CSLAYER1
  6
CONTINUOUS
 62
     7
 10
134.115804
 20
141.968750
 11
135.151080
 21
145.832453
  0
LINE
  8
CSLAYER1
  6
CONTINUOUS
 62
     7
 10
134.115804
 20
171.968750
 11
133.080528
 21
168.105047
  0
LINE
  8
CSLAYER1
  6
CONTINUOUS
 62
     7
 10
134.115804
 20
171.968750
 11
135.151080
 21
168.105047
  0
TEXT
  8
CSLAYER1
 62
     7
 10
139.329346
 20
153.776855
 40
4.000000
 41
0.900000
  1
30
 50
90.000000
 51
0.000000
  7
SX_FONT
 72
     5
 11
139.329346
 21
159.776855
  0
ENDBLK
  8
0
  0
ENDSEC
  0
SECTION
  2
ENTITIES
  0
ARC
  8
CSLAYER2
  6
CONTINUOUS
 62
     7
 10
72.507813
 20
151.218750
 40
4.750000
 50
9.084720
 51
90.000000
  0
ARC
  8
CSLAYER2
  6
CONTINUOUS
 62
     7
 10
72.507813
 20
151.218750
 40
4.750000
 50
90.000000
 51
170.915280
  0
ARC
  8
CSLAYER2
  6
CONTINUOUS
 62
     7
 10
117.257813
 20
166.968750
 40
5.000000
 50
0.000000
 51
90.000000
  0
LINE
  8
CSLAYER2
  6
CONTINUOUS
 62
     7
 10
116.257813
 20
171.968750
 11
117.257813
 21
171.968750
  0
ARC
  8
CSLAYER2
  6
CONTINUOUS
 62
     7
 10
116.257812
 20
167.968750
 40
4.000000
 50
90.000000
 51
137.187768
  0
ARC
  8
CSLAYER2
  6
CONTINUOUS
 62
     7
 10
104.520456
 20
178.842317
 40
12.000000
 50
278.324524
 51
317.187768
  0
LINE
  8
CSLAYER2
  6
CONTINUOUS
 62
     7
 10
103.257813
 20
164.968750
 11
106.257813
 21
164.968750
  0
LINE
  8
CSLAYER2
  6
CONTINUOUS
 62
     7
 10
106.257813
 20
164.968750
 11
106.257813
 21
166.968750
  0
ARC
  8
CSLAYER2
  6
CONTINUOUS
 62
     7
 10
103.257813
 20
150.968750
 40
14.000000
 50
90.000000
 51
141.880937
  0
ARC
  8
CSLAYER2
  6
CONTINUOUS
 62
     7
 10
76.509003
 20
171.956871
 40
20.000000
 50
271.974875
 51
321.880937
  0
LINE
  8
CSLAYER2
  6
CONTINUOUS
 62
     7
 10
122.257813
 20
166.968750
 11
124.257813
 21
166.968750
  0
LINE
  8
CSLAYER2
  6
CONTINUOUS
 62
     7
 10
124.257813
 20
166.968750
 11
124.257813
 21
141.968750
  0
LINE
  8
CSLAYER2
  6
CONTINUOUS
 62
     7
 10
124.257813
 20
141.968750
 11
64.257813
 21
141.968750
  0
LINE
  8
CSLAYER2
  6
CONTINUOUS
 62
     7
 10
64.257813
 20
141.968750
 11
64.257813
 21
151.968750
  0
LINE
  8
CSLAYER2
  6
CONTINUOUS
 62
     7
 10
64.257813
 20
151.968750
 11
67.817397
 21
151.968750
  0
TEXT
  8
CSLAYER1
 62
     7
 10
64.018593
 20
81.711143
 40
10.000000
 41
0.630000
  1
FM-2135
 50
0.000000
 51
0.000000
  7
SX_FONT
 72
     5
 11
106.018593
 21
81.711143
  0
DIMENSION
  8
CSLAYER1
 62
     7
  2
*D0000
 10
124.257813
 20
181.867025
 11
94.257813
 21
182.867020
 13
64.257813
 23
171.968750
 14
124.257813
 24
171.968750
 70
1
  0
DIMENSION
  8
CSLAYER1
 62
     7
  2
*D0001
 10
134.115804
 20
171.968750
 11
139.329346
 21
156.776855
 13
124.257813
 23
141.968750
 14
124.257813
 24
171.968750
 50
90.000000
 70
1
  0
TEXT
  8
CSLAYER1
 62
     7
 10
120.999771
 20
82.467918
 40
10.000000
 41
0.642857
  1
60x30
 50
0.000000
 51
0.000000
  7
SX_FONT
 72
     5
 11
150.999771
 21
82.467918
  0
TEXT
  8
CSLAYER1
 62
     7
 10
65.199402
 20
69.746414
 40
5.000000
 41
0.612766
  1
カタログ Vol. 1  P57
 50
0.000000
 51
0.000000
  7
SX_FONT
 72
     5
 11
113.199402
 21
69.746414
  0
TEXT
  8
CSLAYER1
 62
     7
 10
65.221144
 20
59.376364
 40
4.960742
 41
0.729057
  1
ホ%%dケットカタロク゛ Vol. 1 P30
 50
0.000000
 51
0.000000
  7
SX_FONT
 72
     5
 11
139.965502
 21
59.376364
  0
ENDSEC
  0
EOF
