  0
SECTION
  2
HEADER
  9
$ACADVER
  1
AC1006
  9
$INSBASE
 10
90.205770
 20
180.868001
 30
0.0
  9
$EXTMIN
 10
90.205770
 20
180.868001
  9
$EXTMAX
 10
300.205770
 20
477.868001
  9
$LIMMIN
 10
90.205770
 20
180.868001
  9
$LIMMAX
 10
300.205770
 20
477.868001
  9
$VIEWCTR
 10
195.205770
 20
329.368001
  9
$VIEWSIZE
 40
297.000000
  9
$SNAPMODE
 70
     0
  9
$SNAPUNIT
 10
1.0
 20
1.0
  9
$SNAPBASE
 10
0.0
 20
0.0
  9
$SNAPANG
 50
0.0
  9
$SNAPSTYLE
 70
     0
  9
$SNAPISOPAIR
 70
     0
  9
$GRIDMODE
 70
     0
  9
$GRIDUNIT
 10
0.0
 20
0.0
  9
$ORTHOMODE
 70
     0
  9
$REGENMODE
 70
     1
  9
$FILLMODE
 70
     1
  9
$QTEXTMODE
 70
     0
  9
$DRAGMODE
 70
     2
  9
$LTSCALE
 40
15.000000
  9
$OSMODE
 70
     0
  9
$ATTMODE
 70
     1
  9
$TEXTSIZE
 40
0.2
  9
$TRACEWID
 40
0.05
  9
$TEXTSTYLE
  7
STANDARD
  9
$CLAYER
  8
CSLAYER3
  9
$CELTYPE
  6
BYLAYER
  9
$CECOLOR
 62
   256
  9
$DIMSCALE
 40
1.0
  9
$DIMASZ
 40
0.18
  9
$DIMEXO
 40
0.0625
  9
$DIMDLI
 40
0.38
  9
$DIMRND
 40
0.0
  9
$DIMDLE
 40
0.0
  9
$DIMEXE
 40
0.18
  9
$DIMTP
 40
0.0
  9
$DIMTM
 40
0.0
  9
$DIMTXT
 40
0.18
  9
$DIMCEN
 40
0.09
  9
$DIMTSZ
 40
0.0
  9
$DIMTOL
 70
     0
  9
$DIMLIM
 70
     0
  9
$DIMTIH
 70
     1
  9
$DIMTOH
 70
     1
  9
$DIMSE1
 70
     0
  9
$DIMSE2
 70
     0
  9
$DIMTAD
 70
     0
  9
$DIMZIN
 70
     0
  9
$DIMBLK
  1

  9
$LUNITS
 70
     2
  9
$LUPREC
 70
     4
  9
$AXISMODE
 70
     0
  9
$AXISUNIT
 10
0.0
 20
0.0
  9
$SKETCHINC
 40
0.1
  9
$FILLETRAD
 40
0.0
  9
$AUNITS
 70
     0
  9
$AUPREC
 70
     0
  9
$MENU
  1
ACAD
  9
$ELEVATION
 40
0.0
  9
$THICKNESS
 40
0.0
  9
$VIEWDIR
 10
0.0
 20
0.0
 30
1.0
  9
$LIMCHECK
 70
     0
  9
$BLIPMODE
 70
     1
  9
$CHAMFERA
 40
0.0
  9
$CHAMFERB
 40
0.0
  9
$FASTZOOM
 70
     1
  9
$SKPOLY
 70
     0
  9
$TDCREATE
 40
0.000000
  9
$TDUPDATE
 40
0.000000
  9
$TDINDWG
 40
0.0
  9
$TDUSRTIMER
 40
0.0
  9
$USRTIMER
 70
     1
  9
$ANGBASE
 50
0.0
  9
$ANGDIR
 70
     0
  9
$PDMODE
 70
     0
  9
$PDSIZE
 40
0.0
  9
$PLINEWID
 40
0.0
  9
$COORDS
 70
     0
  9
$USERI1
 70
     0
  9
$USERI2
 70
     0
  9
$USERI3
 70
     0
  9
$USERI4
 70
     0
  9
$USERI5
 70
     0
  9
$USERR1
 40
0.0
  9
$USERR2
 40
0.0
  9
$USERR3
 40
0.0
  9
$USERR4
 40
0.0
  9
$USERR5
 40
0.0
  0
ENDSEC
  0
SECTION
  2
TABLES
  0
TABLE
  2
LTYPE
 70
     9
  0
LTYPE
  2
CONTINUOUS
 70
    64
  3
Solid line
 72
    65
 73
     0
 40
0.0
  0
LTYPE
  2
DASHED
 70
    64
  3
__ __ __ __ __ __ __ __ __ __ __ __ __ __ __
 72
    65
 73
     2
 40
0.75
 49
0.5
 49
-0.25
  0
LTYPE
  2
HIDDEN
 70
    64
  3
_ _ _ _ _ _ _ _ _ _ _ _ _ _ _ _ _ _ _ _ _ _ _
 72
    65
 73
     2
 40
0.375
 49
0.25
 49
-0.125
  0
LTYPE
  2
DOT
 70
    64
  3
...............................................
 72
    65
 73
     2
 40
0.25
 49
0.0
 49
-0.25
  0
LTYPE
  2
DASHDOT
 70
    64
  3
__ . __ . __ . __ . __ . __ . __ . __ . __ . __
 72
    65
 73
     4
 40
1.0
 49
0.5
 49
-0.25
 49
0.0
 49
-0.25
  0
LTYPE
  2
DIVIDE
 70
    64
  3
__ . . __ . . __ . . __ . . __ . . __ . . __
 72
    65
 73
     6
 40
1.25
 49
0.5
 49
-0.25
 49
0.0
 49
-0.25
 49
0.0
 49
-0.25
  0
LTYPE
  2
CENTER
 70
    64
  3
____ _ ____ _ ____ _ ____ _ ____ _ ____ _ ____ 
 72
    65
 73
     4
 40
2.0
 49
1.25
 49
-0.25
 49
0.25
 49
-0.25
  0
LTYPE
  2
PHANTOM
 70
    64
  3
______  __  __  ______  __  __  ______  __  __ 
 72
    65
 73
     6
 40
2.5
 49
1.25
 49
-0.25
 49
0.25
 49
-0.25
 49
0.25
 49
-0.25
  0
LTYPE
  2
BORDER
 70
    64
  3
__ __ . __ __ . __ __ . __ __ . __ __ . __ __ .
 72
    65
 73
     6
 40
1.75
 49
0.5
 49
-0.25
 49
0.5
 49
-0.25
 49
0.0
 49
-0.25
  0
ENDTAB
  0
TABLE
  2
LAYER
 70
    16
  0
LAYER
  2
CSLAYER1
 70
    64
 62
     7
  6
CONTINUOUS
  0
LAYER
  2
CSLAYER2
 70
    64
 62
     7
  6
CONTINUOUS
  0
LAYER
  2
CSLAYER3
 70
    64
 62
     7
  6
CONTINUOUS
  0
LAYER
  2
CSLAYER4
 70
    64
 62
     7
  6
CONTINUOUS
  0
LAYER
  2
CSLAYER5
 70
    64
 62
     7
  6
CONTINUOUS
  0
LAYER
  2
CSLAYER6
 70
    64
 62
     7
  6
CONTINUOUS
  0
LAYER
  2
CSLAYER7
 70
    64
 62
     7
  6
CONTINUOUS
  0
LAYER
  2
CSLAYER8
 70
    64
 62
     7
  6
CONTINUOUS
  0
LAYER
  2
CSLAYER9
 70
    64
 62
     7
  6
CONTINUOUS
  0
LAYER
  2
CSLAYER10
 70
    64
 62
     7
  6
CONTINUOUS
  0
LAYER
  2
CSLAYER11
 70
    64
 62
     7
  6
CONTINUOUS
  0
LAYER
  2
CSLAYER12
 70
    64
 62
     7
  6
CONTINUOUS
  0
LAYER
  2
CSLAYER13
 70
    64
 62
     7
  6
CONTINUOUS
  0
LAYER
  2
CSLAYER14
 70
    64
 62
     7
  6
CONTINUOUS
  0
LAYER
  2
CSLAYER15
 70
    64
 62
     7
  6
CONTINUOUS
  0
LAYER
  2
CSLAYER16
 70
    64
 62
     7
  6
CONTINUOUS
  0
ENDTAB
  0
TABLE
  2
STYLE
 70
     1
  0
STYLE
  2
SX_FONT
 70
     0
 40
1.0
 41
1.0
 50
0.0
 71
     0
 42
1.0
  3
monotxt
  4
bigfont
  0
ENDTAB
  0
TABLE
  2
VIEW
 70
     0
  0
ENDTAB
  0
ENDSEC
  0
SECTION
  2
BLOCKS
  0
BLOCK
  8
CSLAYER1
  2
*D0000
 70
    65
 10
0.0
 20
0.0
 30
0.0
  0
LINE
  8
CSLAYER1
  6
CONTINUOUS
 62
     7
 10
89.898438
 20
176.953125
 11
89.898438
 21
182.019771
  0
LINE
  8
CSLAYER1
  6
CONTINUOUS
 62
     7
 10
119.898438
 20
176.953125
 11
119.898438
 21
182.019771
  0
LINE
  8
CSLAYER1
  6
CONTINUOUS
 62
     7
 10
89.898438
 20
181.019771
 11
119.898438
 21
181.019771
  0
LINE
  8
CSLAYER1
  6
CONTINUOUS
 62
     7
 10
89.898438
 20
181.019771
 11
93.762141
 21
182.055047
  0
LINE
  8
CSLAYER1
  6
CONTINUOUS
 62
     7
 10
89.898438
 20
181.019771
 11
93.762141
 21
179.984494
  0
LINE
  8
CSLAYER1
  6
CONTINUOUS
 62
     7
 10
119.898438
 20
181.019771
 11
116.034734
 21
182.055047
  0
LINE
  8
CSLAYER1
  6
CONTINUOUS
 62
     7
 10
119.898438
 20
181.019771
 11
116.034734
 21
179.984494
  0
TEXT
  8
CSLAYER1
 62
     7
 10
101.898438
 20
182.019775
 40
4.000000
 41
0.900000
  1
30
 50
0.000000
 51
0.000000
  7
SX_FONT
 72
     5
 11
107.898438
 21
182.019775
  0
ENDBLK
  8
0
  0
BLOCK
  8
CSLAYER1
  2
*D0001
 70
    65
 10
0.0
 20
0.0
 30
0.0
  0
LINE
  8
CSLAYER1
  6
CONTINUOUS
 62
     7
 10
125.898438
 20
155.953125
 11
130.978549
 21
155.953125
  0
LINE
  8
CSLAYER1
  6
CONTINUOUS
 62
     7
 10
125.898438
 20
170.953125
 11
130.978549
 21
170.953125
  0
LINE
  8
CSLAYER1
  6
CONTINUOUS
 62
     7
 10
129.978549
 20
155.953125
 11
129.978549
 21
170.953125
  0
LINE
  8
CSLAYER1
  6
CONTINUOUS
 62
     7
 10
129.978549
 20
155.953125
 11
128.943273
 21
159.816828
  0
LINE
  8
CSLAYER1
  6
CONTINUOUS
 62
     7
 10
129.978549
 20
155.953125
 11
131.013825
 21
159.816828
  0
LINE
  8
CSLAYER1
  6
CONTINUOUS
 62
     7
 10
129.978549
 20
170.953125
 11
128.943273
 21
167.089422
  0
LINE
  8
CSLAYER1
  6
CONTINUOUS
 62
     7
 10
129.978549
 20
170.953125
 11
131.013825
 21
167.089422
  0
TEXT
  8
CSLAYER1
 62
     7
 10
135.317535
 20
160.721466
 40
4.000000
 41
0.900000
  1
15
 50
90.000000
 51
0.000000
  7
SX_FONT
 72
     5
 11
135.317535
 21
166.721466
  0
ENDBLK
  8
0
  0
ENDSEC
  0
SECTION
  2
ENTITIES
  0
ARC
  8
CSLAYER2
  6
CONTINUOUS
 62
     7
 10
115.898438
 20
168.953125
 40
2.000000
 50
0.000000
 51
90.000000
  0
ARC
  8
CSLAYER2
  6
CONTINUOUS
 62
     7
 10
115.797417
 20
169.453125
 40
1.500000
 50
90.000000
 51
152.964308
  0
LINE
  8
CSLAYER2
  6
CONTINUOUS
 62
     7
 10
115.797417
 20
170.953125
 11
115.898438
 21
170.953125
  0
ARC
  8
CSLAYER2
  6
CONTINUOUS
 62
     7
 10
110.898438
 20
171.953125
 40
4.000000
 50
270.000000
 51
332.964308
  0
ARC
  8
CSLAYER2
  6
CONTINUOUS
 62
     7
 10
97.167795
 20
171.949827
 40
11.000000
 50
268.596855
 51
320.493650
  0
ARC
  8
CSLAYER2
  6
CONTINUOUS
 62
     7
 10
109.898438
 20
161.453125
 40
5.500000
 50
90.000000
 51
140.493650
  0
ARC
  8
CSLAYER2
  6
CONTINUOUS
 62
     7
 10
94.898438
 20
160.953125
 40
2.000000
 50
0.000000
 51
90.000000
  0
ARC
  8
CSLAYER2
  6
CONTINUOUS
 62
     7
 10
94.898438
 20
160.953125
 40
2.000000
 50
90.000000
 51
180.000000
  0
LINE
  8
CSLAYER2
  6
CONTINUOUS
 62
     7
 10
117.898438
 20
168.953125
 11
117.898438
 21
167.953125
  0
LINE
  8
CSLAYER2
  6
CONTINUOUS
 62
     7
 10
117.898438
 20
167.953125
 11
119.898438
 21
167.953125
  0
LINE
  8
CSLAYER2
  6
CONTINUOUS
 62
     7
 10
119.898438
 20
167.953125
 11
119.898438
 21
155.953125
  0
LINE
  8
CSLAYER2
  6
CONTINUOUS
 62
     7
 10
119.898438
 20
155.953125
 11
89.898438
 21
155.953125
  0
LINE
  8
CSLAYER2
  6
CONTINUOUS
 62
     7
 10
89.898438
 20
155.953125
 11
89.898438
 21
160.953125
  0
LINE
  8
CSLAYER2
  6
CONTINUOUS
 62
     7
 10
89.898438
 20
160.953125
 11
92.898438
 21
160.953125
  0
LINE
  8
CSLAYER2
  6
CONTINUOUS
 62
     7
 10
109.898438
 20
166.953125
 11
110.898438
 21
166.953125
  0
LINE
  8
CSLAYER2
  6
CONTINUOUS
 62
     7
 10
110.898438
 20
166.953125
 11
110.898438
 21
167.953125
  0
TEXT
  8
CSLAYER1
 62
     7
 10
89.768250
 20
95.182579
 40
10.000000
 41
0.630000
  1
FM-2133
 50
0.000000
 51
0.000000
  7
SX_FONT
 72
     5
 11
131.768250
 21
95.182579
  0
DIMENSION
  8
CSLAYER1
 62
     7
  2
*D0000
 10
119.898438
 20
181.019771
 11
104.898438
 21
182.019775
 13
89.898438
 23
175.953125
 14
119.898438
 24
175.953125
 70
1
  0
DIMENSION
  8
CSLAYER1
 62
     7
  2
*D0001
 10
129.978549
 20
170.953125
 11
135.317535
 21
163.721466
 13
124.898438
 23
155.953125
 14
124.898438
 24
170.953125
 50
90.000000
 70
1
  0
TEXT
  8
CSLAYER1
 62
     7
 10
147.172043
 20
95.463058
 40
10.000000
 41
0.642857
  1
30x15
 50
0.000000
 51
0.000000
  7
SX_FONT
 72
     5
 11
177.172043
 21
95.463058
  0
TEXT
  8
CSLAYER1
 62
     7
 10
90.920265
 20
83.293831
 40
5.000000
 41
0.612766
  1
カタログ Vol. 1  P57
 50
0.000000
 51
0.000000
  7
SX_FONT
 72
     5
 11
138.920265
 21
83.293831
  0
TEXT
  8
CSLAYER1
 62
     7
 10
90.816832
 20
73.549666
 40
4.960742
 41
0.729057
  1
ホ%%dケットカタロク゛ Vol. 1 P30
 50
0.000000
 51
0.000000
  7
SX_FONT
 72
     5
 11
165.561189
 21
73.549666
  0
ENDSEC
  0
EOF
